23
дек
2015

VA - Die Hit Giganten: Best of Rock'n'roll (3CD) [2015, Rock Roll, FLAC]

VA - Die Hit Giganten: Best of Rock'n'roll (3CD)
Формат: FLAC, (image + .cue), lossless
Год выпуска: 2015
Страна: All World
Жанр: Rock & Roll
Продолжительность: 02:41:33
Описание:
CD 1 00
01. Elvis Presley - Jailhouse Rock (02:29)
02. Little Richard - Tutti frutti (02:25)
03. Carl Perkins - Blue suede shoes (02:16)
04. Chuck Berry - Sweet little sixteen (03:04)
05. Wanda Jackson - Let's have a party (02:10)
06. Jackie Wilson - Reet petite (02:45)
07. Jerry Lee Lewis - Whole lotta shakin' goin' on (02:52)
08. Larry Williams - Dizzy Miss Lizzy (02:13)
09. Bill Haley & The Comets - (We're gonna) Rock around the clock (02:11)
10. The Swinging Blue Jeans - Hippy hippy shake (01:47)
11. Joe Turner & His Blues Kings - Shake, rattle & roll (03:02)
12. Bobby Darin - Queen of the hop (02:07)
13. Sonny Burgess - Red headed woman (02:11)
14. The Platters - Only you (and you alone) (02:38 )
15. Louis Prima - Buona sera (02:59)
16. The Drifters - Saturday night at the movies (02:27)
17. The Chantays - Pipeline (02:21)
18. Billy Lee Riley - Red hot (02:33)
19. The Crests - Sixteen candles (02:49)
20. Eddie Cochran - Summertime blues (01:58 )
21. Fats Domino - I'm walkin' (02:13)
22. Brenda Lee - Sweet nothin's (02:23)

eac
Exact Audio Copy V1.1 from 23. June 2015

EAC extraction logfile from 22. November 2015, 18:10

Various Artists / Die Hit Giganten Best of Rock'n'roll CD1

Used drive : PIONEER BD-RW BDR-209D Adapter: 0 ID: 4

Read mode : Secure
Utilize accurate stream : Yes
Defeat audio cache : Yes
Make use of C2 pointers : No

Read offset correction : 667
Overread into Lead-In and Lead-Out : No
Fill up missing offset samples with silence : Yes
Delete leading and trailing silent blocks : No
Null samples used in CRC calculations : Yes
Used interface : Installed external ASPI interface

Used output format : User Defined Encoder
Selected bitrate : 768 kBit/s
Quality : High
Add ID3 tag : No
Command line compressor : C:Program Files (x86)Exact Audio CopyFLACFLAC.EXE
Additional command line options : -6 -V -T "ARTIST=%artist%" -T "TITLE=%title%" -T "ALBUM=%albumtitle%" -T "DATE=%year%" -T "TRACKNUMBER=%tracknr%" -T "GENRE=%genre%" -T "COMMENT=%comment%" -T "BAND=%albuminterpret%" -T "ALBUMARTIST=%albuminterpret%" -T "COMPOSER=%composer%" %haslyrics%--tag-from-file=LYRICS="%lyricsfile%"%haslyrics% -T "DISCNUMBER=%cdnumber%" -T "TOTALDISCS=%totalcds%" -T "TOTALTRACKS=%numtracks%" %hascover%--picture="%coverfile%"%hascover% %source% -o %dest%

TOC of the extracted CD

Track | Start | Length | Start sector | End sector
---------------------------------------------------------
1 | 0:00.00 | 2:28.66 | 0 | 11165
2 | 2:28.66 | 2:25.17 | 11166 | 22057
3 | 4:54.08 | 2:16.11 | 22058 | 32268
4 | 7:10.19 | 3:03.45 | 32269 | 46038
5 | 10:13.64 | 2:09.46 | 46039 | 55759
6 | 12:23.35 | 2:44.59 | 55760 | 68118
7 | 15:08.19 | 2:52.12 | 68119 | 81030
8 | 18:00.31 | 2:12.63 | 81031 | 90993
9 | 20:13.19 | 2:11.02 | 90994 | 100820
10 | 22:24.21 | 1:46.29 | 100821 | 108799
11 | 24:10.50 | 3:01.45 | 108800 | 122419
12 | 27:12.20 | 2:07.11 | 122420 | 131955
13 | 29:19.31 | 2:10.72 | 131956 | 141777
14 | 31:30.28 | 2:37.62 | 141778 | 153614
15 | 34:08.15 | 2:58.39 | 153615 | 167003
16 | 37:06.54 | 2:26.32 | 167004 | 177985
17 | 39:33.11 | 2:20.68 | 177986 | 188553
18 | 41:54.04 | 2:32.65 | 188554 | 200018
19 | 44:26.69 | 2:48.60 | 200019 | 212678
20 | 47:15.54 | 1:57.45 | 212679 | 221498
21 | 49:13.24 | 2:13.21 | 221499 | 231494
22 | 51:26.45 | 2:22.36 | 231495 | 242180

Range status and errors

Selected range

Filename E:MUSICVarious Artists - Die Hit Giganten Best of Rock'n'roll CD1.wav

Peak level 99.2 %
Extraction speed 7.5 X
Range quality 100.0 %
Test CRC 0BC74BDE
Copy CRC 0BC74BDE
Copy OK

No errors occurred

AccurateRip summary

Track 1 not present in database
Track 2 not present in database
Track 3 not present in database
Track 4 not present in database
Track 5 not present in database
Track 6 not present in database
Track 7 not present in database
Track 8 not present in database
Track 9 not present in database
Track 10 not present in database
Track 11 not present in database
Track 12 not present in database
Track 13 not present in database
Track 14 not present in database
Track 15 not present in database
Track 16 not present in database
Track 17 not present in database
Track 18 not present in database
Track 19 not present in database
Track 20 not present in database
Track 21 not present in database
Track 22 not present in database

None of the tracks are present in the AccurateRip database

End of status report

==== Log checksum 5057FB85F81E7237ADBF6CBE832D76483D3D85EDB0B4C14ECD6FB2EF35C4AAD0 ====
CD 2 00
01. Bill Haley - See you later alligator (02:47)
02. Jerry Lee Lewis - Great balls of fire (01:53)
03. Gene Vincent - Be-bop-a-lula (02:37)
04. Chubby Checker - Let's twist again (02:20)
05. Pat Boone - Speedy Gonzales (02:34)
06. Ritchie Valens - La bamba (02:09)
07. Bobby Darin - Splish splash (02:09)
08. Johnny & The Hurricanes - Red river rock (02:12)
09. The Everly Brothers - Wake up little Susie (02:01)
10. Stray Cats - Rock this town (02:41)
11. Shakin' Stevens - Marie, Marie (02:46)
12. Fairground Attraction - Perfect (03:37)
13. Billy Swan - I can help (04:00)
14. Elton John - Crocodile Rock (03:56)
15. Matchbox - Rockabilly rebel (02:45)
16. The Big Bopper - Chantilly lace (02:25)
17. The Coasters - Yekety yak (01:51)
18. Danny & The Juniors - At the hop (02:41)
19. The Rivieras - California sun (02:26)
20. Lloyd Price - Stagger Lee (02:22)
21. Roy Orbison - Ooby dooby (02:13)
22. Duane Eddy - Rebel rouser (02:31)

eac
Exact Audio Copy V1.1 from 23. June 2015

EAC extraction logfile from 22. November 2015, 18:29

Various Artists / Die Hit Giganten Best of Rock'n'roll CD2

Used drive : PIONEER BD-RW BDR-209D Adapter: 0 ID: 4

Read mode : Secure
Utilize accurate stream : Yes
Defeat audio cache : Yes
Make use of C2 pointers : No

Read offset correction : 667
Overread into Lead-In and Lead-Out : No
Fill up missing offset samples with silence : Yes
Delete leading and trailing silent blocks : No
Null samples used in CRC calculations : Yes
Used interface : Installed external ASPI interface

Used output format : User Defined Encoder
Selected bitrate : 768 kBit/s
Quality : High
Add ID3 tag : No
Command line compressor : C:Program Files (x86)Exact Audio CopyFLACFLAC.EXE
Additional command line options : -6 -V -T "ARTIST=%artist%" -T "TITLE=%title%" -T "ALBUM=%albumtitle%" -T "DATE=%year%" -T "TRACKNUMBER=%tracknr%" -T "GENRE=%genre%" -T "COMMENT=%comment%" -T "BAND=%albuminterpret%" -T "ALBUMARTIST=%albuminterpret%" -T "COMPOSER=%composer%" %haslyrics%--tag-from-file=LYRICS="%lyricsfile%"%haslyrics% -T "DISCNUMBER=%cdnumber%" -T "TOTALDISCS=%totalcds%" -T "TOTALTRACKS=%numtracks%" %hascover%--picture="%coverfile%"%hascover% %source% -o %dest%

TOC of the extracted CD

Track | Start | Length | Start sector | End sector
---------------------------------------------------------
1 | 0:00.00 | 2:47.05 | 0 | 12529
2 | 2:47.05 | 1:52.30 | 12530 | 20959
3 | 4:39.35 | 2:37.04 | 20960 | 32738
4 | 7:16.39 | 2:19.52 | 32739 | 43215
5 | 9:36.16 | 2:33.30 | 43216 | 54720
6 | 12:09.46 | 2:08.60 | 54721 | 64380
7 | 14:18.31 | 2:08.39 | 64381 | 74019
8 | 16:26.70 | 2:11.61 | 74020 | 83905
9 | 18:38.56 | 2:00.45 | 83906 | 92950
10 | 20:39.26 | 2:40.56 | 92951 | 105006
11 | 23:20.07 | 2:45.44 | 105007 | 117425
12 | 26:05.51 | 3:37.11 | 117426 | 133711
13 | 29:42.62 | 3:59.38 | 133712 | 151674
14 | 33:42.25 | 3:55.60 | 151675 | 169359
15 | 37:38.10 | 2:45.21 | 169360 | 181755
16 | 40:23.31 | 2:25.16 | 181756 | 192646
17 | 42:48.47 | 1:50.42 | 192647 | 200938
18 | 44:39.14 | 2:40.50 | 200939 | 212988
19 | 47:19.64 | 2:26.17 | 212989 | 223955
20 | 49:46.06 | 2:22.15 | 223956 | 234620
21 | 52:08.21 | 2:12.48 | 234621 | 244568
22 | 54:20.69 | 2:31.19 | 244569 | 255912

Range status and errors

Selected range

Filename E:MUSICVarious Artists - Die Hit Giganten Best of Rock'n'roll CD2.wav

Peak level 99.0 %
Extraction speed 7.6 X
Range quality 100.0 %
Test CRC E5105952
Copy CRC E5105952
Copy OK

No errors occurred

AccurateRip summary

Track 1 not present in database
Track 2 not present in database
Track 3 not present in database
Track 4 not present in database
Track 5 not present in database
Track 6 not present in database
Track 7 not present in database
Track 8 not present in database
Track 9 not present in database
Track 10 not present in database
Track 11 not present in database
Track 12 not present in database
Track 13 not present in database
Track 14 not present in database
Track 15 not present in database
Track 16 not present in database
Track 17 not present in database
Track 18 not present in database
Track 19 not present in database
Track 20 not present in database
Track 21 not present in database
Track 22 not present in database

None of the tracks are present in the AccurateRip database

End of status report

==== Log checksum A3B1C54A81787BEFFAB8CDFA217E38E2813E49C073C7581DF157CA8939D28ACB ====
CD 3 00
01. Chuck Berry - Johnny B. Goode (02:43)
02. Rocky Sharpe & The Replays - Rama lama ding dong (02:21)
03. Little Richard - Long tall Sally (02:11)
04. Elvis Presley - Don't be cruel (02:04)
05. Del Shannon - Runaway (02:16)
06. Cliff Richard & The Shadows - Nine times out of ten (02:09)
07. Chubby Checker - The twist (02:37)
08. Larry Williams - Bony Moronie (03:08 )
09. Eddie Cochran - C'mon everybdoy (01:56)
10. Janis Martin - Love and kisses (02:00)
11. The Crystals - Da doo ron ron (02:21)
12. Connie Francis - Stupid cupid (02:12)
13. The Coasters - Charlie Brown (02:16)
14. The Shangri-Las - The leader of the pack (02:51)
15. Sammy Salvo - A mushroom cloud (01:56)
16. Pat Boone - A wonderful time tup there (02:06)
17. Buddy Holly & The Crickets - Oh, boy! (02:08 )
18. Billy Vaughn - Raunchy (02:16)
19. Carl Perkins - Matchbox (02:09)
20. The Everly Brothers - Bye bye love (02:16)
21. The Drifters - Save the last dance for me (02:34)
22. The Champs - Tequila (02:14)

eac
Exact Audio Copy V1.1 from 23. June 2015

EAC extraction logfile from 22. November 2015, 18:52

Various Artists / Die Hit Giganten Best of Rock'n'roll CD3

Used drive : PIONEER BD-RW BDR-209D Adapter: 0 ID: 4

Read mode : Secure
Utilize accurate stream : Yes
Defeat audio cache : Yes
Make use of C2 pointers : No

Read offset correction : 667
Overread into Lead-In and Lead-Out : No
Fill up missing offset samples with silence : Yes
Delete leading and trailing silent blocks : No
Null samples used in CRC calculations : Yes
Used interface : Installed external ASPI interface

Used output format : User Defined Encoder
Selected bitrate : 768 kBit/s
Quality : High
Add ID3 tag : No
Command line compressor : C:Program Files (x86)Exact Audio CopyFLACFLAC.EXE
Additional command line options : -6 -V -T "ARTIST=%artist%" -T "TITLE=%title%" -T "ALBUM=%albumtitle%" -T "DATE=%year%" -T "TRACKNUMBER=%tracknr%" -T "GENRE=%genre%" -T "COMMENT=%comment%" -T "BAND=%albuminterpret%" -T "ALBUMARTIST=%albuminterpret%" -T "COMPOSER=%composer%" %haslyrics%--tag-from-file=LYRICS="%lyricsfile%"%haslyrics% -T "DISCNUMBER=%cdnumber%" -T "TOTALDISCS=%totalcds%" -T "TOTALTRACKS=%numtracks%" %hascover%--picture="%coverfile%"%hascover% %source% -o %dest%

TOC of the extracted CD

Track | Start | Length | Start sector | End sector
---------------------------------------------------------
1 | 0:00.00 | 2:42.70 | 0 | 12219
2 | 2:42.70 | 2:20.36 | 12220 | 22755
3 | 5:03.31 | 2:11.20 | 22756 | 32600
4 | 7:14.51 | 2:04.15 | 32601 | 41915
5 | 9:18.66 | 2:15.63 | 41916 | 52103
6 | 11:34.54 | 2:08.34 | 52104 | 61737
7 | 13:43.13 | 2:36.41 | 61738 | 73478
8 | 16:19.54 | 3:07.46 | 73479 | 87549
9 | 19:27.25 | 1:56.15 | 87550 | 96264
10 | 21:23.40 | 1:59.42 | 96265 | 105231
11 | 23:23.07 | 2:20.36 | 105232 | 115767
12 | 25:43.43 | 2:12.10 | 115768 | 125677
13 | 27:55.53 | 2:15.62 | 125678 | 135864
14 | 30:11.40 | 2:50.62 | 135865 | 148676
15 | 33:02.27 | 1:55.67 | 148677 | 157368
16 | 34:58.19 | 2:05.68 | 157369 | 166811
17 | 37:04.12 | 2:08.08 | 166812 | 176419
18 | 39:12.20 | 2:15.51 | 176420 | 186595
19 | 41:27.71 | 2:09.12 | 186596 | 196282
20 | 43:37.08 | 2:16.24 | 196283 | 206506
21 | 45:53.32 | 2:33.45 | 206507 | 218026
22 | 48:27.02 | 2:14.04 | 218027 | 228080

Range status and errors

Selected range

Filename E:MUSICVarious Artists - Die Hit Giganten Best of Rock'n'roll CD3.wav

Peak level 99.5 %
Extraction speed 7.4 X
Range quality 100.0 %
Test CRC EED1D753
Copy CRC EED1D753
Copy OK

No errors occurred

AccurateRip summary

Track 1 not present in database
Track 2 not present in database
Track 3 not present in database
Track 4 not present in database
Track 5 not present in database
Track 6 not present in database
Track 7 not present in database
Track 8 not present in database
Track 9 not present in database
Track 10 not present in database
Track 11 not present in database
Track 12 not present in database
Track 13 not present in database
Track 14 not present in database
Track 15 not present in database
Track 16 not present in database
Track 17 not present in database
Track 18 not present in database
Track 19 not present in database
Track 20 not present in database
Track 21 not present in database
Track 22 not present in database

None of the tracks are present in the AccurateRip database

End of status report

==== Log checksum 441FF291FC46B1802337AE86EC93945321B9C9B6C6F6C8CD4585092ECFA25CCD ====
Музыка / Lossless / Сборники
СКАЧАТЬ БЕСПЛАТНО  [919.8 MB]


26
апр
2015

VA - Die Hit Giganten: Best Of 70's (3CD) [2011, Rock, Pop Rock, Funk, FLAC]

Формат: FLAC, (image + .cue), lossless
Год выпуска: 2011
Страна: Germany
Жанр: Rock, Pop Rock, Funk
Продолжительность: 03:41:48
Описание: CD 1 01 01. Fleetwood Mac - Don't Stop 02. Lou Reed - Walk On The Wild Side 03. Scott McKenzie - San Francisco (Be Sure To Wear Flowers In Your Hair) 04. Santana - Jin-Go-Lo-Ba 05. David Dundas - Jeans On 06. Middle Of The Road - Chirpy Chirpy Cheep Cheep 07. Mud - Oh Boy 08. La Bionda - One For You One For Me 09. Nick Straker - A Walk In The Park 10. Pilot - January 11. Wild Cherry - Play That Funky Music 12. Hot Butter - Popcorn 13. Boz Scaggs - Lido Shuff ...

04
авг
2017

VA - Rock 'N' Roll Britannia (3CD) [2016, Rock 'n' Roll, FLAC]

Формат: FLAC, (image + .cue), lossless
Год выпуска: 2016
Страна: UK
Жанр: Rock 'n' Roll
Продолжительность: 02:46:30
Описание: CD 1 00 01. Twenty Flight Rock - Cliff Richard 02. Sea Of Love - Marty Wilde 03. High School Confidential - Adam Faith 04. Dream Lover - Duffy Power 05. What Do You Want To Make Those Eyes At Me For - Emile Ford & The Checkmates 06. Margo - Billy Fury 07. Tallahassie Lassie - Tommy Steele 08. Cloudburst - Don Lang 09. Crazy Little Daisy - Neville Taylor & The Cutters 10. Nothin' Shakin' (But The Leaves On The Trees) - Craig Douglas 11. Rockin' At The 2 I's - Wee Willie ...

15
мая
2016

VA - Ultimate Rock 'N' Roll Love Songs (3CD) [2015, Rock 'n' Roll, FLAC]

Формат: FLAC, (image + .cue), lossless
Год выпуска: 2015
Страна: UK
Жанр: Rock 'n' Roll
Продолжительность: 03:00:52
Описание: CD 1 0001. Dion & the Belmonts - Teenager in Love 02. The Everly Brothers - Wake Up Little Susie 03. Elvis Presley - (Marie's the Name) His Latest Flame 04. Brian Hyland - Ginny Come Lately 05. Tommy Roe - Sheila 06. Bobby Darin - Dream Lover 07. Peggy Sue - Buddy Holly 08. Pretty Little Angel Eyes - Curtis Lee 09. The Skyliners - Since I Don't Have You 10. Eddie Cochran - Three Steps to Heaven 11. Ricky Nelson - Hello Mary Lou 12. Conway Twitty - It's Only Make Believe ...

13
мая
2016

VA - Rock 'n' Roll Party - The Absolutely Essential (3CD) [2015, Rock 'N' Roll, FLAC]

Формат: FLAC, (image + .cue), lossless
Год выпуска: 2015
Страна: UK
Жанр: Rock 'N' Roll
Продолжительность: 02:16:17
Описание: CD 1 0001. Bill Haley - Rock Around The Clock 1954 02. Elvis Presley - Heartbreak Hotel 1956 03. Little Richard - Rip It Up 1956 04. Jerry Lee Lewis - Great Balls Of Fire 1957 05. Chuck Berry - Carol 1958 06. Gene Vincent - Be-Bop-A-Lula 1956 07. Eddie Cochran - Twenty Flight Rock 1957 08. Duane Eddy - Shazam 1960 09. Bo Diddley - Pretty Thing 1955 10. Buddy Holly & The Crickets - Oh Boy 1957 11. Del Shannon - Runaway 1961 12. The Everly Brothers - Wake Up Little Susie ...

19
мар
2017

VA - Hit Parade XX Century - Rock'n'roll and Blues (2CD) [2002, Rock, Rock'n'roll, Blues, MP3]

Формат: MP3, tracks, 320kbps
Год выпуска: 2002
Страна: All World
Жанр: Rock, Rock'n'roll, Blues
Продолжительность: 02:31:04
Описание: CD 1 - Hit Parade. Rock'N'Roll and Blues - 01 01. Chubby Checkers - Let's Twist Again 02. Elvis Presley - His Flame 03. Chuk Berry - You Never Can Tell 04. Roy Orbison - Blue Angel 05. Jerry Lee Lewis - Great Balls of Fire 06. Bill Haley - Rock Around The Clock 07. Little Richard - Tutti Frutti 08. Eddie Cochran - Summertime Blues 09. Elvis Presley - Blue Svede Shoes 10. The Swinging Blue Jeans - Hippy Shake 11. Pat Bone - Speedy Gonzales 12. Danny & The Junior ...

05
дек
2015

Jethro Tull - Too Old to Rock 'n' Roll: Too Young to Die! (40th Anniversary TV Special Edition) (2CD) [2015, Progressive Rock, MP3]

Формат: MP3, tracks, 320kbps
Год выпуска: 2015
Страна: UK
Жанр: Progressive Rock
Продолжительность: 02:21:18
Описание: CD1 (01Steven Wilson Stereo Mix 01. Prelude 02. Quizz Kid 03. Crazed Institution 04. Salamander 05. Taxi Grab 06. From A Deadbeat To An Old Greaser 07. Bad-Eyed And Loveless 08. Big Dipper 09. Too Old To Rock'n'Roll: Too Young To Die 10. Pied Piper 11. The Chequered Flag (Dead Or Alive) Steven Wilson Stereo Remix - Monte Carlo January 1976 12. From A Deadbeat To An Old Greaser 13. Bad-Eyed And Loveless 14. Big Dipper Steven Wilson Stereo Remix - Brussels November 1975 15. To ...

31
мая
2017

Aaron Hellvis - Ballsqueezin' Boozesniffin' Motherfuckin' Rock 'N' Roll [2017, Hard-N-Roll, MP3]

Формат: MP3, tracks, 320kbps
Год выпуска: 2017
Страна: Germany
Жанр: Hard-N-Roll
Продолжительность: 00:49:33
Описание: 01. King Dynamite 02. Motor 03. Dead or Alive 04. Into the Wall 05. Chicago Typewriter 06. Walk, Baby, Walk 07. We are Motorteds 08. Riches 09. Rebel 10. Sir Lucky John Booze 11. Bad Franky’s Hell Cab 12. Roadhouse Bloody Blue

01
фев
2016

VA - Shakin' All Over: The Best Of British Rock 'N' Roll (2CD) [2012, Rock 'N' Roll, Pop, Easy Listening, FLAC]

Формат: FLAC, (image + .cue), lossless
Год выпуска: 2012
Страна: All World
Жанр: Rock 'N' Roll, Pop, Easy Listening
Продолжительность: 01:28:51
Описание: CD 1 0001. Adam Faith - What Do You Want 02. Cliff Richard & The Drifters - Move It 03. Johnny Kidd And The Pirates - Shakin' All Over 04. Billy Fury - Colette 05. Alma Cogan - Dreamboat 06. Marty Wilde - A Teenager In Love 07. Tommy Steele - Singin’ The Blues 08. Dickie Pride - Primrose Lane 09. Frankie Vaughan - Garden Of Eden 10. The Stargazers - She Loves To Rock 11. Lonnie Donegan - Cumberland Gap 12. Cliff Richard & The Shadows - Travel ...

10
окт
2014

American Mafia - Rock N' Roll Hit Machine [2014, Hard Rock, Classic Rock, MP3]

Формат: MP3, tracks, 320kbps
Год выпуска: 2014
Страна: U.S.A.
Жанр: Hard Rock, Classic Rock
Продолжительность: 00:49:10
Описание: 01. Obsession 02. Every Time 03. Your Good Lovin' 04. Death & Satisfaction 05. Friendly Fire 06. If I Knew 07. Man On the Flying Trapeze 08. Living for the City 09. The Sky Is Falling 10. Let Me Go 11. All I Need 12. Resurrection
Доп. информация: Tom Jude (Doro Pesch / Holy Water) - Guitar Freddy Villano (Quiet Riot / Widowmaker) - Bass Bobby Marks (Dokken) - Drums Vocals: John West (Badlands / Artension / Royal Hunt) Jimmy Kunes (Cactus / Flood the Engine) Don ...

06
окт
2017

Backstreet Girls - Don't Mess With My Rock'n'Roll [2017, Rock, Rock Roll, Hard Rock, FLAC]

Формат: FLAC, tracks, lossless
Год выпуска: 2017
Страна: Norway
Жанр: Rock, Rock & Roll, Hard Rock
Продолжительность: 00:39:59
Описание: 01. Wild Women & Bad Bad Boys 02. Rollin' With The Stones 03. Don't Mess With My Rock'n'roll 04. Jaguars 05. Hound Dog Taylor Made 06. Down To Kill 07. Radio 08. Back Again 09. Psycho 10. Soul Shaker
Доп. информация: СоставBass, Backing Vocals – Dan Thunderbird Drums – Martin Hansson Guitar, Backing Vocals, Piano – Petter Baarli Lead Vocals – Bjørn Müller http://www.backstreetgirls.net/ Log ----------------------- DON'T MODIFY THIS FILE ------ ...

26
окт
2017

Backstreet Girls - Don't Mess With My Rock'N'Roll [2017, Hard Rock, Rock'n'Roll, MP3]

Формат: MP3, tracks, 320kbps
Год выпуска: 2017
Страна: Finland
Жанр: Hard Rock, Rock'n'Roll
Продолжительность: 00:40:03
Описание: 1. Wild Women & Bad Bad Boys 2. Rollin' With The Stones 3. Don't Mess With My Rock 'n' Roll 4. Jaguars 5. Hound Dog Taylor Made 6. Down To Kill 7. Radio 8. Back Again 9. Psycho 10. Soul Shaker
Доп. информация: Об издании Источник Lossless (WEB)

05
июл
2018

Rose Tattoo - Nice Boys Don't Play Rock'n'Roll [1992, Rock, Hard Rock, FLAC]

Формат: FLAC, (tracks + .cue), lossless
Год выпуска: 1992
Страна: Australia
Жанр: Rock, Hard Rock
Продолжительность: 01:02:50
Описание: 01. Scarred For Life 02. Nice Boys 03. Bad Boy For Love 04. Rock'n'Roll Outlaw 05. Stuck On You 06. One Of The Boys 07. Astra Wally 08. Snow Queen 09. Assault & Battery 10. I Had You First 11. The Butcher And Fast Eddy 12. Rock'n'Roll Is King 13. Branded 14. Never Too Loud 15. We Can't Be Beaten 16. All Hell Broke Loose
Доп. информация: https://en.wikipedia.org/wiki/Rose_Tattoo eac Exact Audio Copy V1.3 from 2. September 2016 EAC extraction logfile from 21 ...

30
апр
2015

VA - Die Hit Giganten: Best Of One Hit Wonder (3CD) [2013, Rock, Pop, Dance, FLAC]

Формат: FLAC, (image + .cue), lossless
Год выпуска: 2013
Страна: Germany
Жанр: Rock, Pop, Dance
Продолжительность: 03:50:32
Описание: CD 1 01 01. Crazy Town - Butterfly 02. Dante Thomas - Miss California 03. Toploader - Dancing In The Moonlight 04. Heroes Del Silencio - Entre Dos Tierras 05. Opm - Heaven Is A Halfpipe 06. Spin Doctors - Two Princes 07. Babylon Zoo - Spaceman 08. The Dandy Warhols - Bohemian Like You 09. Bell Book & Candle - Rescue Me 10. The Boo Radleys - Wake Up Boo! 11. Fiction Factory - (Feels Like) Heaven 12. The Romantics - Talking In Your Sleep 13. The Outfield - Your Lo ...

14
июл
2013

VA - Wanda Jackson - 16 Rock'n'Roll Hits [1995, Rock'n'Roll, MP3]

Формат: MP3, tracks, 320kbps
Год выпуска: 1995
Страна: USA
Жанр: Rock'n'Roll
Продолжительность: 00:37:19
Описание: 01. Let's Have A Party 02. Mean Mean Man 03. Fujiyama Mama 04. Kansas City 05. Sticks & Stones 06. Tweedle Dee 07. Lost Weekend 08. Right Or Wrong 09. Stupid Cupid 10. Slippin' And Slidin' 11. Brown Eyed Handsome Man 12. You've Turned To A Stranger 13. Money, Honey 14. Don'a Wanna 15. Did You Miss Me? 16. Cool Love

20
апр
2016

VA - Rock 'n' Roll Jukebox Hits: 100 Originals from the 50s [2016, Rock, rock-n-roll, Oldies, MP3]

Формат: MP3, tracks, 320kbps
Год выпуска: 2016
Страна: All World
Жанр: Rock, rock-n-roll, Oldies
Продолжительность: 04:04:59
Описание: Треклист 1. The Sensations - Let Me In (3:03) 2. The Sheppards - Glitter in Your Eyes (2:45) 3. The Dovells - Bristol Stomp (2:20) 4. The Crystals - There's No Other (Like My Baby) (2:30) 5. The Fiestas - Dollar Bill (2:48) 6. The Chaperones - Cruise to the Moon (2:14) 7. Sevilles - Charlena (2:48) 8. The Jesters - Sally Green (2:13) 9. The Five Royals - I'm with You (4:24) 10. The Blue Notes - My Hero (2:41) 11. Roy Orbison - I Like Love (2:32) 12. The Coaster ...