26
апр
2015

VA - Die Hit Giganten: Best Of 70's (3CD) [2011, Rock, Pop Rock, Funk, FLAC]

VA - Die Hit Giganten: Best Of 70's (3CD)

Формат: FLAC, (image + .cue), lossless
Год выпуска: 2011
Страна: Germany
Жанр: Rock, Pop Rock, Funk
Продолжительность: 03:41:48
Описание:
CD 1 01

01. Fleetwood Mac - Don't Stop
02. Lou Reed - Walk On The Wild Side
03. Scott McKenzie - San Francisco (Be Sure To Wear Flowers In Your Hair)
04. Santana - Jin-Go-Lo-Ba
05. David Dundas - Jeans On
06. Middle Of The Road - Chirpy Chirpy Cheep Cheep
07. Mud - Oh Boy
08. La Bionda - One For You One For Me
09. Nick Straker - A Walk In The Park
10. Pilot - January
11. Wild Cherry - Play That Funky Music
12. Hot Butter - Popcorn
13. Boz Scaggs - Lido Shuffle
14. Bay City Rollers - Bye Bye Baby
15. Penny McLean - Lady Bump
16. Clout - Substitute
17. Vanity Fare - Hitchin' A Ride
18. Canned Heat - On The Road Again
19. Showaddywaddy - Under The Moon Of Love
20. Kincade - Dreams Are Ten A Penny
21. Cliff Richard - We Don't Talk Anymore

eac
Exact Audio Copy V1.0 beta 3 from 29. August 2011

EAC extraction logfile from 21. April 2015, 22:43

Various Artists / Die Hit Giganten - Best Of 70's CD1

Used drive : PLEXTOR DVDR PX-860A Adapter: 4 ID: 0

Read mode : Secure
Utilize accurate stream : Yes
Defeat audio cache : Yes
Make use of C2 pointers : No

Read offset correction : 96
Overread into Lead-In and Lead-Out : No
Fill up missing offset samples with silence : Yes
Delete leading and trailing silent blocks : No
Null samples used in CRC calculations : Yes
Used interface : Installed external ASPI interface

Used output format : User Defined Encoder
Selected bitrate : 128 kBit/s
Quality : High
Add ID3 tag : Yes
Command line compressor : G:Program Files (x86)Exact Audio CopyFlacflac.exe
Additional command line options : -V -8 -T "Date=%year%" -T "Genre=%genre%" %source%

TOC of the extracted CD

Track | Start | Length | Start sector | End sector
---------------------------------------------------------
1 | 0:00.00 | 3:12.74 | 0 | 14473
2 | 3:12.74 | 4:14.50 | 14474 | 33573
3 | 7:27.49 | 2:56.63 | 33574 | 46836
4 | 10:24.37 | 4:15.66 | 46837 | 66027
5 | 14:40.28 | 3:18.25 | 66028 | 80902
6 | 17:58.53 | 2:59.06 | 80903 | 94333
7 | 20:57.59 | 2:53.64 | 94334 | 107372
8 | 23:51.48 | 3:32.58 | 107373 | 123330
9 | 27:24.31 | 3:50.71 | 123331 | 140651
10 | 31:15.27 | 3:32.18 | 140652 | 156569
11 | 34:47.45 | 4:57.22 | 156570 | 178866
12 | 39:44.67 | 2:34.10 | 178867 | 190426
13 | 42:19.02 | 3:43.06 | 190427 | 207157
14 | 46:02.08 | 2:48.62 | 207158 | 219819
15 | 48:50.70 | 3:44.56 | 219820 | 236675
16 | 52:35.51 | 3:26.06 | 236676 | 252131
17 | 56:01.57 | 2:58.02 | 252132 | 265483
18 | 58:59.59 | 4:57.13 | 265484 | 287771
19 | 63:56.72 | 3:04.33 | 287772 | 301604
20 | 67:01.30 | 2:38.20 | 301605 | 313474
21 | 69:39.50 | 4:11.14 | 313475 | 332313

Range status and errors

Selected range

Filename D:MUSICVarious Artists - Die Hit Giganten - Best Of 70's CD1.wav

Peak level 97.7 %
Extraction speed 5.1 X
Range quality 99.9 %
Test CRC 2AD5CAA4
Copy CRC 2AD5CAA4
Copy OK

No errors occurred

AccurateRip summary

Track 1 cannot be verified as accurate (confidence 14) [E5E0E67C], AccurateRip returned [327CCDFB] (AR v2)
Track 2 cannot be verified as accurate (confidence 14) [DAC15C08], AccurateRip returned [9F3C2C36] (AR v2)
Track 3 cannot be verified as accurate (confidence 15) [D39B47F8], AccurateRip returned [A683C2E6] (AR v2)
Track 4 cannot be verified as accurate (confidence 14) [24AC7675], AccurateRip returned [EC0911F8] (AR v2)
Track 5 cannot be verified as accurate (confidence 14) [4C48FE09], AccurateRip returned [9BEF334A] (AR v2)
Track 6 cannot be verified as accurate (confidence 15) [F99B7EC5], AccurateRip returned [804F977A] (AR v2)
Track 7 cannot be verified as accurate (confidence 14) [533C56E6], AccurateRip returned [EC96B669] (AR v2)
Track 8 cannot be verified as accurate (confidence 14) [843702C9], AccurateRip returned [61E0B060] (AR v2)
Track 9 cannot be verified as accurate (confidence 14) [BECB5E77], AccurateRip returned [9D5D8271] (AR v2)
Track 10 cannot be verified as accurate (confidence 14) [256AA5D9], AccurateRip returned [550D38FE] (AR v2)
Track 11 cannot be verified as accurate (confidence 14) [BC142CF8], AccurateRip returned [444348C1] (AR v2)
Track 12 cannot be verified as accurate (confidence 15) [88D51AE5], AccurateRip returned [F1B6337F] (AR v2)
Track 13 cannot be verified as accurate (confidence 14) [30745E6E], AccurateRip returned [6235ED1C] (AR v2)
Track 14 cannot be verified as accurate (confidence 14) [679B9651], AccurateRip returned [84776905] (AR v2)
Track 15 cannot be verified as accurate (confidence 14) [200FDD25], AccurateRip returned [18CA5880] (AR v2)
Track 16 cannot be verified as accurate (confidence 14) [68E8578B], AccurateRip returned [CF15EE7B] (AR v2)
Track 17 cannot be verified as accurate (confidence 14) [E13F557E], AccurateRip returned [CC78A394] (AR v2)
Track 18 cannot be verified as accurate (confidence 14) [2D32A0DF], AccurateRip returned [BC4E9D53] (AR v2)
Track 19 cannot be verified as accurate (confidence 14) [D2A13884], AccurateRip returned [1A2351B2] (AR v2)
Track 20 cannot be verified as accurate (confidence 14) [51385262], AccurateRip returned [D2F4F53F] (AR v2)
Track 21 cannot be verified as accurate (confidence 14) [E51B754B], AccurateRip returned [891D52D8] (AR v2)

No tracks could be verified as accurate
You may have a different pressing from the one(s) in the database

End of status report

==== Log checksum B228230DA0891CFCF65E907BB405CE831662FF5208ABAF6B239FB6384CAFFDBB ====
CD 2 01

01. The Jackson - Blame It On The Boogie
02. Labelle Fest. Patti Labelle - Lady Marmalade
03. Boney M. - Daddy Cool
04. Dan Hartman - Relight My Fire
05. Earth_ Wind & Fire - Fantasy
06. Eruption - One Way Ticket
07. Baccara - Yes Sir I Can Boogie
08. The Flash & Pan - Hey St. Peter
09. Climax Blues Band - Couldn't Get It Right
10. Albert Hammond - It Never Rains In Southern California
11. Glitter Band - Angel Face
12. Billy Swan - I Can Help
13. Terry Jacks - Seasons In The Sun
14. Johnny Nash - I Can See Clearly Now
15. Les Humphries Singers - Mama Loo
16. Peggy March - I Will Follow Him (Chariot)
17. Stretch - Why Did You Do It
18. Marshall Hain - Dancing In The City
19. Anita Ward - Ring My Bell
20. Harpo - Horoscope
21. Don McLean - American Pie (Part 1)

eac
Exact Audio Copy V1.0 beta 3 from 29. August 2011

EAC extraction logfile from 21. April 2015, 23:30

Various Artists / Die Hit-Giganten - Best Of 70's CD2

Used drive : PLEXTOR DVDR PX-860A Adapter: 4 ID: 0

Read mode : Secure
Utilize accurate stream : Yes
Defeat audio cache : Yes
Make use of C2 pointers : No

Read offset correction : 96
Overread into Lead-In and Lead-Out : No
Fill up missing offset samples with silence : Yes
Delete leading and trailing silent blocks : No
Null samples used in CRC calculations : Yes
Used interface : Installed external ASPI interface

Used output format : User Defined Encoder
Selected bitrate : 128 kBit/s
Quality : High
Add ID3 tag : Yes
Command line compressor : G:Program Files (x86)Exact Audio CopyFlacflac.exe
Additional command line options : -V -8 -T "Date=%year%" -T "Genre=%genre%" %source%

TOC of the extracted CD

Track | Start | Length | Start sector | End sector
---------------------------------------------------------
1 | 0:00.00 | 3:33.00 | 0 | 15974
2 | 3:33.00 | 3:56.50 | 15975 | 33724
3 | 7:29.50 | 3:28.63 | 33725 | 49387
4 | 10:58.38 | 3:51.52 | 49388 | 66764
5 | 14:50.15 | 3:44.54 | 66765 | 83618
6 | 18:34.69 | 3:37.25 | 83619 | 99918
7 | 22:12.19 | 4:31.17 | 99919 | 120260
8 | 26:43.36 | 4:23.15 | 120261 | 140000
9 | 31:06.51 | 3:10.28 | 140001 | 154278
10 | 34:17.04 | 3:53.53 | 154279 | 171806
11 | 38:10.57 | 3:04.21 | 171807 | 185627
12 | 41:15.03 | 3:59.43 | 185628 | 203595
13 | 45:14.46 | 3:25.55 | 203596 | 219025
14 | 48:40.26 | 2:44.15 | 219026 | 231340
15 | 51:24.41 | 3:47.09 | 231341 | 248374
16 | 55:11.50 | 2:28.63 | 248375 | 259537
17 | 57:40.38 | 3:32.45 | 259538 | 275482
18 | 61:13.08 | 3:46.31 | 275483 | 292463
19 | 64:59.39 | 4:07.60 | 292464 | 311048
20 | 69:07.24 | 3:16.01 | 311049 | 325749
21 | 72:23.25 | 4:06.44 | 325750 | 344243

Range status and errors

Selected range

Filename D:MUSICVarious Artists - Die Hit-Giganten - Best Of 70's CD2.wav

Peak level 97.7 %
Extraction speed 8.4 X
Range quality 99.9 %
Test CRC 46C765BC
Copy CRC 46C765BC
Copy OK

No errors occurred

AccurateRip summary

Track 1 cannot be verified as accurate (confidence 14) [2C84E8B8], AccurateRip returned [6132D52C] (AR v2)
Track 2 cannot be verified as accurate (confidence 14) [4A51531B], AccurateRip returned [2DC06082] (AR v2)
Track 3 cannot be verified as accurate (confidence 14) [3494F877], AccurateRip returned [50219810] (AR v2)
Track 4 cannot be verified as accurate (confidence 14) [6BFD32F8], AccurateRip returned [62FFA9F9] (AR v2)
Track 5 cannot be verified as accurate (confidence 14) [A41D921F], AccurateRip returned [9673635A] (AR v2)
Track 6 cannot be verified as accurate (confidence 15) [145581FC], AccurateRip returned (AR v2)
Track 7 cannot be verified as accurate (confidence 14) [9B58A10C], AccurateRip returned [1CE92DF4] (AR v2)
Track 8 cannot be verified as accurate (confidence 14) [EDD407D5], AccurateRip returned [CC962FE3] (AR v2)
Track 9 cannot be verified as accurate (confidence 14) [23B12F8A], AccurateRip returned [A079A72F] (AR v2)
Track 10 cannot be verified as accurate (confidence 14) [C0535239], AccurateRip returned [F680C091] (AR v2)
Track 11 cannot be verified as accurate (confidence 14) [1C5885B3], AccurateRip returned (AR v2)
Track 12 cannot be verified as accurate (confidence 14) [E2D81B77], AccurateRip returned [7F12487B] (AR v2)
Track 13 cannot be verified as accurate (confidence 14) [204D6933], AccurateRip returned [75039CC0] (AR v2)
Track 14 cannot be verified as accurate (confidence 14) [156B7CEA], AccurateRip returned [FBD7BF15] (AR v2)
Track 15 cannot be verified as accurate (confidence 15) [35ACD890], AccurateRip returned [FD24A95A] (AR v2)
Track 16 cannot be verified as accurate (confidence 14) [23DAED51], AccurateRip returned [EEE745D9] (AR v2)
Track 17 cannot be verified as accurate (confidence 14) [D7BBB842], AccurateRip returned [449C999D] (AR v2)
Track 18 cannot be verified as accurate (confidence 14) [8A2D1989], AccurateRip returned [0844673B] (AR v2)
Track 19 cannot be verified as accurate (confidence 14) [56D40A72], AccurateRip returned [ABAEBAD5] (AR v2)
Track 20 cannot be verified as accurate (confidence 14) [13E26FCF], AccurateRip returned [AC712F8C] (AR v2)
Track 21 cannot be verified as accurate (confidence 14) [FB938DFB], AccurateRip returned [86A64D4B] (AR v2)

No tracks could be verified as accurate
You may have a different pressing from the one(s) in the database

End of status report

==== Log checksum 92F612FFAFCE067608BF592EBF5FD5BCADC954CA9A69DFE916EE461A0C6D0E8C ====
CD 3 01

01. The Beach Boys - Good Vibrations
02. Suzi Quatro - 48 Crash
03. Sweet - Hell Raiser
04. Ike & Tina Turner - Nutbush City Limits
05. T. Rex - Children Of The Revolution
06. The Guess Who - American Woman
07. Sailor - Girls Girls Girls
08. Smokie - Mexican Girl
09. Electric Light Orchestra - Shine A Little Love
10. John Paul Young - Love Is In The Air
11. Steve Miller Band - Fly Like An Eagle
12. Danyel Gerard - Butterfly
13. Jefferson Airplane - Somebody To Love
14. The Brotherhood Of Man - Save Your Kisses For Me
15. Norman Greenbaum - Spirit In The Sky
16. Co-Co - Bad Old Days
17. Dr.Hook & The Medicine Show - The Cover Of Rolling Stone
18. Mott The Hoople - All The Young Dudes
19. Christie - Yellow River
20. Full House - Standing On The Inside
21. Elvis Presley - Way Down

eac
Exact Audio Copy V1.0 beta 3 from 29. August 2011

EAC extraction logfile from 22. April 2015, 0:06

Various Artists / Die Hit-Giganten - Best of 70s CD3

Used drive : PLEXTOR BD-R PX-B940SA Adapter: 5 ID: 0

Read mode : Secure
Utilize accurate stream : Yes
Defeat audio cache : Yes
Make use of C2 pointers : No

Read offset correction : 667
Overread into Lead-In and Lead-Out : No
Fill up missing offset samples with silence : Yes
Delete leading and trailing silent blocks : No
Null samples used in CRC calculations : Yes
Used interface : Installed external ASPI interface

Used output format : User Defined Encoder
Selected bitrate : 128 kBit/s
Quality : High
Add ID3 tag : Yes
Command line compressor : G:Program Files (x86)Exact Audio CopyFlacflac.exe
Additional command line options : -V -8 -T "Date=%year%" -T "Genre=%genre%" %source%

TOC of the extracted CD

Track | Start | Length | Start sector | End sector
---------------------------------------------------------
1 | 0:00.00 | 3:37.48 | 0 | 16322
2 | 3:37.48 | 3:54.27 | 16323 | 33899
3 | 7:32.00 | 3:18.22 | 33900 | 48771
4 | 10:50.22 | 2:53.28 | 48772 | 61774
5 | 13:43.50 | 2:29.10 | 61775 | 72959
6 | 16:12.60 | 5:05.64 | 72960 | 95898
7 | 21:18.49 | 3:03.03 | 95899 | 109626
8 | 24:21.52 | 3:58.50 | 109627 | 127526
9 | 28:20.27 | 4:12.04 | 127527 | 146430
10 | 32:32.31 | 3:26.38 | 146431 | 161918
11 | 35:58.69 | 4:06.70 | 161919 | 180438
12 | 40:05.64 | 3:27.52 | 180439 | 196015
13 | 43:33.41 | 2:57.23 | 196016 | 209313
14 | 46:30.64 | 3:04.05 | 209314 | 223118
15 | 49:34.69 | 4:00.05 | 223119 | 241123
16 | 53:34.74 | 2:38.73 | 241124 | 253046
17 | 56:13.72 | 2:53.15 | 253047 | 266036
18 | 59:07.12 | 3:33.40 | 266037 | 282051
19 | 62:40.52 | 2:43.66 | 282052 | 294342
20 | 65:24.43 | 3:28.14 | 294343 | 309956
21 | 68:52.57 | 2:36.35 | 309957 | 321691

Range status and errors

Selected range

Filename D:MUSICVarious Artists - Die Hit-Giganten - Best of 70s CD3.wav

Peak level 97.7 %
Extraction speed 5.3 X
Range quality 100.0 %
Test CRC 9784CEAE
Copy CRC 9784CEAE
Copy OK

No errors occurred

AccurateRip summary

Track 1 cannot be verified as accurate (confidence 13) [6ECB3096], AccurateRip returned [A588ADAC] (AR v2)
Track 2 cannot be verified as accurate (confidence 13) [86105A3F], AccurateRip returned [D6B02254] (AR v2)
Track 3 cannot be verified as accurate (confidence 13) [63DBE082], AccurateRip returned [A1431E64] (AR v2)
Track 4 cannot be verified as accurate (confidence 11) [AF0DDA63], AccurateRip returned [63920BEA] (AR v2)
Track 5 cannot be verified as accurate (confidence 13) [629010BA], AccurateRip returned [80010780] (AR v2)
Track 6 cannot be verified as accurate (confidence 13) [A077E823], AccurateRip returned [900FCEAB] (AR v2)
Track 7 cannot be verified as accurate (confidence 13) [C85D3198], AccurateRip returned [F038D635] (AR v2)
Track 8 cannot be verified as accurate (confidence 13) [55EE4776], AccurateRip returned [50548169] (AR v2)
Track 9 cannot be verified as accurate (confidence 13) [727D03B9], AccurateRip returned [FDDE5899] (AR v2)
Track 10 cannot be verified as accurate (confidence 13) [C52AB743], AccurateRip returned [46F7B0DA] (AR v2)
Track 11 cannot be verified as accurate (confidence 13) [C21BBC24], AccurateRip returned [9965C115] (AR v2)
Track 12 cannot be verified as accurate (confidence 13) [29F8AFF1], AccurateRip returned [C787AE26] (AR v2)
Track 13 cannot be verified as accurate (confidence 13) [70414C02], AccurateRip returned [12DDE22A] (AR v2)
Track 14 cannot be verified as accurate (confidence 13) [CAF74129], AccurateRip returned [FF541C08] (AR v2)
Track 15 cannot be verified as accurate (confidence 14) [CE37F732], AccurateRip returned [0A41DDBF] (AR v2)
Track 16 cannot be verified as accurate (confidence 13) [D5FFF97C], AccurateRip returned [2DF4543C] (AR v2)
Track 17 cannot be verified as accurate (confidence 13) [1B7F7D77], AccurateRip returned (AR v2)
Track 18 cannot be verified as accurate (confidence 13) [700E3ED3], AccurateRip returned [9BA25C5C] (AR v2)
Track 19 cannot be verified as accurate (confidence 13) [52CB71DE], AccurateRip returned [435CF66B] (AR v2)
Track 20 cannot be verified as accurate (confidence 13) [D3F7EE3F], AccurateRip returned [547A3F4F] (AR v2)
Track 21 cannot be verified as accurate (confidence 12) [173EAB17], AccurateRip returned [07AC85E6] (AR v2)

No tracks could be verified as accurate
You may have a different pressing from the one(s) in the database

End of status report

==== Log checksum EC7472160FCD12F4E00D5791E46DF76AE4BA4C24D0FCF31801D986F3BC9838BF ====
Музыка / Lossless / Рок, Панк, Метал, Альтернатива.
СКАЧАТЬ БЕСПЛАТНО  [1.5 GB]


20
окт
2011

VA-Die Hit Giganten Best Of 70's [2011, Pop, Rock, Country, MP3]

Формат: MP3, tracks, 320kbps
Год выпуска: 2011
Страна: All World
Жанр: Pop, Rock, Country
Продолжительность: 03:45:19
Описание: CD 1 01. Fleetwood Mac - Don't Stop 02. Lou Reed - Walk On The Wild Side 03. Scott McKenzie - San Francisco (Be Sure To Wear Flowers In Your Hair) 04. Santana - Jin-Go-Lo-Ba 05. David Dundas - Jeans On 06. Middle Of The Road - Chirpy Chirpy Cheep Cheep 07. Mud - Oh Boy 08. La Bionda - One For You_ One For Me 09. Nick Straker - A Walk In The Park 10. Pilot - January 11. Wild Cherry - Play That Funky Music 12. Hot Butter - Popcorn 13. Boz Scaggs - Lido Shuff ...

23
дек
2015

VA - Die Hit Giganten: Best of Rock'n'roll (3CD) [2015, Rock Roll, FLAC]

Формат: FLAC, (image + .cue), lossless
Год выпуска: 2015
Страна: All World
Жанр: Rock & Roll
Продолжительность: 02:41:33
Описание: CD 1 0001. Elvis Presley - Jailhouse Rock (02:29) 02. Little Richard - Tutti frutti (02:25) 03. Carl Perkins - Blue suede shoes (02:16) 04. Chuck Berry - Sweet little sixteen (03:04) 05. Wanda Jackson - Let's have a party (02:10) 06. Jackie Wilson - Reet petite (02:45) 07. Jerry Lee Lewis - Whole lotta shakin' goin' on (02:52) 08. Larry Williams - Dizzy Miss Lizzy (02:13) 09. Bill Haley & The Comets - (We're gonna) Rock around the clock (02:11) 10. The Swinging Blu ...

30
апр
2015

VA - Die Hit Giganten: Best Of One Hit Wonder (3CD) [2013, Rock, Pop, Dance, FLAC]

Формат: FLAC, (image + .cue), lossless
Год выпуска: 2013
Страна: Germany
Жанр: Rock, Pop, Dance
Продолжительность: 03:50:32
Описание: CD 1 01 01. Crazy Town - Butterfly 02. Dante Thomas - Miss California 03. Toploader - Dancing In The Moonlight 04. Heroes Del Silencio - Entre Dos Tierras 05. Opm - Heaven Is A Halfpipe 06. Spin Doctors - Two Princes 07. Babylon Zoo - Spaceman 08. The Dandy Warhols - Bohemian Like You 09. Bell Book & Candle - Rescue Me 10. The Boo Radleys - Wake Up Boo! 11. Fiction Factory - (Feels Like) Heaven 12. The Romantics - Talking In Your Sleep 13. The Outfield - Your Lo ...

28
апр
2015

VA - Die Hit-Giganten: Best of Ballads (3CD) [2011, Rock, Pop Rock, Pop, Funk, FLAC]

Формат: FLAC, (image + .cue), lossless
Год выпуска: 2011
Страна: Germany
Жанр: Rock, Pop Rock, Pop, Funk
Продолжительность: 03:59:10
Описание: CD 1 01 01. Seal - Dont Cry 02. Chicago - Hard to Say Im Sorry 03. Percy Sledge - When A Man Lovers A Woman 04. Alicia Keys - Fallin 05. Kate Winslet - What if 06. Berlin - Take My Breath Away 07. Simply Red - If You Dont Know Me by Now 08. Michael Bolton - How Am I Supposesto Live Without You 09. Shakira - Underneath Your Clothes 10. Backstreet Boys - Show Me the Meaning of Being Lonely 11. Toni Braxton - Un-Break My Heart 12. Bill Medley & Jennifer Wa ...

30
апр
2015

VA - Die Hit Giganten: Best of Keltica (3CD) [2015, Celtic, New Age, Folk, FLAC]

Формат: FLAC, (image + .cue), lossless
Год выпуска: 2015
Страна: Germany
Жанр: Pop, Celtic, New Age, Folk
Продолжительность: 04:03:50
Описание: CD 1 01 01. The Chieftains With Sinéad O'connor - The Foggy Dew 02. Faun - Andro Ii 03. Adiemus - Adiemus 04. Vladimir Cosma - David's Song 05. Aine Minogue & Alasdair Halliday - Rosemary Faire (Song Of Lughnasadh) 06. The Kells - King Of The Fairies 07. Sarah Mclachlan - What Child Is This (Greensleeves) 08. Cantara - Anima 09. David Arkenstone - The Dragon's Breath 10. Altan - Dúlamán 11. Lisa Lynne - Fields Of Gold 12. Eileen Ivers - ...

26
дек
2015

VA - Die Hit-Giganten: Best Of Klassik (3CD) [2015, Classical Music, FLAC]

Формат: FLAC, (image + .cue), lossless
Год выпуска: 2015
Страна: Germany
Жанр: Classical Music
Продолжительность: 04:01:26
Описание: CD 1 0101. Fortuna Imperatrix Mundi : O Fortuna – London Symphony Chorus / Boy’s Choir Of St. Paul’s Cathedral, London, The / London Symphony Orchestra 02. Die Walküre: Walkürenritt (Live) – Orchester Der Tiroler Festspiele 03. Violin Concerto No. 4 In F Minor, Rv 297, ‚L’inverno‘ : I. Allegro Non Molto – Moscow Virtuosi 04. Iii. Alla Turca. Allegretto 05. Iii. Poco Allegretto – Ndr Sinfonieorchester 06. Sabre Dance – Boston Pops Orchestra 07. In The Ha ...

19
янв
2013

VA - Die Hit - Giganten [2013, Pop, Dance, MP3]

Формат: MP3, tracks, 256kbps
Год выпуска: 2013
Страна: All World
Жанр: Pop, Dance
Продолжительность: 11:26:53
Описание: Best of Disco 04 CD1 1. Boney M. - Daddy Cool 2. Baccara - Yes Sir, I Can Boogie 3. Patrick Hernandez - Born To Be Alive 4. Earth, Wind & Fire With The Emotions - Boogie Wonderland 5. Amanda Lear - Fashion Pack 6. Sister Sledge - We Are Family 7. Gibson Brothers - Que Sera Mi Vida 8. Amii Stewart - Knock On Wood 9. Hot Chocolate - You Sexy Thing 10. Rose Royce - Car Wash 11. Chaka Khan - I'm Every Woman 12. Tina Charles - I Love To Love 13. Mfsb Featuring The Three Degrees ...

20
июл
2013

VA - Die Hit Giganten - Best of 90s [2013, Pop, MP3]

Формат: MP3, tracks, 320kbps
Год выпуска: 2013
Страна: All World
Жанр: Pop
Продолжительность: 03:36:27
Описание: Треклист CD1 01. Everybody (Backstreet's Back) - Radio Edit - Backstreet Boys 02. Let's Get Loud - Lopez, Jennifer 03. Genie In A Bottle - Aguilera, Christina 04. Oh Carolina - Shaggy 05. It's Alright - The Guvnor Mix - East 17 06. Sing It Back - Boris Dluglosch Musical Mix (Edit) - Moloko 07. I'm Too Sexy - Right Said Fred 08. Tearin' Up My Heart - Original Radio Edit - N Sync 09. Informer - Snow 10. Two Princes - Spin Doctors / Barron, Chris 11. I've Been Thinking About You - Lond ...

16
июн
2013

VA-Die Hit Giganten Collection [2003-2013, Pop, Rock, Oldies, Disco, Soul, Country, Folk, Instrumental, MP3]

Формат: MP3, tracks, 128-320kbps [VBR]
Год выпуска: 2003-2013
Страна: All World
Жанр: Pop, Rock, Oldies, Disco, Soul, Country, Folk, Instrumental
Продолжительность: 163:22:10
Описание: 2003. Die Hit-Giganten — Die Hit Giganten (2CD)02 CD 1: 01. F.R. David — Words 02. Mr Big — To Be With You 03. Four Non Blondes — What's Up 04. Berlin — Take My Breath Away 05. Kate Yanai — Summer Dreaming 06. Fool's Garden — Lemon Tree 07. The Archies — Sugar Sugar 08. Imagination — Just An Illusion 09. Robin Beck — The First Time 10. Charles & Eddie — Would I Lie 11. Taco — Puttin' On The Ritz 12. La Bionda ...

19
янв
2013

VA - Die Hit-Giganten Best of Ballads [2011, Pop, MP3]

Формат: MP3, tracks, 192-320kbps [VBR]
Год выпуска: 2011
Страна: All World
Жанр: Pop
Продолжительность: 03:59:11
Описание: Треклист CD 1: 01. Seal - Dont Cry 02. Chicago - Hard to Say Im Sorry 03. Percy Sledge - When A Man Lovers A Woman 04. Alicia Keys - Fallin 05. Kate Winslet - What if 06. Berlin - Take My Breath Away 07. Simply Red - If You Dont Know Me by Now 08. Michael Bolton - How Am I Supposesto Live Without You 09. Shakira - Underneath Your Clothes 10. Backstreet Boys - Show Me the Meaning of Being Lonely 11. Toni Braxton - Un-Break My Heart 12. Bill Medley & Jennifer Warnes - (Ive ...

27
янв
2010

VA - Die Hit Giganten Eurodance [2010, Dance, MP3]

Формат: MP3, tracks, 224-320 kbps
Год выпуска: 2010
Страна: All World
Жанр: Dance
Продолжительность: 2:38:27
Описание: Треклист CD 1: 01. Snap! - Rhythm Is A Dancer 02. Culture Beat - Mr. Vain 03. Dr. Alban - It's My Life 04. 2 Unlimited - No Limit 05. La Bouche - Be My Lover 06. Magic Affair - Omen III 07. Haddaway - What Is Love 08. Corona - The Rhythm Of The Night 09. DJ Bobo - Somebody Dance With Me 10. Captain Hollywood Project - More And More 11. Real Mccoy - Another Night 12. Cappella - U Got 2 Let The Music 13. Pharao - There Is A Star 14. B.G. The Prince Of Rap - The Colour Of My Dre ...

18
июн
2017

VA - Die Hit Giganten Best of 90s Dance [2017, Eurodance, Dream House, Techno, Hard Trance, Happy Hardcore, Acid House, MP3]

Формат: MP3, tracks, 320kbps
Год выпуска: 2017
Страна: All World
Жанр: Eurodance, Dream House, Techno, Hard Trance, Happy Hardcore, Acid House
Продолжительность: 04:00:40
Описание: CD1 0101. Dr. Alban - It's My Life 04:01 02. Snap! - Rhythm Is A Dancer 03:41 03. Culture Beat - Mr. Vain 04:17 04. Eiffel 65 - Blue (Da Ba Dee) 03:40 05. Reel 2 Real Feat. The Mad Stuntman - I Like To Move It 03:43 06. French Affair - My Heart Goes Boom (Ladidada) 03:40 07. Ann Lee - 2 Times 03:48 08. Jam & Spoon - Right In The Night 03:46 09. Robin S. - Show Me Love 03:20 10. 2 Unlimited - No Limit 03:17 11. Whigf ...

26
июн
2015

VA - Die Hit-Giganten: Instrumental Hits (2CD) [2009, Disco, Pop, Rock, Electronic, Easy listening, Loung, FLAC]

Формат: FLAC, (image + .cue), lossless
Год выпуска: 2009
Страна: Germany
Жанр: Disco, Pop, Rock, Electronic, Easy listening, Loung
Продолжительность: 02:23:40
Описание: CD 1 01 01. Mike Oldfield - Tubular Bells 02. Santana - Samba Pa Ti 03. Fleetwood Mac - Albatross 04. The Beatles - Cry for a shadow 05. The Champs - Tequila 06. Booker T & The MG's - Green Onion 07. Mr. Bloe - Groovin with Mr. Bloe 08. Dave Brubeck - Take Five 09. Glen Miller - In The Mood 10. Anton Karas - Der Dritte Mann - Harry Lime Theme 11. Percy Faith - Theme from A Summer Place 12. Frank Mills - Music Box Dancer 13. Jea ...

29
апр
2015

VA - Die Hit Giganten: Pop Rock Hymnen (2CD) [2010, Pop, Rock, FLAC]

Формат: FLAC, (image + .cue), lossless
Год выпуска: 2010
Страна: Germany
Жанр: Pop, Rock
Продолжительность: 02:38:54
Описание: CD 1 01 01. The Plastic Ono Band - Give Peace A Chance 02. Elton John - Candle In The Wind 03. Europe - The Final Countdown 04. Santana - Europa (Earths Cry, Heavens Smile) 05. Simple Minds - Belfast Child 06. Emerson, Lake & Palmer - Fanfare For The Common Man 07. London Philharmonic Orchestra - Adiemus 08. Mike Batt - The Ride To Agadir 09. Giorgio Moroder Feat. Paul Eng - Reach Out 10. The Fifth Dimension - Aquarius - Let The Sunshine In 11. The Edwin Hawkins Singe ...

22
авг
2017

VA - Top Of The Pops 70's Soul (3CD) [2017, Pop, Soul, MP3]

Формат: MP3, tracks, 256kbps
Год выпуска: 2017
Страна: All World
Жанр: Pop, Soul
Продолжительность: 03:41:12
Описание: CD1 0101. Love Unlimited Orchestra - Love's Theme 03:58 02. Candi Staton - Young Hearts Run Free 04:09 03. The Supremes - Stoned Love 02:57 04. Johnny Bristol - Hang On In There Baby 03:21 05. Barry White - Can't Get Enough Of Your Love, Babe 03:57 06. Harold Melvin The Blue Notes - The Love I Lost 03:41 07. The Blackbyrds - Walking In Rhythm 04:13 08. Jimmy James & The Vagabonds - Now Is The Time 03:37 09. The Real Thing - You To Me Are Everything 03:29 10. Moments & ...