15
мая
2016

VA - Ultimate Rock 'N' Roll Love Songs (3CD) [2015, Rock 'n' Roll, FLAC]

VA - Ultimate Rock 'N' Roll Love Songs (3CD)
Формат: FLAC, (image + .cue), lossless
Год выпуска: 2015
Страна: UK
Жанр: Rock 'n' Roll
Продолжительность: 03:00:52
Описание:
CD 1 00
VA - Ultimate Rock 'N' Roll Love Songs 01. Dion & the Belmonts - Teenager in Love
02. The Everly Brothers - Wake Up Little Susie
03. Elvis Presley - (Marie's the Name) His Latest Flame
04. Brian Hyland - Ginny Come Lately
05. Tommy Roe - Sheila
06. Bobby Darin - Dream Lover
07. Peggy Sue - Buddy Holly
08. Pretty Little Angel Eyes - Curtis Lee
09. The Skyliners - Since I Don't Have You
10. Eddie Cochran - Three Steps to Heaven
11. Ricky Nelson - Hello Mary Lou
12. Conway Twitty - It's Only Make Believe
13. Maurice Williams & the Zodiacs - Stay
14. Johnny Tillotson - Poetry in Motion
15. Del Shannon - Little Town Flirt
16. Fats Domino - My Girl Josephine
17. Little Willie John - Need Your Love So Bad
18. Cliff Richard - Livin' Lovin' Doll
19. Paul Anka - Diana
20. Johnny Burnette & the Rock 'N' Roll Trio - Dreamin'
21. Billy Fury - Colette
22. Connie Francis - Gonna Git That Man
23. Adam Faith - What Do You Want?
24. Neil Sedaka - Breaking Up Is Hard to Do
25. Roy Orbison - Only the Lonely

eac
Exact Audio Copy V1.1 from 23. June 2015

EAC extraction logfile from 13. May 2016, 12:59

Various Artists / Ultimate Rock 'N' Roll Love Songs (CD 1)

Used drive : hp CDDVDW SH-216BB Adapter: 1 ID: 0

Read mode : Secure
Utilize accurate stream : Yes
Defeat audio cache : Yes
Make use of C2 pointers : No

Read offset correction : 6
Overread into Lead-In and Lead-Out : No
Fill up missing offset samples with silence : Yes
Delete leading and trailing silent blocks : No
Null samples used in CRC calculations : Yes
Used interface : Native Win32 interface for Win NT & 2000

Used output format : Internal WAV Routines
Sample format : 44.100 Hz; 16 Bit; Stereo

TOC of the extracted CD

Track | Start | Length | Start sector | End sector
---------------------------------------------------------
1 | 0:00.00 | 2:34.48 | 0 | 11597
2 | 2:34.48 | 1:56.65 | 11598 | 20362
3 | 4:31.38 | 2:08.44 | 20363 | 30006
4 | 6:40.07 | 2:49.48 | 30007 | 42729
5 | 9:29.55 | 2:02.64 | 42730 | 51943
6 | 11:32.44 | 2:28.50 | 51944 | 63093
7 | 14:01.19 | 2:31.13 | 63094 | 74431
8 | 16:32.32 | 2:45.67 | 74432 | 86873
9 | 19:18.24 | 2:41.42 | 86874 | 98990
10 | 21:59.66 | 2:23.53 | 98991 | 109768
11 | 24:23.44 | 2:18.65 | 109769 | 120183
12 | 26:42.34 | 2:14.15 | 120184 | 130248
13 | 28:56.49 | 1:36.17 | 130249 | 137465
14 | 30:32.66 | 2:34.08 | 137466 | 149023
15 | 33:06.74 | 2:50.63 | 149024 | 161836
16 | 35:57.62 | 2:05.17 | 161837 | 171228
17 | 38:03.04 | 2:17.09 | 171229 | 181512
18 | 40:20.13 | 2:08.26 | 181513 | 191138
19 | 42:28.39 | 2:24.52 | 191139 | 201990
20 | 44:53.16 | 2:19.55 | 201991 | 212470
21 | 47:12.71 | 1:51.42 | 212471 | 220837
22 | 49:04.38 | 3:00.61 | 220838 | 234398
23 | 52:05.24 | 1:37.41 | 234399 | 241714
24 | 53:42.65 | 2:23.74 | 241715 | 252513
25 | 56:06.64 | 2:26.10 | 252514 | 263473

Range status and errors

Selected range

Filename C:UsersArtursDesktopVarious Artists - Ultimate Rock 'N' Roll Love Songs (CD 1).wav

Peak level 99.9 %
Extraction speed 7.4 X
Range quality 100.0 %
Test CRC A5936E4D
Copy CRC A5936E4D
Copy OK

No errors occurred

AccurateRip summary

Track 1 accurately ripped (confidence 1) [5976EADC] (AR v2)
Track 2 accurately ripped (confidence 1) [EE796179] (AR v2)
Track 3 accurately ripped (confidence 1) [30A5DCB3] (AR v2)
Track 4 accurately ripped (confidence 1) [CE61F992] (AR v2)
Track 5 accurately ripped (confidence 1) [C6294048] (AR v2)
Track 6 accurately ripped (confidence 1) [A819D1D6] (AR v2)
Track 7 accurately ripped (confidence 1) [A52569B6] (AR v2)
Track 8 accurately ripped (confidence 1) [467AC020] (AR v2)
Track 9 accurately ripped (confidence 1) [EFB56E1D] (AR v2)
Track 10 accurately ripped (confidence 1) [58988387] (AR v2)
Track 11 accurately ripped (confidence 1) [1A5334B7] (AR v2)
Track 12 accurately ripped (confidence 1) [D97ED2F2] (AR v2)
Track 13 accurately ripped (confidence 1) [E0FAB219] (AR v2)
Track 14 accurately ripped (confidence 1) [57CBBF70] (AR v2)
Track 15 accurately ripped (confidence 1) [8BBBCEC7] (AR v2)
Track 16 accurately ripped (confidence 1) [6BBE5C77] (AR v2)
Track 17 accurately ripped (confidence 1) [6E6D57A7] (AR v2)
Track 18 accurately ripped (confidence 1) [1C8C4A32] (AR v2)
Track 19 accurately ripped (confidence 1) [96BD954E] (AR v2)
Track 20 accurately ripped (confidence 1) [E565BFC5] (AR v2)
Track 21 accurately ripped (confidence 1) [767D4752] (AR v2)
Track 22 accurately ripped (confidence 1) [E575E80C] (AR v2)
Track 23 accurately ripped (confidence 1) [F6247E0F] (AR v2)
Track 24 accurately ripped (confidence 1) [0AE88DE2] (AR v2)
Track 25 accurately ripped (confidence 1) [36B4F03D] (AR v2)

All tracks accurately ripped

End of status report

---- CUETools DB Plugin V2.1.6

[CTDB TOCID: zbRiwv0bknBL99KZouQc_NVkth4-] found
Submit result: zbRiwv0bknBL99KZouQc_NVkth4- has been confirmed
Track | CTDB Status
1 | (2/2) Accurately ripped
2 | (2/2) Accurately ripped
3 | (2/2) Accurately ripped
4 | (2/2) Accurately ripped
5 | (2/2) Accurately ripped
6 | (2/2) Accurately ripped
7 | (2/2) Accurately ripped
8 | (2/2) Accurately ripped
9 | (2/2) Accurately ripped
10 | (2/2) Accurately ripped
11 | (2/2) Accurately ripped
12 | (2/2) Accurately ripped
13 | (2/2) Accurately ripped
14 | (2/2) Accurately ripped
15 | (2/2) Accurately ripped
16 | (2/2) Accurately ripped
17 | (2/2) Accurately ripped
18 | (2/2) Accurately ripped
19 | (2/2) Accurately ripped
20 | (2/2) Accurately ripped
21 | (2/2) Accurately ripped
22 | (2/2) Accurately ripped
23 | (2/2) Accurately ripped
24 | (2/2) Accurately ripped
25 | (2/2) Accurately ripped

==== Log checksum A899A71350183FE1D52F692AAD92CCE6B77023FADB72FCEA3F2B2BF5B57236E1 ====
CD 2 01
VA - Ultimate Rock 'N' Roll Love Songs 01. Bobby Helms - My Special Angel
02. Ritchie Valens - Donna
03. Elvis Presley - The Girl of My Best Friend
04. Roy Orbison - Lana
05. Ray Peterson - The Wonder of You
06. The Diamonds - Little Darlin'
07. The Everly Brothers - ('Til) I Kissed You
08. Connie Francis - Stupid Cupid
09. Dion - Lonely Teenager
10. Eddie Cochran - Sweetie Pie
11. Eddie Hodges - (Girls Girls Girls) Made to Love
12. Frankie Lymon & the Teenagers - Why Do Fools Fall in Love?
13. The Clovers - Love Potion No. 9
14. Fats Domino - I'm in Love Again
15. Ricky Nelson - Poor Little Fool
16. Neil Sedaka - Stairway to Heaven
17. Johnny Tillotson - Princess Princess
18. Little Willie John - Fever
19. Tommy Sands - Goin' Steady
20. Thurston Harris & the Sharps - Little Bitty Pretty One
21. Tommy Boyce - Along Came Linda
22. Elvis Presley - (Now and Then There's) a Fool Such As I
23. Tommy Edwards - It's All in the Game
24. Billy Fury - Wondrous Place
25. Ricky Valance - Tell Laura I Love Her

eac
Exact Audio Copy V1.1 from 23. June 2015

EAC extraction logfile from 14. May 2016, 21:08

Various Artists / Ultimate Rock 'N' Roll Love Songs (CD 2)

Used drive : hp CDDVDW SH-216BB Adapter: 1 ID: 0

Read mode : Secure
Utilize accurate stream : Yes
Defeat audio cache : Yes
Make use of C2 pointers : No

Read offset correction : 6
Overread into Lead-In and Lead-Out : No
Fill up missing offset samples with silence : Yes
Delete leading and trailing silent blocks : No
Null samples used in CRC calculations : Yes
Used interface : Native Win32 interface for Win NT & 2000

Used output format : Internal WAV Routines
Sample format : 44.100 Hz; 16 Bit; Stereo

TOC of the extracted CD

Track | Start | Length | Start sector | End sector
---------------------------------------------------------
1 | 0:00.00 | 3:00.64 | 0 | 13563
2 | 3:00.64 | 2:28.28 | 13564 | 24691
3 | 5:29.17 | 2:23.45 | 24692 | 35461
4 | 7:52.62 | 2:18.23 | 35462 | 45834
5 | 10:11.10 | 2:35.17 | 45835 | 57476
6 | 12:46.27 | 2:08.37 | 57477 | 67113
7 | 14:54.64 | 2:23.59 | 67114 | 77897
8 | 17:18.48 | 2:14.40 | 77898 | 87987
9 | 19:33.13 | 2:16.35 | 87988 | 98222
10 | 21:49.48 | 2:10.05 | 98223 | 107977
11 | 23:59.53 | 2:25.02 | 107978 | 118854
12 | 26:24.55 | 2:19.12 | 118855 | 129291
13 | 28:43.67 | 1:54.65 | 129292 | 137906
14 | 30:38.57 | 2:02.31 | 137907 | 147087
15 | 32:41.13 | 2:32.44 | 147088 | 158531
16 | 35:13.57 | 2:42.10 | 158532 | 170691
17 | 37:55.67 | 2:18.13 | 170692 | 181054
18 | 40:14.05 | 2:43.31 | 181055 | 193310
19 | 42:57.36 | 2:37.22 | 193311 | 205107
20 | 45:34.58 | 2:23.40 | 205108 | 215872
21 | 47:58.23 | 2:15.10 | 215873 | 226007
22 | 50:13.33 | 2:40.59 | 226008 | 238066
23 | 52:54.17 | 2:38.05 | 238067 | 249921
24 | 55:32.22 | 2:25.05 | 249922 | 260801
25 | 57:57.27 | 2:39.24 | 260802 | 272750

Range status and errors

Selected range

Filename C:UsersArtursDesktopVarious Artists - Ultimate Rock 'N' Roll Love Songs (CD 2).wav

Peak level 99.9 %
Extraction speed 3.1 X
Range quality 100.0 %
Test CRC 63D259CE
Copy CRC 63D259CE
Copy OK

No errors occurred

AccurateRip summary

Track 1 accurately ripped (confidence 1) [11759D39] (AR v2)
Track 2 accurately ripped (confidence 1) [9EED3667] (AR v2)
Track 3 accurately ripped (confidence 1) [8E943CC0] (AR v2)
Track 4 accurately ripped (confidence 1) [6725D268] (AR v2)
Track 5 accurately ripped (confidence 1) [93BB82F5] (AR v2)
Track 6 accurately ripped (confidence 1) [7EAF55CF] (AR v2)
Track 7 accurately ripped (confidence 1) [28152F62] (AR v2)
Track 8 accurately ripped (confidence 1) [32E88F07] (AR v2)
Track 9 accurately ripped (confidence 1) [4ED4DC0D] (AR v2)
Track 10 accurately ripped (confidence 1) [463992E3] (AR v2)
Track 11 accurately ripped (confidence 1) [91777EBD] (AR v2)
Track 12 accurately ripped (confidence 1) (AR v2)
Track 13 accurately ripped (confidence 1) [E1529AE3] (AR v2)
Track 14 accurately ripped (confidence 1) [E3438949] (AR v2)
Track 15 accurately ripped (confidence 1) [99FBB6A0] (AR v2)
Track 16 accurately ripped (confidence 1) [22A579C2] (AR v2)
Track 17 accurately ripped (confidence 1) [71BA21E2] (AR v2)
Track 18 accurately ripped (confidence 1) [6861C356] (AR v2)
Track 19 accurately ripped (confidence 1) [EDCFC398] (AR v2)
Track 20 accurately ripped (confidence 1) [E98E7B4D] (AR v2)
Track 21 accurately ripped (confidence 1) [6513265C] (AR v2)
Track 22 accurately ripped (confidence 1) [20670D4F] (AR v2)
Track 23 accurately ripped (confidence 1) [38C79287] (AR v2)
Track 24 accurately ripped (confidence 1) [C0E31B0E] (AR v2)
Track 25 accurately ripped (confidence 1) (AR v2)

All tracks accurately ripped

End of status report

---- CUETools DB Plugin V2.1.6

[CTDB TOCID: .0gGvQGsRM_66ztNdlABHiECXmE-] found
Submit result: .0gGvQGsRM_66ztNdlABHiECXmE- has been confirmed
Track | CTDB Status
1 | (2/2) Accurately ripped
2 | (2/2) Accurately ripped
3 | (2/2) Accurately ripped
4 | (2/2) Accurately ripped
5 | (2/2) Accurately ripped
6 | (2/2) Accurately ripped
7 | (2/2) Accurately ripped
8 | (2/2) Accurately ripped
9 | (2/2) Accurately ripped
10 | (2/2) Accurately ripped
11 | (2/2) Accurately ripped
12 | (2/2) Accurately ripped
13 | (2/2) Accurately ripped
14 | (2/2) Accurately ripped
15 | (2/2) Accurately ripped
16 | (2/2) Accurately ripped
17 | (2/2) Accurately ripped
18 | (2/2) Accurately ripped
19 | (2/2) Accurately ripped
20 | (2/2) Accurately ripped
21 | (2/2) Accurately ripped
22 | (2/2) Accurately ripped
23 | (2/2) Accurately ripped
24 | (2/2) Accurately ripped
25 | (2/2) Accurately ripped

==== Log checksum B1D3A87731B3695797643EA476A7BE2E9A4153A4552254F9504729CD10E48803 ====
CD 3 01
VA - Ultimate Rock 'N' Roll Love Songs 01. Neil Sedaka - Oh Carol
02. Connie Francis - Lipstick on Your Collar
03. Buddy Holly - Everyday
04. Dion - Runaround Sue
05. Fats Domino - It Keeps Rainin'
06. Brian Hyland - Sealed with a Kiss
07. Ray Peterson - Corinna, Corinna
08. Elvis Presley - Suspicion
09. Annette Funicello - Dreamin' About You
10. Johnny Preston - Cradle of Love
11. Jerry Meaders - Just a Little Bit Sweeter
12. Jack Scott - My True Love
13. Buddy Knox - C'mon Baby
14. Johnny Tillotson - Well I'm Your Man
15. Roy Orbison - Blue Angel
16. The Videls - Mister Lonely
17. Tommy Roe - Susie Darlin'
18. The Marvelettes - Please Mr. Postman
19. Mickey & Sylvia - Love Is Strange
20. Billy Fury - Maybe Tomorrow
21. Phil Phillips & the Twilights - Sea of Love
22. Curtis Lee - Under the Moon of Love
23. Bobby Vee - More Than I Can Say
24. Ricky Nelson - It's Late
25. The Everly Brothers - Bye Bye Love

eac
Exact Audio Copy V1.1 from 23. June 2015

EAC extraction logfile from 14. May 2016, 22:05

Various Artists / Ultimate Rock 'N' Roll Love Songs (CD 3)

Used drive : hp CDDVDW SH-216BB Adapter: 1 ID: 0

Read mode : Secure
Utilize accurate stream : Yes
Defeat audio cache : Yes
Make use of C2 pointers : No

Read offset correction : 6
Overread into Lead-In and Lead-Out : No
Fill up missing offset samples with silence : Yes
Delete leading and trailing silent blocks : No
Null samples used in CRC calculations : Yes
Used interface : Native Win32 interface for Win NT & 2000

Used output format : Internal WAV Routines
Sample format : 44.100 Hz; 16 Bit; Stereo

TOC of the extracted CD

Track | Start | Length | Start sector | End sector
---------------------------------------------------------
1 | 0:00.00 | 2:16.21 | 0 | 10220
2 | 2:16.21 | 2:15.38 | 10221 | 20383
3 | 4:31.59 | 2:08.56 | 20384 | 30039
4 | 6:40.40 | 2:39.23 | 30040 | 41987
5 | 9:19.63 | 2:46.32 | 41988 | 54469
6 | 12:06.20 | 2:41.39 | 54470 | 66583
7 | 14:47.59 | 2:38.01 | 66584 | 78434
8 | 17:25.60 | 2:36.39 | 78435 | 90173
9 | 20:02.24 | 2:01.62 | 90174 | 99310
10 | 22:04.11 | 2:24.44 | 99311 | 110154
11 | 24:28.55 | 2:30.50 | 110155 | 121454
12 | 26:59.30 | 2:46.55 | 121455 | 133959
13 | 29:46.10 | 2:03.52 | 133960 | 143236
14 | 31:49.62 | 2:19.30 | 143237 | 153691
15 | 34:09.17 | 2:52.27 | 153692 | 166618
16 | 37:01.44 | 2:39.62 | 166619 | 178605
17 | 39:41.31 | 2:17.04 | 178606 | 188884
18 | 41:58.35 | 2:29.61 | 188885 | 200120
19 | 44:28.21 | 2:52.35 | 200121 | 213055
20 | 47:20.56 | 2:13.19 | 213056 | 223049
21 | 49:34.00 | 2:23.02 | 223050 | 233776
22 | 51:57.02 | 2:51.69 | 233777 | 246670
23 | 54:48.71 | 2:29.03 | 246671 | 257848
24 | 57:17.74 | 1:57.17 | 257849 | 266640
25 | 59:15.16 | 2:27.14 | 266641 | 277679

Range status and errors

Selected range

Filename C:UsersArtursDesktopVarious Artists - Ultimate Rock 'N' Roll Love Songs (CD 3).wav

Peak level 99.9 %
Extraction speed 3.1 X
Range quality 100.0 %
Test CRC 06A46E7A
Copy CRC 06A46E7A
Copy OK

No errors occurred

AccurateRip summary

Track 1 accurately ripped (confidence 1) (AR v2)
Track 2 accurately ripped (confidence 1) [7099A300] (AR v2)
Track 3 accurately ripped (confidence 1) [BE22592F] (AR v2)
Track 4 accurately ripped (confidence 1) [2E8E414B] (AR v2)
Track 5 accurately ripped (confidence 1) [25B451BA] (AR v2)
Track 6 accurately ripped (confidence 1) [0CA392BE] (AR v2)
Track 7 accurately ripped (confidence 1) [3BCD49DC] (AR v2)
Track 8 accurately ripped (confidence 1) [3F907DBF] (AR v2)
Track 9 accurately ripped (confidence 1) [836A44B8] (AR v2)
Track 10 accurately ripped (confidence 1) [89ACDF01] (AR v2)
Track 11 accurately ripped (confidence 1) [1D1B1DDC] (AR v2)
Track 12 accurately ripped (confidence 1) [F0ADDB76] (AR v2)
Track 13 accurately ripped (confidence 1) [AEE90D06] (AR v2)
Track 14 accurately ripped (confidence 1) [290C073C] (AR v2)
Track 15 accurately ripped (confidence 1) [83FC4510] (AR v2)
Track 16 accurately ripped (confidence 1) [0C099271] (AR v2)
Track 17 accurately ripped (confidence 1) [32B1CBA7] (AR v2)
Track 18 accurately ripped (confidence 1) [8002D6F8] (AR v2)
Track 19 accurately ripped (confidence 1) [65C86E39] (AR v2)
Track 20 accurately ripped (confidence 1) [FEABDC38] (AR v2)
Track 21 accurately ripped (confidence 1) [E4FAE1FD] (AR v2)
Track 22 accurately ripped (confidence 1) [19526448] (AR v2)
Track 23 accurately ripped (confidence 1) [C9C79C1C] (AR v2)
Track 24 accurately ripped (confidence 1) [2D946E2A] (AR v2)
Track 25 accurately ripped (confidence 1) [126E1BA3] (AR v2)

All tracks accurately ripped

End of status report

---- CUETools DB Plugin V2.1.6

[CTDB TOCID: HQvFL_natId4nIPy2osGf1oCtl0-] found
Submit result: HQvFL_natId4nIPy2osGf1oCtl0- has been confirmed
Track | CTDB Status
1 | (2/2) Accurately ripped
2 | (2/2) Accurately ripped
3 | (2/2) Accurately ripped
4 | (2/2) Accurately ripped
5 | (2/2) Accurately ripped
6 | (2/2) Accurately ripped
7 | (2/2) Accurately ripped
8 | (2/2) Accurately ripped
9 | (2/2) Accurately ripped
10 | (2/2) Accurately ripped
11 | (2/2) Accurately ripped
12 | (2/2) Accurately ripped
13 | (2/2) Accurately ripped
14 | (2/2) Accurately ripped
15 | (2/2) Accurately ripped
16 | (2/2) Accurately ripped
17 | (2/2) Accurately ripped
18 | (2/2) Accurately ripped
19 | (2/2) Accurately ripped
20 | (2/2) Accurately ripped
21 | (2/2) Accurately ripped
22 | (2/2) Accurately ripped
23 | (2/2) Accurately ripped
24 | (2/2) Accurately ripped
25 | (2/2) Accurately ripped

==== Log checksum E4036CFE1F6E082DA1201680A575656AFA40AB3D50DABE51F17E3F5AE5458747 ====
Музыка / Lossless / Рок, Панк, Метал, Альтернатива.
СКАЧАТЬ БЕСПЛАТНО  [1019.4 MB]


04
авг
2017

VA - Rock 'N' Roll Britannia (3CD) [2016, Rock 'n' Roll, FLAC]

Формат: FLAC, (image + .cue), lossless
Год выпуска: 2016
Страна: UK
Жанр: Rock 'n' Roll
Продолжительность: 02:46:30
Описание: CD 1 00 01. Twenty Flight Rock - Cliff Richard 02. Sea Of Love - Marty Wilde 03. High School Confidential - Adam Faith 04. Dream Lover - Duffy Power 05. What Do You Want To Make Those Eyes At Me For - Emile Ford & The Checkmates 06. Margo - Billy Fury 07. Tallahassie Lassie - Tommy Steele 08. Cloudburst - Don Lang 09. Crazy Little Daisy - Neville Taylor & The Cutters 10. Nothin' Shakin' (But The Leaves On The Trees) - Craig Douglas 11. Rockin' At The 2 I's - Wee Willie ...

23
дек
2015

VA - Die Hit Giganten: Best of Rock'n'roll (3CD) [2015, Rock Roll, FLAC]

Формат: FLAC, (image + .cue), lossless
Год выпуска: 2015
Страна: All World
Жанр: Rock & Roll
Продолжительность: 02:41:33
Описание: CD 1 0001. Elvis Presley - Jailhouse Rock (02:29) 02. Little Richard - Tutti frutti (02:25) 03. Carl Perkins - Blue suede shoes (02:16) 04. Chuck Berry - Sweet little sixteen (03:04) 05. Wanda Jackson - Let's have a party (02:10) 06. Jackie Wilson - Reet petite (02:45) 07. Jerry Lee Lewis - Whole lotta shakin' goin' on (02:52) 08. Larry Williams - Dizzy Miss Lizzy (02:13) 09. Bill Haley & The Comets - (We're gonna) Rock around the clock (02:11) 10. The Swinging Blu ...

13
мая
2016

VA - Rock 'n' Roll Party - The Absolutely Essential (3CD) [2015, Rock 'N' Roll, FLAC]

Формат: FLAC, (image + .cue), lossless
Год выпуска: 2015
Страна: UK
Жанр: Rock 'N' Roll
Продолжительность: 02:16:17
Описание: CD 1 0001. Bill Haley - Rock Around The Clock 1954 02. Elvis Presley - Heartbreak Hotel 1956 03. Little Richard - Rip It Up 1956 04. Jerry Lee Lewis - Great Balls Of Fire 1957 05. Chuck Berry - Carol 1958 06. Gene Vincent - Be-Bop-A-Lula 1956 07. Eddie Cochran - Twenty Flight Rock 1957 08. Duane Eddy - Shazam 1960 09. Bo Diddley - Pretty Thing 1955 10. Buddy Holly & The Crickets - Oh Boy 1957 11. Del Shannon - Runaway 1961 12. The Everly Brothers - Wake Up Little Susie ...

31
мая
2017

Aaron Hellvis - Ballsqueezin' Boozesniffin' Motherfuckin' Rock 'N' Roll [2017, Hard-N-Roll, MP3]

Формат: MP3, tracks, 320kbps
Год выпуска: 2017
Страна: Germany
Жанр: Hard-N-Roll
Продолжительность: 00:49:33
Описание: 01. King Dynamite 02. Motor 03. Dead or Alive 04. Into the Wall 05. Chicago Typewriter 06. Walk, Baby, Walk 07. We are Motorteds 08. Riches 09. Rebel 10. Sir Lucky John Booze 11. Bad Franky’s Hell Cab 12. Roadhouse Bloody Blue

01
фев
2016

VA - Shakin' All Over: The Best Of British Rock 'N' Roll (2CD) [2012, Rock 'N' Roll, Pop, Easy Listening, FLAC]

Формат: FLAC, (image + .cue), lossless
Год выпуска: 2012
Страна: All World
Жанр: Rock 'N' Roll, Pop, Easy Listening
Продолжительность: 01:28:51
Описание: CD 1 0001. Adam Faith - What Do You Want 02. Cliff Richard & The Drifters - Move It 03. Johnny Kidd And The Pirates - Shakin' All Over 04. Billy Fury - Colette 05. Alma Cogan - Dreamboat 06. Marty Wilde - A Teenager In Love 07. Tommy Steele - Singin’ The Blues 08. Dickie Pride - Primrose Lane 09. Frankie Vaughan - Garden Of Eden 10. The Stargazers - She Loves To Rock 11. Lonnie Donegan - Cumberland Gap 12. Cliff Richard & The Shadows - Travel ...

26
окт
2017

Backstreet Girls - Don't Mess With My Rock'N'Roll [2017, Hard Rock, Rock'n'Roll, MP3]

Формат: MP3, tracks, 320kbps
Год выпуска: 2017
Страна: Finland
Жанр: Hard Rock, Rock'n'Roll
Продолжительность: 00:40:03
Описание: 1. Wild Women & Bad Bad Boys 2. Rollin' With The Stones 3. Don't Mess With My Rock 'n' Roll 4. Jaguars 5. Hound Dog Taylor Made 6. Down To Kill 7. Radio 8. Back Again 9. Psycho 10. Soul Shaker
Доп. информация: Об издании Источник Lossless (WEB)

06
окт
2017

Backstreet Girls - Don't Mess With My Rock'n'Roll [2017, Rock, Rock Roll, Hard Rock, FLAC]

Формат: FLAC, tracks, lossless
Год выпуска: 2017
Страна: Norway
Жанр: Rock, Rock & Roll, Hard Rock
Продолжительность: 00:39:59
Описание: 01. Wild Women & Bad Bad Boys 02. Rollin' With The Stones 03. Don't Mess With My Rock'n'roll 04. Jaguars 05. Hound Dog Taylor Made 06. Down To Kill 07. Radio 08. Back Again 09. Psycho 10. Soul Shaker
Доп. информация: СоставBass, Backing Vocals – Dan Thunderbird Drums – Martin Hansson Guitar, Backing Vocals, Piano – Petter Baarli Lead Vocals – Bjørn Müller http://www.backstreetgirls.net/ Log ----------------------- DON'T MODIFY THIS FILE ------ ...

05
июл
2018

Rose Tattoo - Nice Boys Don't Play Rock'n'Roll [1992, Rock, Hard Rock, FLAC]

Формат: FLAC, (tracks + .cue), lossless
Год выпуска: 1992
Страна: Australia
Жанр: Rock, Hard Rock
Продолжительность: 01:02:50
Описание: 01. Scarred For Life 02. Nice Boys 03. Bad Boy For Love 04. Rock'n'Roll Outlaw 05. Stuck On You 06. One Of The Boys 07. Astra Wally 08. Snow Queen 09. Assault & Battery 10. I Had You First 11. The Butcher And Fast Eddy 12. Rock'n'Roll Is King 13. Branded 14. Never Too Loud 15. We Can't Be Beaten 16. All Hell Broke Loose
Доп. информация: https://en.wikipedia.org/wiki/Rose_Tattoo eac Exact Audio Copy V1.3 from 2. September 2016 EAC extraction logfile from 21 ...

14
июл
2013

VA - Wanda Jackson - 16 Rock'n'Roll Hits [1995, Rock'n'Roll, MP3]

Формат: MP3, tracks, 320kbps
Год выпуска: 1995
Страна: USA
Жанр: Rock'n'Roll
Продолжительность: 00:37:19
Описание: 01. Let's Have A Party 02. Mean Mean Man 03. Fujiyama Mama 04. Kansas City 05. Sticks & Stones 06. Tweedle Dee 07. Lost Weekend 08. Right Or Wrong 09. Stupid Cupid 10. Slippin' And Slidin' 11. Brown Eyed Handsome Man 12. You've Turned To A Stranger 13. Money, Honey 14. Don'a Wanna 15. Did You Miss Me? 16. Cool Love

18
апр
2016

VA - Rock 'n' Roll Jukebox Hits: 100 Originals from the 50s [2016, Rock, Rock-n-roll, Oldies, FLAC]

Формат: FLAC, tracks, lossless
Год выпуска: 2016
Страна: UE
Жанр: Rock, Rock-n-roll, Oldies
Продолжительность: 04:04:35
Описание: Tracklist01. The Sensations - Let Me In 3:03 02. The Sheppards - Glitter in Your Eyes 2:45 03. The Dovells - Bristol Stomp 2:20 04. The Crystals - There's No Other (Like My Baby) 2:30 05. The Fiestas - Dollar Bill 2:48 06. The Chaperones - Cruise to the Moon 2:14 07. Sevilles - Charlena 2:48 08. The Jesters - Sally Green 2:13 09. The Five Royals - I'm with You 4:24 10. The Blue Notes - My Hero 2:41 11. Roy Orbison - I Like Love 2:32 12. The Coasters - Searchin' 2: ...

20
апр
2016

VA - Rock 'n' Roll Jukebox Hits: 100 Originals from the 50s [2016, Rock, rock-n-roll, Oldies, MP3]

Формат: MP3, tracks, 320kbps
Год выпуска: 2016
Страна: All World
Жанр: Rock, rock-n-roll, Oldies
Продолжительность: 04:04:59
Описание: Треклист 1. The Sensations - Let Me In (3:03) 2. The Sheppards - Glitter in Your Eyes (2:45) 3. The Dovells - Bristol Stomp (2:20) 4. The Crystals - There's No Other (Like My Baby) (2:30) 5. The Fiestas - Dollar Bill (2:48) 6. The Chaperones - Cruise to the Moon (2:14) 7. Sevilles - Charlena (2:48) 8. The Jesters - Sally Green (2:13) 9. The Five Royals - I'm with You (4:24) 10. The Blue Notes - My Hero (2:41) 11. Roy Orbison - I Like Love (2:32) 12. The Coaster ...

29
окт
2015

VA - Akella Presents: Rock'n'Roll Vol 6 (2CD) [2013, Rock'n'Roll, FLAC]

Формат: FLAC, (image + .cue), lossless
Год выпуска: 2013
Страна: All World
Жанр: Rock'n'Roll
Продолжительность: 02:39:29
Описание: CD 1 0101. Willie And The Poor Boys - You Never Can Tell 02. Es Feiv - Brand New Cadillac 03. Willie And The Poor Boys - Let's Talk It Over 04. El Rio Trio - I'm Burning 05. Johnny Power - You Win Again 06. Tupelo Highshots - Maybe Little Baby 07. Vince Ray - Looking For Johnny 08. Ray Charles & Stray Cats - Hit the Road Jack 09. The Runnaway Boys - Rock Around with Ollie Vee 10. Rockin' Louie - Troubles Troubles 11. Mungo Jerry - In the Summertime 12. Jan Gillan & ...

13
авг
2014

VA - This Magnificent Rock'n'Roll [2014, Rock, Rock'n'Roll, MP3]

Формат: MP3, tracks, 192-320kbps [VBR]
Год выпуска: 2014
Страна: All World
Жанр: Rock, Rock'n'Roll
Продолжительность: 05:46:44
Описание: Треклист001. Rolling Stones - Sad Sad Sad 002. Doors - You Make Me Real 003. Slade - Lets Call It Quits 004. Rockets - I Got To Move 005. Kiss - Rock And Roll All Nite 006. Rod Stewart - Sweet Little Rock n Roller 007. Geordie - Going To The City 008. Hurriganes - Oh Baby Doll 009. Electric Light Orchestra - Easy Money 010. Suzi Quatro - Keep A Knockin 011. Status Quo - Backwater 012. Guns N Roses - Anything Goes 013. Boppers - Dancing To Rock N Roll Music 01 ...

07
авг
2017

VA - Rock 'N' Roll America [2016, Rock 'n' Roll, Rock, FLAC]

Формат: FLAC, (image + .cue), lossless
Год выпуска: 2016
Страна: USA
Жанр: Rock 'n' Roll, Rock
Продолжительность: 03:04:36
Описание: CD 1 00 01. Rock Around The Clock - Bill Haley & His Comets 02. Roll Over Beethoven - Chuck Berry 03. At The Hop - Danny & The Juniors 04. Be-Bop-A-Lula - Gene Vincent 05. Great Balls Of Fire - Jerry Lee Lewis 06. Stagger Lee - Lloyd Price 07. La Bamba - Ritchie Valens 08. Shout - The Isley Brothers 09. Money (That's What I Want) - Barrett Strong 10. Singing The Blues - Guy Mitchell 11. Tequila - The Champs 12. Sh-Boom - The Chords 13. Stay - Maurice Williams & T ...

19
мар
2017

VA - Hit Parade XX Century - Rock'n'roll and Blues (2CD) [2002, Rock, Rock'n'roll, Blues, MP3]

Формат: MP3, tracks, 320kbps
Год выпуска: 2002
Страна: All World
Жанр: Rock, Rock'n'roll, Blues
Продолжительность: 02:31:04
Описание: CD 1 - Hit Parade. Rock'N'Roll and Blues - 01 01. Chubby Checkers - Let's Twist Again 02. Elvis Presley - His Flame 03. Chuk Berry - You Never Can Tell 04. Roy Orbison - Blue Angel 05. Jerry Lee Lewis - Great Balls of Fire 06. Bill Haley - Rock Around The Clock 07. Little Richard - Tutti Frutti 08. Eddie Cochran - Summertime Blues 09. Elvis Presley - Blue Svede Shoes 10. The Swinging Blue Jeans - Hippy Shake 11. Pat Bone - Speedy Gonzales 12. Danny & The Junior ...