13
мая
2016

VA - Rock 'n' Roll Party - The Absolutely Essential (3CD) [2015, Rock 'N' Roll, FLAC]

VA - Rock 'n' Roll Party - The Absolutely Essential (3CD)
Формат: FLAC, (image + .cue), lossless
Год выпуска: 2015
Страна: UK
Жанр: Rock 'N' Roll
Продолжительность: 02:16:17
Описание:
CD 1 00
VA - Rock 'n' Roll Party - The Absolutely Essential 01. Bill Haley - Rock Around The Clock 1954
02. Elvis Presley - Heartbreak Hotel 1956
03. Little Richard - Rip It Up 1956
04. Jerry Lee Lewis - Great Balls Of Fire 1957
05. Chuck Berry - Carol 1958
06. Gene Vincent - Be-Bop-A-Lula 1956
07. Eddie Cochran - Twenty Flight Rock 1957
08. Duane Eddy - Shazam 1960
09. Bo Diddley - Pretty Thing 1955
10. Buddy Holly & The Crickets - Oh Boy 1957
11. Del Shannon - Runaway 1961
12. The Everly Brothers - Wake Up Little Susie 1957
13. The Coasters - Poison Ivy 1959
14. The Marcels - Blue Moon 1960
15. Maurice Williams - Stay 1960
16. The Phantom - Love Me - The Phantom 1958
17. Billy Riley & His Little Green Men - Flyin' Saucers Rock'n'Roll 1957
18. Dion - A Teenager In Love 1959
19. Johnny Burnette - Honey Hush 1956
20. Link Wray - Raw-Hide 1959

eac
Exact Audio Copy V1.1 from 23. June 2015

EAC extraction logfile from 12. May 2016, 10:34

Various Artists / Rock 'n' Roll Party - The Absolutely Essential 3 CD Collection (CD 1)

Used drive : hp CDDVDW SH-216BB Adapter: 1 ID: 0

Read mode : Secure
Utilize accurate stream : Yes
Defeat audio cache : Yes
Make use of C2 pointers : No

Read offset correction : 6
Overread into Lead-In and Lead-Out : No
Fill up missing offset samples with silence : Yes
Delete leading and trailing silent blocks : No
Null samples used in CRC calculations : Yes
Used interface : Native Win32 interface for Win NT & 2000

Used output format : Internal WAV Routines
Sample format : 44.100 Hz; 16 Bit; Stereo

TOC of the extracted CD

Track | Start | Length | Start sector | End sector
---------------------------------------------------------
1 | 0:00.00 | 2:17.03 | 0 | 10277
2 | 2:17.03 | 2:09.48 | 10278 | 20000
3 | 4:26.51 | 2:23.16 | 20001 | 30741
4 | 6:49.67 | 1:53.42 | 30742 | 39258
5 | 8:43.34 | 2:48.62 | 39259 | 51920
6 | 11:32.21 | 2:35.70 | 51921 | 63615
7 | 14:08.16 | 1:44.23 | 63616 | 71438
8 | 15:52.39 | 2:02.19 | 71439 | 80607
9 | 17:54.58 | 2:51.35 | 80608 | 93467
10 | 20:46.18 | 2:06.70 | 93468 | 102987
11 | 22:53.13 | 2:18.68 | 102988 | 113405
12 | 25:12.06 | 1:58.26 | 113406 | 122281
13 | 27:10.32 | 2:42.50 | 122282 | 134481
14 | 29:53.07 | 2:16.03 | 134482 | 144684
15 | 32:09.10 | 1:38.07 | 144685 | 152041
16 | 33:47.17 | 1:34.05 | 152042 | 159096
17 | 35:21.22 | 2:04.21 | 159097 | 168417
18 | 37:25.43 | 2:33.23 | 168418 | 179915
19 | 39:58.66 | 2:03.18 | 179916 | 189158
20 | 42:02.09 | 2:07.43 | 189159 | 198726

Range status and errors

Selected range

Filename C:UsersArtursDesktopVarious Artists - Rock 'n' Roll Party - The Absolutely Essential 3 CD Collection (CD 1).wav

Peak level 100.0 %
Extraction speed 2.7 X
Range quality 99.9 %
Test CRC AC1F3513
Copy CRC AC1F3513
Copy OK

No errors occurred

AccurateRip summary

Track 1 not present in database
Track 2 not present in database
Track 3 not present in database
Track 4 not present in database
Track 5 not present in database
Track 6 not present in database
Track 7 not present in database
Track 8 not present in database
Track 9 not present in database
Track 10 not present in database
Track 11 not present in database
Track 12 not present in database
Track 13 not present in database
Track 14 not present in database
Track 15 not present in database
Track 16 not present in database
Track 17 not present in database
Track 18 not present in database
Track 19 not present in database
Track 20 not present in database

None of the tracks are present in the AccurateRip database

End of status report

---- CUETools DB Plugin V2.1.6

[CTDB TOCID: GmnkldGa9r7GINB9VUW7.WTaNw8-] found
Submit result: GmnkldGa9r7GINB9VUW7.WTaNw8- has been confirmed
Track | CTDB Status
1 | (1/1) Accurately ripped
2 | (1/1) Accurately ripped
3 | (1/1) Accurately ripped
4 | (1/1) Accurately ripped
5 | (1/1) Accurately ripped
6 | (1/1) Accurately ripped
7 | (1/1) Accurately ripped
8 | (1/1) Accurately ripped
9 | (1/1) Accurately ripped
10 | (1/1) Accurately ripped
11 | (1/1) Accurately ripped
12 | (1/1) Accurately ripped
13 | (1/1) Accurately ripped
14 | (1/1) Accurately ripped
15 | (1/1) Accurately ripped
16 | (1/1) Accurately ripped
17 | (1/1) Accurately ripped
18 | (1/1) Accurately ripped
19 | (1/1) Accurately ripped
20 | (1/1) Accurately ripped

==== Log checksum 665D87B26E9FBA75458D0EAE069D2A200E3EBAB3EB1C918938581B3F8AA0253F ====
CD 2 00
VA - Rock 'n' Roll Party - The Absolutely Essential 01. Elvis Presley - Blue Suede Shoes 1956
02. Fats Domino - Blueberry Hill 1956
03. Little Richard - Tutti Frutti 1955
04. Chuck Berry - Johnny B. Goode 1958
05. Buddy Holly & The Crickets - That'll Be The Day 1957
06. Johnny Kidd & The Pirates - Shakin' All Over 1960
07. Bill Haley & His Comets - See You Later Alligator 1956
08. Jerry Lee Lewis - High School Confidential 1958
09. The Everly Brothers - Walk Right Back 1960
10. Eddie Cochran - C'mon Everybody 1958
11. Cliff Richard & The Drifters - Move It 1958
12. Mickey Hawks And The Night Raiders - Bip Bop Boom 1958
13. Gene Vincent - Bluejean Bop 1956
14. Screamin' Jay Hawkins - I Put A Spell On You 1956
15. The Clovers - Love Potion No. 9 1959
16. The Shadows - Man Of Mystery 1960
17. Roy Orbison - Dream Baby (How Long Must I Dream) 1962
18. The Cadillacs - Speedoo 1955
19. Bo Diddley - Mona 1957
20. Bobby Darin - Splish Splash 1958

eac
Exact Audio Copy V1.1 from 23. June 2015

EAC extraction logfile from 12. May 2016, 10:57

Various Artists / Rock 'n' Roll Party - The Absolutely Essential 3 CD Collection (CD 2)

Used drive : hp CDDVDW SH-216BB Adapter: 1 ID: 0

Read mode : Secure
Utilize accurate stream : Yes
Defeat audio cache : Yes
Make use of C2 pointers : No

Read offset correction : 6
Overread into Lead-In and Lead-Out : No
Fill up missing offset samples with silence : Yes
Delete leading and trailing silent blocks : No
Null samples used in CRC calculations : Yes
Used interface : Native Win32 interface for Win NT & 2000

Used output format : Internal WAV Routines
Sample format : 44.100 Hz; 16 Bit; Stereo

TOC of the extracted CD

Track | Start | Length | Start sector | End sector
---------------------------------------------------------
1 | 0:00.00 | 2:03.37 | 0 | 9261
2 | 2:03.37 | 2:20.70 | 9262 | 19831
3 | 4:24.32 | 2:22.72 | 19832 | 30553
4 | 6:47.29 | 2:41.46 | 30554 | 42674
5 | 9:29.00 | 2:16.03 | 42675 | 52877
6 | 11:45.03 | 2:21.48 | 52878 | 63500
7 | 14:06.51 | 2:46.16 | 63501 | 75966
8 | 16:52.67 | 2:31.56 | 75967 | 87347
9 | 19:24.48 | 2:20.37 | 87348 | 97884
10 | 21:45.10 | 1:59.58 | 97885 | 106867
11 | 23:44.68 | 2:22.73 | 106868 | 117590
12 | 26:07.66 | 1:40.24 | 117591 | 125114
13 | 27:48.15 | 2:26.43 | 125115 | 136107
14 | 30:14.58 | 2:28.19 | 136108 | 147226
15 | 32:43.02 | 1:55.48 | 147227 | 155899
16 | 34:38.50 | 2:01.06 | 155900 | 164980
17 | 36:39.56 | 2:32.50 | 164981 | 176430
18 | 39:12.31 | 2:20.09 | 176431 | 186939
19 | 41:32.40 | 2:21.41 | 186940 | 197555
20 | 43:54.06 | 2:13.47 | 197556 | 207577

Range status and errors

Selected range

Filename C:UsersArtursDesktopVarious Artists - Rock 'n' Roll Party - The Absolutely Essential 3 CD Collection (CD 2).wav

Peak level 100.0 %
Extraction speed 6.8 X
Range quality 100.0 %
Test CRC 11CD2896
Copy CRC 11CD2896
Copy OK

No errors occurred

AccurateRip summary

Track 1 not present in database
Track 2 not present in database
Track 3 not present in database
Track 4 not present in database
Track 5 not present in database
Track 6 not present in database
Track 7 not present in database
Track 8 not present in database
Track 9 not present in database
Track 10 not present in database
Track 11 not present in database
Track 12 not present in database
Track 13 not present in database
Track 14 not present in database
Track 15 not present in database
Track 16 not present in database
Track 17 not present in database
Track 18 not present in database
Track 19 not present in database
Track 20 not present in database

None of the tracks are present in the AccurateRip database

End of status report

---- CUETools DB Plugin V2.1.6

[CTDB TOCID: LERjcDUwVQIVl7N1UfqJeC7rw7w-] found
Submit result: LERjcDUwVQIVl7N1UfqJeC7rw7w- has been confirmed
Track | CTDB Status
1 | (1/1) Accurately ripped
2 | (1/1) Accurately ripped
3 | (1/1) Accurately ripped
4 | (1/1) Accurately ripped
5 | (1/1) Accurately ripped
6 | (1/1) Accurately ripped
7 | (1/1) Accurately ripped
8 | (1/1) Accurately ripped
9 | (1/1) Accurately ripped
10 | (1/1) Accurately ripped
11 | (1/1) Accurately ripped
12 | (1/1) Accurately ripped
13 | (1/1) Accurately ripped
14 | (1/1) Accurately ripped
15 | (1/1) Accurately ripped
16 | (1/1) Accurately ripped
17 | (1/1) Accurately ripped
18 | (1/1) Accurately ripped
19 | (1/1) Accurately ripped
20 | (1/1) Accurately ripped

==== Log checksum 5E5F70CBB6AEEFA75C21B42166D1BCEA82F1211F8527D514C8A8D1ECE0333F0B ====
CD 3 00
VA - Rock 'n' Roll Party - The Absolutely Essential 01. Little Richard - Good Golly Miss Molly 1958
02. Elvis Presley - Don't Be Cruel 1956
03. Buddy Holly - Maybe Baby 1958
04. Bill Haley - Shake Rattle And Roll 1954
05. Chuck Berry - Rock & Roll Music 1957
06. Jerry Lee Lewis - Wild One (Real Wild Child) 1958
07. Jackie Wilson - Reet Petite 1957
08. The Everly Brothers - Cathy's Clown 1960
09. Fats Domino - I'm In Love Again 1955
10. Elvis Presley - That's All Right 1954
11. Jerry Byrne - Lights Out 1958
12. The Drifters - Ruby Baby 1956
13. Brenda Lee - Sweet Nothin's 1959
14. Chubby Checker - Let's Twist Again 1962
15. Bill Justis - Raunchy 1958
16. Carl Perkins - Matchbox 1956
17. Cliff Richard - Dynamite 1959
18. The Monotones - The Book Of Love 1958
19. Charlie Feathers - Tongue Tied Jill 1956
20. The Tornados - Telstar 1962

eac
Exact Audio Copy V1.1 from 23. June 2015

EAC extraction logfile from 12. May 2016, 12:29

Various Artists / Rock 'n' Roll Party - The Absolutely Essential 3 CD Collection (CD 3)

Used drive : hp CDDVDW SH-216BB Adapter: 1 ID: 0

Read mode : Secure
Utilize accurate stream : Yes
Defeat audio cache : Yes
Make use of C2 pointers : No

Read offset correction : 6
Overread into Lead-In and Lead-Out : No
Fill up missing offset samples with silence : Yes
Delete leading and trailing silent blocks : No
Null samples used in CRC calculations : Yes
Used interface : Native Win32 interface for Win NT & 2000

Used output format : Internal WAV Routines
Sample format : 44.100 Hz; 16 Bit; Stereo

TOC of the extracted CD

Track | Start | Length | Start sector | End sector
---------------------------------------------------------
1 | 0:00.00 | 2:14.50 | 0 | 10099
2 | 2:14.50 | 2:05.58 | 10100 | 19532
3 | 4:20.33 | 2:03.36 | 19533 | 28793
4 | 6:23.69 | 2:32.41 | 28794 | 40234
5 | 8:56.35 | 2:33.51 | 40235 | 51760
6 | 11:30.11 | 1:54.05 | 51761 | 60315
7 | 13:24.16 | 2:44.72 | 60316 | 72687
8 | 16:09.13 | 2:25.69 | 72688 | 83631
9 | 18:35.07 | 1:56.39 | 83632 | 92370
10 | 20:31.46 | 1:57.34 | 92371 | 101179
11 | 22:29.05 | 1:54.20 | 101180 | 109749
12 | 24:23.25 | 2:25.18 | 109750 | 120642
13 | 26:48.43 | 2:23.34 | 120643 | 131401
14 | 29:12.02 | 2:20.22 | 131402 | 141923
15 | 31:32.24 | 2:23.29 | 141924 | 152677
16 | 33:55.53 | 2:29.14 | 152678 | 163866
17 | 36:24.67 | 1:56.40 | 163867 | 172606
18 | 38:21.32 | 2:20.05 | 172607 | 183111
19 | 40:41.37 | 1:59.09 | 183112 | 192045
20 | 42:40.46 | 3:18.48 | 192046 | 206943

Range status and errors

Selected range

Filename C:UsersArtursDesktopVarious Artists - Rock 'n' Roll Party - The Absolutely Essential 3 CD Collection (CD 3).wav

Peak level 100.0 %
Extraction speed 5.3 X
Range quality 99.9 %
Test CRC 6F983C15
Copy CRC 6F983C15
Copy OK

No errors occurred

AccurateRip summary

Track 1 not present in database
Track 2 not present in database
Track 3 not present in database
Track 4 not present in database
Track 5 not present in database
Track 6 not present in database
Track 7 not present in database
Track 8 not present in database
Track 9 not present in database
Track 10 not present in database
Track 11 not present in database
Track 12 not present in database
Track 13 not present in database
Track 14 not present in database
Track 15 not present in database
Track 16 not present in database
Track 17 not present in database
Track 18 not present in database
Track 19 not present in database
Track 20 not present in database

None of the tracks are present in the AccurateRip database

End of status report

---- CUETools DB Plugin V2.1.6

[CTDB TOCID: WW5HzRCVuPIic8H1aNx_UuKSPnA-] found
Submit result: WW5HzRCVuPIic8H1aNx_UuKSPnA- has been confirmed
Track | CTDB Status
1 | (1/1) Accurately ripped
2 | (1/1) Accurately ripped
3 | (1/1) Accurately ripped
4 | (1/1) Accurately ripped
5 | (1/1) Accurately ripped
6 | (1/1) Accurately ripped
7 | (1/1) Accurately ripped
8 | (1/1) Accurately ripped
9 | (1/1) Accurately ripped
10 | (1/1) Accurately ripped
11 | (1/1) Accurately ripped
12 | (1/1) Accurately ripped
13 | (1/1) Accurately ripped
14 | (1/1) Accurately ripped
15 | (1/1) Accurately ripped
16 | (1/1) Accurately ripped
17 | (1/1) Accurately ripped
18 | (1/1) Accurately ripped
19 | (1/1) Accurately ripped
20 | (1/1) Accurately ripped

==== Log checksum BF330CC115C6BDA772F57290B54BC051D5FD81DD1E164A4CE44314D87B8C9181 ====
Музыка / Lossless / Рок, Панк, Метал, Альтернатива.
СКАЧАТЬ БЕСПЛАТНО  [634.7 MB]


04
авг
2017

VA - Rock 'N' Roll Britannia (3CD) [2016, Rock 'n' Roll, FLAC]

Формат: FLAC, (image + .cue), lossless
Год выпуска: 2016
Страна: UK
Жанр: Rock 'n' Roll
Продолжительность: 02:46:30
Описание: CD 1 00 01. Twenty Flight Rock - Cliff Richard 02. Sea Of Love - Marty Wilde 03. High School Confidential - Adam Faith 04. Dream Lover - Duffy Power 05. What Do You Want To Make Those Eyes At Me For - Emile Ford & The Checkmates 06. Margo - Billy Fury 07. Tallahassie Lassie - Tommy Steele 08. Cloudburst - Don Lang 09. Crazy Little Daisy - Neville Taylor & The Cutters 10. Nothin' Shakin' (But The Leaves On The Trees) - Craig Douglas 11. Rockin' At The 2 I's - Wee Willie ...

23
дек
2015

VA - Die Hit Giganten: Best of Rock'n'roll (3CD) [2015, Rock Roll, FLAC]

Формат: FLAC, (image + .cue), lossless
Год выпуска: 2015
Страна: All World
Жанр: Rock & Roll
Продолжительность: 02:41:33
Описание: CD 1 0001. Elvis Presley - Jailhouse Rock (02:29) 02. Little Richard - Tutti frutti (02:25) 03. Carl Perkins - Blue suede shoes (02:16) 04. Chuck Berry - Sweet little sixteen (03:04) 05. Wanda Jackson - Let's have a party (02:10) 06. Jackie Wilson - Reet petite (02:45) 07. Jerry Lee Lewis - Whole lotta shakin' goin' on (02:52) 08. Larry Williams - Dizzy Miss Lizzy (02:13) 09. Bill Haley & The Comets - (We're gonna) Rock around the clock (02:11) 10. The Swinging Blu ...

15
мая
2016

VA - Ultimate Rock 'N' Roll Love Songs (3CD) [2015, Rock 'n' Roll, FLAC]

Формат: FLAC, (image + .cue), lossless
Год выпуска: 2015
Страна: UK
Жанр: Rock 'n' Roll
Продолжительность: 03:00:52
Описание: CD 1 0001. Dion & the Belmonts - Teenager in Love 02. The Everly Brothers - Wake Up Little Susie 03. Elvis Presley - (Marie's the Name) His Latest Flame 04. Brian Hyland - Ginny Come Lately 05. Tommy Roe - Sheila 06. Bobby Darin - Dream Lover 07. Peggy Sue - Buddy Holly 08. Pretty Little Angel Eyes - Curtis Lee 09. The Skyliners - Since I Don't Have You 10. Eddie Cochran - Three Steps to Heaven 11. Ricky Nelson - Hello Mary Lou 12. Conway Twitty - It's Only Make Believe ...

31
мая
2017

Aaron Hellvis - Ballsqueezin' Boozesniffin' Motherfuckin' Rock 'N' Roll [2017, Hard-N-Roll, MP3]

Формат: MP3, tracks, 320kbps
Год выпуска: 2017
Страна: Germany
Жанр: Hard-N-Roll
Продолжительность: 00:49:33
Описание: 01. King Dynamite 02. Motor 03. Dead or Alive 04. Into the Wall 05. Chicago Typewriter 06. Walk, Baby, Walk 07. We are Motorteds 08. Riches 09. Rebel 10. Sir Lucky John Booze 11. Bad Franky’s Hell Cab 12. Roadhouse Bloody Blue

01
фев
2016

VA - Shakin' All Over: The Best Of British Rock 'N' Roll (2CD) [2012, Rock 'N' Roll, Pop, Easy Listening, FLAC]

Формат: FLAC, (image + .cue), lossless
Год выпуска: 2012
Страна: All World
Жанр: Rock 'N' Roll, Pop, Easy Listening
Продолжительность: 01:28:51
Описание: CD 1 0001. Adam Faith - What Do You Want 02. Cliff Richard & The Drifters - Move It 03. Johnny Kidd And The Pirates - Shakin' All Over 04. Billy Fury - Colette 05. Alma Cogan - Dreamboat 06. Marty Wilde - A Teenager In Love 07. Tommy Steele - Singin’ The Blues 08. Dickie Pride - Primrose Lane 09. Frankie Vaughan - Garden Of Eden 10. The Stargazers - She Loves To Rock 11. Lonnie Donegan - Cumberland Gap 12. Cliff Richard & The Shadows - Travel ...

06
окт
2017

Backstreet Girls - Don't Mess With My Rock'n'Roll [2017, Rock, Rock Roll, Hard Rock, FLAC]

Формат: FLAC, tracks, lossless
Год выпуска: 2017
Страна: Norway
Жанр: Rock, Rock & Roll, Hard Rock
Продолжительность: 00:39:59
Описание: 01. Wild Women & Bad Bad Boys 02. Rollin' With The Stones 03. Don't Mess With My Rock'n'roll 04. Jaguars 05. Hound Dog Taylor Made 06. Down To Kill 07. Radio 08. Back Again 09. Psycho 10. Soul Shaker
Доп. информация: СоставBass, Backing Vocals – Dan Thunderbird Drums – Martin Hansson Guitar, Backing Vocals, Piano – Petter Baarli Lead Vocals – Bjørn Müller http://www.backstreetgirls.net/ Log ----------------------- DON'T MODIFY THIS FILE ------ ...

26
окт
2017

Backstreet Girls - Don't Mess With My Rock'N'Roll [2017, Hard Rock, Rock'n'Roll, MP3]

Формат: MP3, tracks, 320kbps
Год выпуска: 2017
Страна: Finland
Жанр: Hard Rock, Rock'n'Roll
Продолжительность: 00:40:03
Описание: 1. Wild Women & Bad Bad Boys 2. Rollin' With The Stones 3. Don't Mess With My Rock 'n' Roll 4. Jaguars 5. Hound Dog Taylor Made 6. Down To Kill 7. Radio 8. Back Again 9. Psycho 10. Soul Shaker
Доп. информация: Об издании Источник Lossless (WEB)

05
июл
2018

Rose Tattoo - Nice Boys Don't Play Rock'n'Roll [1992, Rock, Hard Rock, FLAC]

Формат: FLAC, (tracks + .cue), lossless
Год выпуска: 1992
Страна: Australia
Жанр: Rock, Hard Rock
Продолжительность: 01:02:50
Описание: 01. Scarred For Life 02. Nice Boys 03. Bad Boy For Love 04. Rock'n'Roll Outlaw 05. Stuck On You 06. One Of The Boys 07. Astra Wally 08. Snow Queen 09. Assault & Battery 10. I Had You First 11. The Butcher And Fast Eddy 12. Rock'n'Roll Is King 13. Branded 14. Never Too Loud 15. We Can't Be Beaten 16. All Hell Broke Loose
Доп. информация: https://en.wikipedia.org/wiki/Rose_Tattoo eac Exact Audio Copy V1.3 from 2. September 2016 EAC extraction logfile from 21 ...

14
июл
2013

VA - Wanda Jackson - 16 Rock'n'Roll Hits [1995, Rock'n'Roll, MP3]

Формат: MP3, tracks, 320kbps
Год выпуска: 1995
Страна: USA
Жанр: Rock'n'Roll
Продолжительность: 00:37:19
Описание: 01. Let's Have A Party 02. Mean Mean Man 03. Fujiyama Mama 04. Kansas City 05. Sticks & Stones 06. Tweedle Dee 07. Lost Weekend 08. Right Or Wrong 09. Stupid Cupid 10. Slippin' And Slidin' 11. Brown Eyed Handsome Man 12. You've Turned To A Stranger 13. Money, Honey 14. Don'a Wanna 15. Did You Miss Me? 16. Cool Love

18
апр
2016

VA - Rock 'n' Roll Jukebox Hits: 100 Originals from the 50s [2016, Rock, Rock-n-roll, Oldies, FLAC]

Формат: FLAC, tracks, lossless
Год выпуска: 2016
Страна: UE
Жанр: Rock, Rock-n-roll, Oldies
Продолжительность: 04:04:35
Описание: Tracklist01. The Sensations - Let Me In 3:03 02. The Sheppards - Glitter in Your Eyes 2:45 03. The Dovells - Bristol Stomp 2:20 04. The Crystals - There's No Other (Like My Baby) 2:30 05. The Fiestas - Dollar Bill 2:48 06. The Chaperones - Cruise to the Moon 2:14 07. Sevilles - Charlena 2:48 08. The Jesters - Sally Green 2:13 09. The Five Royals - I'm with You 4:24 10. The Blue Notes - My Hero 2:41 11. Roy Orbison - I Like Love 2:32 12. The Coasters - Searchin' 2: ...

29
окт
2015

VA - Akella Presents: Rock'n'Roll Vol 6 (2CD) [2013, Rock'n'Roll, FLAC]

Формат: FLAC, (image + .cue), lossless
Год выпуска: 2013
Страна: All World
Жанр: Rock'n'Roll
Продолжительность: 02:39:29
Описание: CD 1 0101. Willie And The Poor Boys - You Never Can Tell 02. Es Feiv - Brand New Cadillac 03. Willie And The Poor Boys - Let's Talk It Over 04. El Rio Trio - I'm Burning 05. Johnny Power - You Win Again 06. Tupelo Highshots - Maybe Little Baby 07. Vince Ray - Looking For Johnny 08. Ray Charles & Stray Cats - Hit the Road Jack 09. The Runnaway Boys - Rock Around with Ollie Vee 10. Rockin' Louie - Troubles Troubles 11. Mungo Jerry - In the Summertime 12. Jan Gillan & ...

20
апр
2016

VA - Rock 'n' Roll Jukebox Hits: 100 Originals from the 50s [2016, Rock, rock-n-roll, Oldies, MP3]

Формат: MP3, tracks, 320kbps
Год выпуска: 2016
Страна: All World
Жанр: Rock, rock-n-roll, Oldies
Продолжительность: 04:04:59
Описание: Треклист 1. The Sensations - Let Me In (3:03) 2. The Sheppards - Glitter in Your Eyes (2:45) 3. The Dovells - Bristol Stomp (2:20) 4. The Crystals - There's No Other (Like My Baby) (2:30) 5. The Fiestas - Dollar Bill (2:48) 6. The Chaperones - Cruise to the Moon (2:14) 7. Sevilles - Charlena (2:48) 8. The Jesters - Sally Green (2:13) 9. The Five Royals - I'm with You (4:24) 10. The Blue Notes - My Hero (2:41) 11. Roy Orbison - I Like Love (2:32) 12. The Coaster ...

13
авг
2014

VA - This Magnificent Rock'n'Roll [2014, Rock, Rock'n'Roll, MP3]

Формат: MP3, tracks, 192-320kbps [VBR]
Год выпуска: 2014
Страна: All World
Жанр: Rock, Rock'n'Roll
Продолжительность: 05:46:44
Описание: Треклист001. Rolling Stones - Sad Sad Sad 002. Doors - You Make Me Real 003. Slade - Lets Call It Quits 004. Rockets - I Got To Move 005. Kiss - Rock And Roll All Nite 006. Rod Stewart - Sweet Little Rock n Roller 007. Geordie - Going To The City 008. Hurriganes - Oh Baby Doll 009. Electric Light Orchestra - Easy Money 010. Suzi Quatro - Keep A Knockin 011. Status Quo - Backwater 012. Guns N Roses - Anything Goes 013. Boppers - Dancing To Rock N Roll Music 01 ...

07
авг
2017

VA - Rock 'N' Roll America [2016, Rock 'n' Roll, Rock, FLAC]

Формат: FLAC, (image + .cue), lossless
Год выпуска: 2016
Страна: USA
Жанр: Rock 'n' Roll, Rock
Продолжительность: 03:04:36
Описание: CD 1 00 01. Rock Around The Clock - Bill Haley & His Comets 02. Roll Over Beethoven - Chuck Berry 03. At The Hop - Danny & The Juniors 04. Be-Bop-A-Lula - Gene Vincent 05. Great Balls Of Fire - Jerry Lee Lewis 06. Stagger Lee - Lloyd Price 07. La Bamba - Ritchie Valens 08. Shout - The Isley Brothers 09. Money (That's What I Want) - Barrett Strong 10. Singing The Blues - Guy Mitchell 11. Tequila - The Champs 12. Sh-Boom - The Chords 13. Stay - Maurice Williams & T ...

19
мар
2017

VA - Hit Parade XX Century - Rock'n'roll and Blues (2CD) [2002, Rock, Rock'n'roll, Blues, MP3]

Формат: MP3, tracks, 320kbps
Год выпуска: 2002
Страна: All World
Жанр: Rock, Rock'n'roll, Blues
Продолжительность: 02:31:04
Описание: CD 1 - Hit Parade. Rock'N'Roll and Blues - 01 01. Chubby Checkers - Let's Twist Again 02. Elvis Presley - His Flame 03. Chuk Berry - You Never Can Tell 04. Roy Orbison - Blue Angel 05. Jerry Lee Lewis - Great Balls of Fire 06. Bill Haley - Rock Around The Clock 07. Little Richard - Tutti Frutti 08. Eddie Cochran - Summertime Blues 09. Elvis Presley - Blue Svede Shoes 10. The Swinging Blue Jeans - Hippy Shake 11. Pat Bone - Speedy Gonzales 12. Danny & The Junior ...