05
июл
2018

Rose Tattoo - Nice Boys Don't Play Rock'n'Roll [1992, Rock, Hard Rock, FLAC]

Rose Tattoo - Nice Boys Don't Play Rock'n'Roll
Формат: FLAC, (tracks + .cue), lossless
Год выпуска: 1992
Страна: Australia
Жанр: Rock, Hard Rock
Продолжительность: 01:02:50
Описание:

01. Scarred For Life
02. Nice Boys
03. Bad Boy For Love
04. Rock'n'Roll Outlaw
05. Stuck On You
06. One Of The Boys
07. Astra Wally
08. Snow Queen
09. Assault & Battery
10. I Had You First
11. The Butcher And Fast Eddy
12. Rock'n'Roll Is King
13. Branded
14. Never Too Loud
15. We Can't Be Beaten
16. All Hell Broke Loose


Доп. информация:
https://en.wikipedia.org/wiki/Rose_Tattoo
eac
Exact Audio Copy V1.3 from 2. September 2016

EAC extraction logfile from 21. June 2018, 15:54

Rose Tattoo / Nice Boys Don't Play Rock'n'roll

Used drive : ATAPI iHAS124 F Adapter: 1 ID: 0

Read mode : Secure
Utilize accurate stream : Yes
Defeat audio cache : Yes
Make use of C2 pointers : No

Read offset correction : 6
Overread into Lead-In and Lead-Out : No
Fill up missing offset samples with silence : Yes
Delete leading and trailing silent blocks : No
Null samples used in CRC calculations : Yes
Used interface : Native Win32 interface for Win NT & 2000
Gap handling : Appended to previous track

Used output format : User Defined Encoder
Selected bitrate : 1024 kBit/s
Quality : High
Add ID3 tag : No
Command line compressor : C:Program Files (x86)Exact Audio CopyFlacflac.exe
Additional command line options : -8 -V -T "ARTIST=%artist%" -T "TITLE=%title%" -T "ALBUM=%albumtitle%" -T "DATE=%year%" -T "TRACKNUMBER=%tracknr%" -T "TOTALTRACKS=%numtracks%" -T "GENRE=%genre%" -T "ALBUMARTIST=%albumartist%" -T "ALBUM ARTIST=%albumartist%" -T "COMMENT=EAC Secure Mode, Test & Copy, AccurateRip, FLAC -8" %source%

TOC of the extracted CD

Track | Start | Length | Start sector | End sector
---------------------------------------------------------
1 | 0:00.00 | 3:47.37 | 0 | 17061
2 | 3:47.37 | 2:50.67 | 17062 | 29878
3 | 6:38.29 | 3:05.08 | 29879 | 43761
4 | 9:43.37 | 3:19.55 | 43762 | 58741
5 | 13:03.17 | 3:54.67 | 58742 | 76358
6 | 16:58.09 | 3:10.06 | 76359 | 90614
7 | 20:08.15 | 5:58.17 | 90615 | 117481
8 | 26:06.32 | 4:22.18 | 117482 | 137149
9 | 30:28.50 | 3:31.35 | 137150 | 153009
10 | 34:00.10 | 2:33.52 | 153010 | 164536
11 | 36:33.62 | 6:30.57 | 164537 | 193843
12 | 43:04.44 | 3:24.18 | 193844 | 209161
13 | 46:28.62 | 6:30.49 | 209162 | 238460
14 | 52:59.36 | 3:44.17 | 238461 | 255277
15 | 56:43.53 | 3:05.08 | 255278 | 269160
16 | 59:48.61 | 3:01.45 | 269161 | 282780

Track 1

Filename C:Usersbiafr_000MusicRose Tattoo - Nice Boys Don't Play Rock'n'Roll (1992) [FLAC]1 - Scarred For Life.wav

Pre-gap length 0:00:02.00

Peak level 100.0 %
Extraction speed 5.5 X
Track quality 100.0 %
Test CRC E1015863
Copy CRC E1015863
Accurately ripped (confidence 2) [793BD9CA] (AR v2)
Copy OK

Track 2

Filename C:Usersbiafr_000MusicRose Tattoo - Nice Boys Don't Play Rock'n'Roll (1992) [FLAC]2 - Nice Boys.wav

Peak level 100.0 %
Extraction speed 5.9 X
Track quality 100.0 %
Test CRC D8E94546
Copy CRC D8E94546
Accurately ripped (confidence 2) [82955CA8] (AR v2)
Copy OK

Track 3

Filename C:Usersbiafr_000MusicRose Tattoo - Nice Boys Don't Play Rock'n'Roll (1992) [FLAC]3 - Bad Boy For Love.wav

Peak level 100.0 %
Extraction speed 6.3 X
Track quality 100.0 %
Test CRC 396A0F0B
Copy CRC 396A0F0B
Accurately ripped (confidence 2) [EAB8DFA3] (AR v2)
Copy OK

Track 4

Filename C:Usersbiafr_000MusicRose Tattoo - Nice Boys Don't Play Rock'n'Roll (1992) [FLAC]4 - Rock'n'Roll Outlaw.wav

Peak level 100.0 %
Extraction speed 6.2 X
Track quality 100.0 %
Test CRC 26420884
Copy CRC 26420884
Accurately ripped (confidence 2) [D2026228] (AR v2)
Copy OK

Track 5

Filename C:Usersbiafr_000MusicRose Tattoo - Nice Boys Don't Play Rock'n'Roll (1992) [FLAC]5 - Stuck On You.wav

Peak level 100.0 %
Extraction speed 7.2 X
Track quality 100.0 %
Test CRC 924A79C9
Copy CRC 924A79C9
Accurately ripped (confidence 2) [3BB0908A] (AR v2)
Copy OK

Track 6

Filename C:Usersbiafr_000MusicRose Tattoo - Nice Boys Don't Play Rock'n'Roll (1992) [FLAC]6 - One Of The Boys.wav

Peak level 100.0 %
Extraction speed 7.3 X
Track quality 100.0 %
Test CRC 1991B747
Copy CRC 1991B747
Accurately ripped (confidence 2) [7A0CB014] (AR v2)
Copy OK

Track 7

Filename C:Usersbiafr_000MusicRose Tattoo - Nice Boys Don't Play Rock'n'Roll (1992) [FLAC]7 - Astra Wally.wav

Peak level 100.0 %
Extraction speed 7.3 X
Track quality 99.9 %
Test CRC FBD537DF
Copy CRC FBD537DF
Accurately ripped (confidence 2) [2AF55EE9] (AR v2)
Copy OK

Track 8

Filename C:Usersbiafr_000MusicRose Tattoo - Nice Boys Don't Play Rock'n'Roll (1992) [FLAC]8 - Snow Queen.wav

Peak level 100.0 %
Extraction speed 7.1 X
Track quality 99.9 %
Test CRC 713B57C4
Copy CRC 713B57C4
Accurately ripped (confidence 2) (AR v1)
Copy OK

Track 9

Filename C:Usersbiafr_000MusicRose Tattoo - Nice Boys Don't Play Rock'n'Roll (1992) [FLAC]9 - Assault & Battery.wav

Peak level 100.0 %
Extraction speed 7.3 X
Track quality 99.9 %
Test CRC BC83B616
Copy CRC BC83B616
Accurately ripped (confidence 2) [8D64DBF0] (AR v1)
Copy OK

Track 10

Filename C:Usersbiafr_000MusicRose Tattoo - Nice Boys Don't Play Rock'n'Roll (1992) [FLAC]10 - I Had You First.wav

Peak level 100.0 %
Extraction speed 6.3 X
Track quality 99.9 %
Test CRC B679713E
Copy CRC B679713E
Accurately ripped (confidence 2) [D0C63E8A] (AR v2)
Copy OK

Track 11

Filename C:Usersbiafr_000MusicRose Tattoo - Nice Boys Don't Play Rock'n'Roll (1992) [FLAC]11 - The Butcher And Fast Eddy.wav

Peak level 100.0 %
Extraction speed 8.8 X
Track quality 99.9 %
Test CRC BE730807
Copy CRC BE730807
Accurately ripped (confidence 2) [C1DB7B4D] (AR v2)
Copy OK

Track 12

Filename C:Usersbiafr_000MusicRose Tattoo - Nice Boys Don't Play Rock'n'Roll (1992) [FLAC]12 - Rock'n'Roll Is King.wav

Peak level 100.0 %
Extraction speed 9.5 X
Track quality 100.0 %
Test CRC 4D91AD81
Copy CRC 4D91AD81
Accurately ripped (confidence 2) [3BFD2C70] (AR v2)
Copy OK

Track 13

Filename C:Usersbiafr_000MusicRose Tattoo - Nice Boys Don't Play Rock'n'Roll (1992) [FLAC]13 - Branded.wav

Peak level 100.0 %
Extraction speed 10.5 X
Track quality 100.0 %
Test CRC BB0182C8
Copy CRC BB0182C8
Accurately ripped (confidence 2) [75ED5066] (AR v2)
Copy OK

Track 14

Filename C:Usersbiafr_000MusicRose Tattoo - Nice Boys Don't Play Rock'n'Roll (1992) [FLAC]14 - Never Too Loud.wav

Peak level 100.0 %
Extraction speed 10.3 X
Track quality 100.0 %
Test CRC 78F8ECC6
Copy CRC 78F8ECC6
Accurately ripped (confidence 2) [000E97BF] (AR v2)
Copy OK

Track 15

Filename C:Usersbiafr_000MusicRose Tattoo - Nice Boys Don't Play Rock'n'Roll (1992) [FLAC]15 - We Can't Be Beaten.wav

Peak level 89.1 %
Extraction speed 10.1 X
Track quality 100.0 %
Test CRC A98DB4AC
Copy CRC A98DB4AC
Accurately ripped (confidence 2) [EBFE2BDC] (AR v2)
Copy OK

Track 16

Filename C:Usersbiafr_000MusicRose Tattoo - Nice Boys Don't Play Rock'n'Roll (1992) [FLAC]16 - All Hell Broke Loose.wav

Peak level 100.0 %
Extraction speed 8.0 X
Track quality 99.9 %
Test CRC 65E34D74
Copy CRC 65E34D74
Accurately ripped (confidence 2) [26AB7BC4] (AR v2)
Copy OK

All tracks accurately ripped

No errors occurred

End of status report

---- CUETools DB Plugin V2.1.6

[CTDB TOCID: o_QUu5xzQcOOtKEM4fXEZCShkWI-] found
Submit result: o_QUu5xzQcOOtKEM4fXEZCShkWI- has been confirmed
Track | CTDB Status
1 | (5/5) Accurately ripped
2 | (5/5) Accurately ripped
3 | (5/5) Accurately ripped
4 | (5/5) Accurately ripped
5 | (4/5) Accurately ripped
6 | (5/5) Accurately ripped
7 | (5/5) Accurately ripped
8 | (5/5) Accurately ripped
9 | (5/5) Accurately ripped
10 | (5/5) Accurately ripped
11 | (5/5) Accurately ripped
12 | (5/5) Accurately ripped
13 | (5/5) Accurately ripped
14 | (5/5) Accurately ripped
15 | (5/5) Accurately ripped
16 | (5/5) Accurately ripped

==== Log checksum E2BEDB582341D126AE8510ED78A34607698F115D5E696430CACEC2782527726F ====
Музыка / Lossless / Разное
СКАЧАТЬ БЕСПЛАТНО  [460.6 MB]


06
окт
2017

Backstreet Girls - Don't Mess With My Rock'n'Roll [2017, Rock, Rock Roll, Hard Rock, FLAC]

Формат: FLAC, tracks, lossless
Год выпуска: 2017
Страна: Norway
Жанр: Rock, Rock & Roll, Hard Rock
Продолжительность: 00:39:59
Описание: 01. Wild Women & Bad Bad Boys 02. Rollin' With The Stones 03. Don't Mess With My Rock'n'roll 04. Jaguars 05. Hound Dog Taylor Made 06. Down To Kill 07. Radio 08. Back Again 09. Psycho 10. Soul Shaker
Доп. информация: СоставBass, Backing Vocals – Dan Thunderbird Drums – Martin Hansson Guitar, Backing Vocals, Piano – Petter Baarli Lead Vocals – Bjørn Müller http://www.backstreetgirls.net/ Log ----------------------- DON'T MODIFY THIS FILE ------ ...

26
окт
2017

Backstreet Girls - Don't Mess With My Rock'N'Roll [2017, Hard Rock, Rock'n'Roll, MP3]

Формат: MP3, tracks, 320kbps
Год выпуска: 2017
Страна: Finland
Жанр: Hard Rock, Rock'n'Roll
Продолжительность: 00:40:03
Описание: 1. Wild Women & Bad Bad Boys 2. Rollin' With The Stones 3. Don't Mess With My Rock 'n' Roll 4. Jaguars 5. Hound Dog Taylor Made 6. Down To Kill 7. Radio 8. Back Again 9. Psycho 10. Soul Shaker
Доп. информация: Об издании Источник Lossless (WEB)

31
мая
2017

Aaron Hellvis - Ballsqueezin' Boozesniffin' Motherfuckin' Rock 'N' Roll [2017, Hard-N-Roll, MP3]

Формат: MP3, tracks, 320kbps
Год выпуска: 2017
Страна: Germany
Жанр: Hard-N-Roll
Продолжительность: 00:49:33
Описание: 01. King Dynamite 02. Motor 03. Dead or Alive 04. Into the Wall 05. Chicago Typewriter 06. Walk, Baby, Walk 07. We are Motorteds 08. Riches 09. Rebel 10. Sir Lucky John Booze 11. Bad Franky’s Hell Cab 12. Roadhouse Bloody Blue

01
фев
2016

VA - Shakin' All Over: The Best Of British Rock 'N' Roll (2CD) [2012, Rock 'N' Roll, Pop, Easy Listening, FLAC]

Формат: FLAC, (image + .cue), lossless
Год выпуска: 2012
Страна: All World
Жанр: Rock 'N' Roll, Pop, Easy Listening
Продолжительность: 01:28:51
Описание: CD 1 0001. Adam Faith - What Do You Want 02. Cliff Richard & The Drifters - Move It 03. Johnny Kidd And The Pirates - Shakin' All Over 04. Billy Fury - Colette 05. Alma Cogan - Dreamboat 06. Marty Wilde - A Teenager In Love 07. Tommy Steele - Singin’ The Blues 08. Dickie Pride - Primrose Lane 09. Frankie Vaughan - Garden Of Eden 10. The Stargazers - She Loves To Rock 11. Lonnie Donegan - Cumberland Gap 12. Cliff Richard & The Shadows - Travel ...

17
июл
2018

The Bus Boys - Minimum Wage Rock 'N Roll [1980, Funk, Soul, Disco, FLAC]

Формат: FLAC, (tracks + .cue), lossless
Год выпуска: 1980
Страна: USA
Жанр: Funk, Soul, Disco
Продолжительность: 00:37:05
Описание: 01. Dr. Doctor - 3:46 02. Minimum Wage - 3:24 03. Did You See Me? - 3:30 04. There Goes The Neighborhood - 3:11 05. Johnny Soul'd Out - 2:42 06. KKK - 1:41 07. Anggie - 3:57 08. D-Day - 4:18 09. Tell The Coach - 2:45 10. We Stand United - 3:13 11. Respect - 3:20
Доп. информация: https://en.wikipedia.org/wiki/The_BusBoys eac Exact Audio Copy V1.0 beta 3 from 29. August 2011 EAC extraction logfile from 2. November 2013, 14:32 Bus Boys, The / Minimum Wage Rock & ...

30
сен
2016

Manu Lanvin - Blues, Booze Rock'n'Roll [2016, Blues Rock, MP3]

Формат: MP3, tracks, 320kbps
Год выпуска: 2016
Страна: France (Paris)
Жанр: Blues Rock
Продолжительность: 00:41:55
Описание: 01. Six Blind White Horses 04:59 02. Blues, Booze & Rock'n'Roll 03:37 03. Soul Revolution 02:50 04. I Was Born 03:33 05. R U There? 03:18 06. She's Da Bomb 03:22 07. Whippin' Boy 05:06 08. JJ Cale On The Radio 03:07 09. When I'm Down 03:04 10. Papa's Got A Reefer 02:36 11. Raise Your Hands For Peace 03:05 12. Under The Waves 03:12
Доп. информация: Released 30 September 2016.

18
фев
2016

Stray Cats - Sex, Drugs and Rock'n'Roll (The Best Hits) [2003, Rockabilly, Rock'n'Roll, MP3]

Формат: MP3, tracks, 320kbps
Год выпуска: 2003
Страна: USA
Жанр: Rockabilly, Rock'n'Roll
Продолжительность: 01:16:53
Описание: 01. Stary Cat Strut 02. Rumble In Brighton 03. Ubangi Stomp 04. Jade Idol 05. How Long You Wanna Live, Anyway 06. Baby Blues Eyes 07. (She's) Sexy And 17 08. Fishnet Stockings 09. Rock This Town 10. Sleepwalk 11. Little Miss Prissy 12. My One Desire 13. Too Hip Gotta Go 14. Rebels Rule 15. Something's Wrong With My Radio 16. Beautiful Blues 17. Built For Speed 18. 18 Miles To Memphis 19. Gonna Ball 20. Storm The Embassy 21. Double Talkin' Baby 22. You Don't Believe Me ...

28
окт
2014

The Mentors - Sex Drugs And Rock 'n' Roll [1989, Heavy Metal, Thrash Metal, MP3]

Формат: MP3, tracks, 320kbps
Год выпуска: 1989
Страна: USA
Жанр: Heavy Metal, Thrash Metal
Продолжительность: 00:50:51
Описание: 01. Northwest Breeder 3:09 02. Big Baby Boy 1:59 03. Oblivion Train 1:59 04. I Wanna Spank You 2:03 05. List Of Trinity 3:12 06. Macho Package 3:13 07. Every Human's Gotta Have Sex 2:46 08. Can't Get It Up 1:50 09. Golden Shower 2:53 10. Peepin' Tom 3:01 11. Woman From Sodom 5:08 12. Police Hotel 4:41 13. Going Through Your Purse 4:27 14. Rock Stars On The Road 6:33 15. Get Up And Die 3:51
Доп. информация: http://www.discogs.com/artist/305860-Mentors

22
дек
2014

Sponge Of Ben - Rock'n'Roll At Cinema (Official Bootleg) [2014, Hard Rock, MP3]

Формат: MP3, tracks, 320kbps
Год выпуска: 2014
Страна: Россия
Жанр: Hard Rock
Продолжительность: 00:31:20
Описание: 01. We'll Be Higher 02. Beast Of A Beauty 03. Hair Of The Dog (Nazareth Cover) 04. Leave Me Alone 05. To Kill You 06. T.N.T. (ACDC Cover) 07. Fool Of Fools 08. Highway To Hell (ACDC Cover)

04
сен
2013

Big Engine - Rock 'n' Roll Machine [2007, Hard Rock, MP3]

Формат: MP3, tracks, 320kbps
Год выпуска: 2007
Страна: CША
Жанр: Hard Rock
Продолжительность: 00:46:39
Описание: 01. I'm Ready - Let's Go 02. Party Like a Rock Star 03. Be Your Man 04. Juggernaut (Built For Speed) 05. Not Your Fool 06. Rock N Roll Machine 07. I Hate Love 08. Sister Mary 09. Bury the Hatchet 10. Just Another Night 11. Ride It Like You Stole It 12. Come Home
Доп. информация: Третий альбом американской хардовой команды "Big Engine".

09
фев
2017

Electric Guitars - Rock'n'Roll Radio [2017, Hard Rock, MP3]

Формат: MP3, tracks, 320kbps
Год выпуска: 2017
Страна: Denmark
Жанр: Hard Rock
Продолжительность: 00:47:06
Описание: 01. Rock N Roll Radio 02. False Flag Operation 03. Headless Chicken 04. Swagman 05. Splinter 06. Bambi On Ice 07. Lucy Glow 08. Homewrecking Woman 09. Stay Under The Radar 10. Back To You

06
ноя
2015

Overfuzz - Bastard Sons Of Rock 'n' Roll [2015, Hard Rock, MP3]

Формат: MP3, tracks, 320kbps
Год выпуска: 2015
Страна: Brazil
Жанр: Hard Rock
Продолжительность: 00:47:59
Описание: 01. Bastard Sons Of Rock 'n' Roll 02. Turning Your Beauty Into A Sickness 03. Purple Skin 04. Best Mistake 05. Seeking Blood 06. A Fuzz In A Breeze 07. No Bliss 08. You Die Tonight 09. Demon Eyes 10. Brizola 11. Evil Desires 12. Possum

05
июн
2014

Go! Go! Gorillo - King Kongs Of Rock'n'Roll [2014, Rock, MP3]

Формат: MP3, tracks, 320kbps
Год выпуска: 2014
Страна: Austria
Жанр: Rock
Продолжительность: 00:35:33
Описание: 01. Barely Innocent 02. Don't Concentrate On The Tiger 03. My Home Is My Hell 04. Boys Like Booze 05. King Kong Loves The Blonde One 06. I Like Destruction 07. Howlin' At Midnight 08. Kickstart Your Aggression 09. Bombaventura Social Club 10. Wet Nightmare

29
июн
2014

Burning Maja - Rock'n'Roll City [2014, Hard Rock, MP3]

Формат: MP3, tracks, 320kbps
Год выпуска: 2014
Страна: Germany
Жанр: Hard Rock
Продолжительность: 00:35:24
Описание: 01. Lonesome Rider 02. Motorcycle Blues 03. Mouth Of Madness 04. She's A Lady 05. Case Full Of Weapons 06. Raise Your Fist 07. Lady From Hell 08. Rock'n'Roll City 09. Sad Life Hurts

21
июн
2013

42 Decibel - Hard Rock 'N' Roll [2013, Hard Rock, MP3]

Формат: MP3, tracks, 320kbps
Год выпуска: 2013
Страна: Argentina
Жанр: Hard Rock
Продолжительность: 00:59:43
Описание: 01. Scotch Drinker 02. Smokin' Fire 03. Long Legged Woman 04. The Real Deal 05. Take Me 06. I`m Gonna Give You All 07. Drinkin' Margaritas 08. Addicted To Rage 09. Born To Ride Alone 10 .Rocker Soul 11. Drunk Love (Bonus Track) 12. Gimme A Drink (Bonus Track)
Доп. информация: Релиз представлен группой