18
янв
2016

VA - Golden Jazz Box (6CD Bax Set Deluxe Limited Edition) [2015, Jazz, FLAC]

VA - Golden Jazz Box (6CD Bax Set Deluxe Limited Edition)
Формат: FLAC, (image + .cue), lossless
Год выпуска: 2015
Страна: USA
Жанр: Jazz
Продолжительность: 06:31:35
Описание:
CD 1 Miles Davis - Elegance And Beauty 01
VA - Golden Jazz Box
01. So What
02. The Man I Love
03. A Night In Tunisia
04. Nature Boy (feat.Charles Mingus)
05. My Funny Valentine
06. Bye, Bye Blackbird
07. Dear Old Stockholm
08. Dancing In The Dark (feat.Cannonball Adderley)
09. Milestones
10. Straight, No Chaser
11. Summertime

eac
Exact Audio Copy V1.1 from 23. June 2015

EAC extraction logfile from 16. January 2016, 10:07

Miles Davis / Elegance and Beauty

Used drive : ATAPI iHAS122 C Adapter: 1 ID: 0

Read mode : Secure
Utilize accurate stream : Yes
Defeat audio cache : Yes
Make use of C2 pointers : No

Read offset correction : 6
Overread into Lead-In and Lead-Out : No
Fill up missing offset samples with silence : Yes
Delete leading and trailing silent blocks : No
Null samples used in CRC calculations : Yes
Used interface : Native Win32 interface for Win NT & 2000

Used output format : Internal WAV Routines
Sample format : 44.100 Hz; 16 Bit; Stereo

TOC of the extracted CD

Track | Start | Length | Start sector | End sector
---------------------------------------------------------
1 | 0:00.00 | 10:49.18 | 0 | 48692
2 | 10:49.18 | 8:06.28 | 48693 | 85170
3 | 18:55.46 | 7:18.37 | 85171 | 118057
4 | 26:14.08 | 6:16.00 | 118058 | 146257
5 | 32:30.08 | 6:02.00 | 146258 | 173407
6 | 38:32.08 | 7:55.00 | 173408 | 209032
7 | 46:27.08 | 7:49.37 | 209033 | 244244
8 | 54:16.45 | 4:05.46 | 244245 | 262665
9 | 58:22.16 | 5:43.09 | 262666 | 288399
10 | 64:05.25 | 8:46.09 | 288400 | 327858
11 | 72:51.34 | 3:23.37 | 327859 | 343120

Range status and errors

Selected range

Filename C:UsersarthuDesktopJAZZMiles Davis - Elegance and Beauty.wav

Peak level 100.0 %
Extraction speed 9.6 X
Range quality 99.9 %
Test CRC CEEFE736
Copy CRC CEEFE736
Copy OK

No errors occurred

AccurateRip summary

Track 1 not present in database
Track 2 not present in database
Track 3 not present in database
Track 4 not present in database
Track 5 not present in database
Track 6 not present in database
Track 7 not present in database
Track 8 not present in database
Track 9 not present in database
Track 10 not present in database
Track 11 not present in database

None of the tracks are present in the AccurateRip database

End of status report

---- CUETools DB Plugin V2.1.6

[CTDB TOCID: wV_aBaiUFtb8dcIYavOXkQ85G9U-] found
Submit result: already submitted
Track | CTDB Status
1 | (1/1) Accurately ripped
2 | (1/1) Accurately ripped
3 | (1/1) Accurately ripped
4 | (1/1) Accurately ripped
5 | (1/1) Accurately ripped
6 | (1/1) Accurately ripped
7 | (1/1) Accurately ripped
8 | (1/1) Accurately ripped
9 | (1/1) Accurately ripped
10 | (1/1) Accurately ripped
11 | (1/1) Accurately ripped

==== Log checksum 58C5CCD4B9732CE4313777AB85EF2AAD52BFA42487ACFCD23045437E4EDE3D19 ====
CD 2 John Coltrane - Excursions In My Mind 01
VA - Golden Jazz Box 01. Blue Train
02. Stella By Stardust (feat.Miles Davis)
03. I Want To Talk About You (feat. Red Garland Trio)
04. Theme For Ernie (feat.Red Garland Trio)
05. Bye Bye Blackbird (feat. Miles Davis)
06. Stardust
07. Blue In Green (feat. Miles Davis)
08. Harmonique
09. Like Sonny
10. Traneing In

eac
Exact Audio Copy V1.1 from 23. June 2015

EAC extraction logfile from 15. January 2016, 15:14

John Coltrane / Excursions In My Mind

Used drive : ATAPI iHAS122 C Adapter: 1 ID: 0

Read mode : Secure
Utilize accurate stream : Yes
Defeat audio cache : Yes
Make use of C2 pointers : No

Read offset correction : 6
Overread into Lead-In and Lead-Out : No
Fill up missing offset samples with silence : Yes
Delete leading and trailing silent blocks : No
Null samples used in CRC calculations : Yes
Used interface : Native Win32 interface for Win NT & 2000

Used output format : Internal WAV Routines
Sample format : 44.100 Hz; 16 Bit; Stereo

TOC of the extracted CD

Track | Start | Length | Start sector | End sector
---------------------------------------------------------
1 | 0:00.00 | 8:59.56 | 0 | 40480
2 | 8:59.56 | 4:44.37 | 40481 | 61817
3 | 13:44.18 | 10:53.28 | 61818 | 110820
4 | 24:37.46 | 4:54.00 | 110821 | 132870
5 | 29:31.46 | 9:11.65 | 132871 | 174260
6 | 38:43.36 | 10:42.09 | 174261 | 222419
7 | 49:25.45 | 5:34.18 | 222420 | 247487
8 | 54:59.63 | 4:10.37 | 247488 | 266274
9 | 59:10.25 | 5:51.65 | 266275 | 292664
10 | 65:02.15 | 11:37.37 | 292665 | 344976

Range status and errors

Selected range

Filename C:UsersarthuDesktopJAZZJohn Coltrane - Excursions In My Mind.wav

Peak level 100.0 %
Extraction speed 9.6 X
Range quality 100.0 %
Test CRC 2956DE81
Copy CRC 2956DE81
Copy OK

No errors occurred

AccurateRip summary

Track 1 not present in database
Track 2 not present in database
Track 3 not present in database
Track 4 not present in database
Track 5 not present in database
Track 6 not present in database
Track 7 not present in database
Track 8 not present in database
Track 9 not present in database
Track 10 not present in database

None of the tracks are present in the AccurateRip database

End of status report

---- CUETools DB Plugin V2.1.6

[CTDB TOCID: 2E.DBnpTqCy45ZfqiavcCe8Ak0k-] disk not present in database
Submit result: 2E.DBnpTqCy45ZfqiavcCe8Ak0k- has been uploaded

==== Log checksum 3A2087E6A1010F6D94173925B03742DDEFFFE9414A56193A97E9CF299D0FD6E8 ====
CD 3 Chet Baker - Alone In Winter 00
VA - Golden Jazz Box
01. My Funny Valentine
02. Moonlight Becomes You
03. I'm So Glad There Is You
04. Ponder
05. It's Always You
06. Like Someone In Love
07. But Not For Me
08. The Thrill Is Gone
09. I Fall In Love Easily
10. The Route
11. Embraceable You
12. While My Lady Sleeps
13. Trav'lin' Light
14. Minor Yours (feat.Art Pepper)

eac
Exact Audio Copy V1.1 from 23. June 2015

EAC extraction logfile from 16. January 2016, 9:47

Chet Baker / Alone In Winter

Used drive : ATAPI iHAS122 C Adapter: 1 ID: 0

Read mode : Secure
Utilize accurate stream : Yes
Defeat audio cache : Yes
Make use of C2 pointers : No

Read offset correction : 6
Overread into Lead-In and Lead-Out : No
Fill up missing offset samples with silence : Yes
Delete leading and trailing silent blocks : No
Null samples used in CRC calculations : Yes
Used interface : Native Win32 interface for Win NT & 2000

Used output format : Internal WAV Routines
Sample format : 44.100 Hz; 16 Bit; Stereo

TOC of the extracted CD

Track | Start | Length | Start sector | End sector
---------------------------------------------------------
1 | 0:00.00 | 2:17.37 | 0 | 10311
2 | 2:17.37 | 3:25.46 | 10312 | 25732
3 | 5:43.08 | 3:11.37 | 25733 | 40094
4 | 8:54.45 | 4:25.16 | 40095 | 59985
5 | 13:19.61 | 3:33.46 | 59986 | 76006
6 | 16:53.32 | 2:24.56 | 76007 | 86862
7 | 19:18.13 | 3:02.65 | 86863 | 100577
8 | 22:21.03 | 2:49.00 | 100578 | 113252
9 | 25:10.03 | 3:19.18 | 113253 | 128195
10 | 28:29.21 | 5:02.37 | 128196 | 150882
11 | 33:31.58 | 2:07.56 | 150883 | 160463
12 | 35:39.39 | 2:48.56 | 160464 | 173119
13 | 38:28.20 | 3:10.18 | 173120 | 187387
14 | 41:38.38 | 6:46.18 | 187388 | 217855

Range status and errors

Selected range

Filename C:UsersarthuDesktopJAZZChet Baker - Alone In Winter.wav

Peak level 100.0 %
Extraction speed 8.0 X
Range quality 100.0 %
Test CRC 2E4A84C2
Copy CRC 2E4A84C2
Copy OK

No errors occurred

AccurateRip summary

Track 1 not present in database
Track 2 not present in database
Track 3 not present in database
Track 4 not present in database
Track 5 not present in database
Track 6 not present in database
Track 7 not present in database
Track 8 not present in database
Track 9 not present in database
Track 10 not present in database
Track 11 not present in database
Track 12 not present in database
Track 13 not present in database
Track 14 not present in database

None of the tracks are present in the AccurateRip database

End of status report

---- CUETools DB Plugin V2.1.6

[CTDB TOCID: KaPJp7O63EFKITs7qr5suQKS8hA-] disk not present in database
Submit result: KaPJp7O63EFKITs7qr5suQKS8hA- has been uploaded

==== Log checksum 6EB3AC9B8906E9C850C9711865BFDD7CD52E38BA330DC412C0FBAE36C612B1C9 ====
CD 4 Duke Ellington - The Embassador 00
VA - Golden Jazz Box 01. Take The "A" Train
02. St.Louis (feat. Bing Crosby)
03. Warm Valley (
04. Stormy Weather (feat. Ivie Anderson)
05. Sophisticated Lady
06. Mood Indigo
07. Ko-Ko
08. Blue Goose
09. Jack The Bear
10. I Got It Bad (And That Ain't Good) (feat. Ivie Anderson)
11. Flamingo
12. Chloe (Song Of The Swamp)
13. Jump For Joy
14. Caravan

eac
Exact Audio Copy V1.1 from 23. June 2015

EAC extraction logfile from 16. January 2016, 12:00

Duke Ellington / The Embassador

Used drive : ATAPI iHAS122 C Adapter: 1 ID: 0

Read mode : Secure
Utilize accurate stream : Yes
Defeat audio cache : Yes
Make use of C2 pointers : No

Read offset correction : 6
Overread into Lead-In and Lead-Out : No
Fill up missing offset samples with silence : Yes
Delete leading and trailing silent blocks : No
Null samples used in CRC calculations : Yes
Used interface : Native Win32 interface for Win NT & 2000

Used output format : Internal WAV Routines
Sample format : 44.100 Hz; 16 Bit; Stereo

TOC of the extracted CD

Track | Start | Length | Start sector | End sector
---------------------------------------------------------
1 | 0:00.00 | 2:54.65 | 0 | 13114
2 | 2:54.65 | 4:30.65 | 13115 | 33429
3 | 7:25.55 | 3:20.56 | 33430 | 48485
4 | 10:46.36 | 2:37.00 | 48486 | 60260
5 | 13:23.36 | 3:38.18 | 60261 | 76628
6 | 17:01.54 | 2:56.37 | 76629 | 89865
7 | 19:58.16 | 2:44.00 | 89866 | 102165
8 | 22:42.16 | 3:20.46 | 102166 | 117211
9 | 26:02.62 | 3:16.28 | 117212 | 131939
10 | 29:19.15 | 3:20.09 | 131940 | 146948
11 | 32:39.24 | 3:39.37 | 146949 | 163410
12 | 36:18.61 | 3:25.28 | 163411 | 178813
13 | 39:44.14 | 2:52.37 | 178814 | 191750
14 | 42:36.51 | 2:50.46 | 191751 | 204546

Range status and errors

Selected range

Filename C:UsersarthuDesktopJAZZDuke Ellington - The Embassador.wav

Peak level 100.0 %
Extraction speed 8.0 X
Range quality 100.0 %
Test CRC 01F7E723
Copy CRC 01F7E723
Copy OK

No errors occurred

AccurateRip summary

Track 1 not present in database
Track 2 not present in database
Track 3 not present in database
Track 4 not present in database
Track 5 not present in database
Track 6 not present in database
Track 7 not present in database
Track 8 not present in database
Track 9 not present in database
Track 10 not present in database
Track 11 not present in database
Track 12 not present in database
Track 13 not present in database
Track 14 not present in database

None of the tracks are present in the AccurateRip database

End of status report

---- CUETools DB Plugin V2.1.6

[CTDB TOCID: EHNDNz9NpnwMVO4OFCAq3kS_jX4-] disk not present in database
Submit result: EHNDNz9NpnwMVO4OFCAq3kS_jX4- has been uploaded

==== Log checksum 0E4F4B5E8505243D9F03A2865AB1C1D1783B959FEE11E6066430376D6082DBA4 ====
CD 5 Bill Evans - Piano Adventures 01;10
VA - Golden Jazz Box 01. Someday My Prince Will Come
02. Blue In Green
03. Young And Foolish
04. Spring Is Here
05. Waltz For Debby
06. Autumn Leaves
07. Witchcraft
08. Some Other Time
09. Peace Piece
10. When I Fall In Love
11. Tenderly
12. Come Rain Or Come Shine
13. What Is There To Say?
14. No Cover, No Minimum

eac
Exact Audio Copy V1.1 from 23. June 2015

EAC extraction logfile from 16. January 2016, 12:27

Bill Evans / Piano Adventures

Used drive : ATAPI iHAS122 C Adapter: 1 ID: 0

Read mode : Secure
Utilize accurate stream : Yes
Defeat audio cache : Yes
Make use of C2 pointers : No

Read offset correction : 6
Overread into Lead-In and Lead-Out : No
Fill up missing offset samples with silence : Yes
Delete leading and trailing silent blocks : No
Null samples used in CRC calculations : Yes
Used interface : Native Win32 interface for Win NT & 2000

Used output format : Internal WAV Routines
Sample format : 44.100 Hz; 16 Bit; Stereo

TOC of the extracted CD

Track | Start | Length | Start sector | End sector
---------------------------------------------------------
1 | 0:00.00 | 4:54.46 | 0 | 22095
2 | 4:54.46 | 5:23.56 | 22096 | 46376
3 | 10:18.27 | 5:52.56 | 46377 | 72832
4 | 16:11.08 | 5:06.28 | 72833 | 95810
5 | 21:17.36 | 1:19.09 | 95811 | 101744
6 | 22:36.45 | 5:24.09 | 101745 | 126053
7 | 28:00.54 | 4:34.28 | 126054 | 146631
8 | 32:35.07 | 6:10.28 | 146632 | 174409
9 | 38:45.35 | 6:42.00 | 174410 | 204559
10 | 45:27.35 | 4:55.18 | 204560 | 226702
11 | 50:22.53 | 3:33.09 | 226703 | 242686
12 | 53:55.62 | 3:19.09 | 242687 | 257620
13 | 57:14.71 | 4:54.00 | 257621 | 279670
14 | 62:08.71 | 8:16.46 | 279671 | 316916

Range status and errors

Selected range

Filename C:UsersarthuDesktopJAZZBill Evans - Piano Adventures.wav

Peak level 100.0 %
Extraction speed 9.6 X
Range quality 100.0 %
Test CRC 0C15BC57
Copy CRC 0C15BC57
Copy OK

No errors occurred

AccurateRip summary

Track 1 not present in database
Track 2 not present in database
Track 3 not present in database
Track 4 not present in database
Track 5 not present in database
Track 6 not present in database
Track 7 not present in database
Track 8 not present in database
Track 9 not present in database
Track 10 not present in database
Track 11 not present in database
Track 12 not present in database
Track 13 not present in database
Track 14 not present in database

None of the tracks are present in the AccurateRip database

End of status report

---- CUETools DB Plugin V2.1.6

[CTDB TOCID: voaxWvrBTaoaeph2wqHDvW2ItW4-] disk not present in database
Submit result: voaxWvrBTaoaeph2wqHDvW2ItW4- has been uploaded

==== Log checksum 2953F2D94DF88379F1F80B942C688C9D1B444BC6D370312AE8AFD3D46B800237 ====
CD 6 Dave Brubeck - West Coast Treasure 01
VA - Golden Jazz Box 01. Take Five
02. Audrey
03. Georgia On My Mind
04. You Go To My Head
05. Plain Song
06. The Duke
07. I'm Old Fashioned
08. When You Wish Upon A Star
09. Brandenburg Gate
10. In Search Of A Theme
11. The Lonesome Road
12. Kathy`s Waltz
13. Brother, Can You Spare A Dime
14. Blue Rondo A La Turk

eac
Exact Audio Copy V1.1 from 23. June 2015

EAC extraction logfile from 16. January 2016, 12:46

Dave Brubeck / West Coast Treasure

Used drive : ATAPI iHAS122 C Adapter: 1 ID: 0

Read mode : Secure
Utilize accurate stream : Yes
Defeat audio cache : Yes
Make use of C2 pointers : No

Read offset correction : 6
Overread into Lead-In and Lead-Out : No
Fill up missing offset samples with silence : Yes
Delete leading and trailing silent blocks : No
Null samples used in CRC calculations : Yes
Used interface : Native Win32 interface for Win NT & 2000

Used output format : Internal WAV Routines
Sample format : 44.100 Hz; 16 Bit; Stereo

TOC of the extracted CD

Track | Start | Length | Start sector | End sector
---------------------------------------------------------
1 | 0:00.00 | 5:23.00 | 0 | 24224
2 | 5:23.00 | 3:34.00 | 24225 | 40274
3 | 8:57.00 | 6:32.00 | 40275 | 69674
4 | 15:29.00 | 7:49.00 | 69675 | 104849
5 | 23:18.00 | 4:04.52 | 104850 | 123201
6 | 27:22.52 | 2:54.37 | 123202 | 136288
7 | 30:17.14 | 4:55.60 | 136289 | 158473
8 | 35:12.74 | 4:50.37 | 158474 | 180260
9 | 40:03.36 | 6:51.37 | 180261 | 211122
10 | 46:54.73 | 2:24.00 | 211123 | 221922
11 | 49:18.73 | 7:34.00 | 221923 | 255972
12 | 56:52.73 | 4:47.37 | 255973 | 277534
13 | 61:40.35 | 5:18.37 | 277535 | 301421
14 | 66:58.72 | 6:47.37 | 301422 | 331983

Range status and errors

Selected range

Filename C:UsersarthuDesktopJAZZDave Brubeck - West Coast Treasure.wav

Peak level 100.0 %
Extraction speed 9.7 X
Range quality 100.0 %
Test CRC 770FFBAF
Copy CRC 770FFBAF
Copy OK

No errors occurred

AccurateRip summary

Track 1 not present in database
Track 2 not present in database
Track 3 not present in database
Track 4 not present in database
Track 5 not present in database
Track 6 not present in database
Track 7 not present in database
Track 8 not present in database
Track 9 not present in database
Track 10 not present in database
Track 11 not present in database
Track 12 not present in database
Track 13 not present in database
Track 14 not present in database

None of the tracks are present in the AccurateRip database

End of status report

---- CUETools DB Plugin V2.1.6

[CTDB TOCID: NubY1XQq3XHMLmkZ9IoloJPuMrs-] disk not present in database
Submit result: NubY1XQq3XHMLmkZ9IoloJPuMrs- has been uploaded

==== Log checksum AA9BC9EACB270FA5E9CFC0330363BD3D344AB62CCD04DBE88FC432E72FDC1FB2 ====
Музыка / Lossless / Джаз, Блюз, Соул
СКАЧАТЬ БЕСПЛАТНО  [2.0 GB]


15
авг
2012

UFO - Live Throughout The Years (Limited Deluxe Edition 4CD Box Set) [2011, Hard Rock, Heavy Metal, FLAC]

Формат: FLAC, (image+ .cue), lossless
Год выпуска: 2011
Страна: UK
Жанр: Hard Rock, Heavy Metal
Продолжительность: 03:45:50
Описание: Disc One
Трeклист: 01. Intro - Can You Roll Her 03:52 02. Doctor Doctor 05:33 03. Oh My 04:28 04. Out On The Street 05:44 05. Highway Lady 05:17 06. I'm A Loser 04:25 07. Let It Roll 04:56 08. This Kids 04:23 09. Shoot Shoot 04:05 10. Rock Bottom 10:36 11. C'Mon Everybody 08:51 12. Boogie For George 09:16 13. All Or Nothing 04:30Log EACExact Audio Copy V1.0 beta 3 from 29. August 2011 EAC extraction logfile from 9. August 2012, 9:05 UFO / Live ...

10
ноя
2018

The Beatles - The Beatles (The White Album) (6CD Box Set Super Deluxe Edition) [2018, Pop, Rock, FLAC]

Формат: FLAC, (image + .cue), lossless
Год выпуска: 2018
Страна: England
Жанр: Pop, Rock
Продолжительность: 04:26:27
Описание: CD1 Original Album 00 01. Back in the U.S.S.R. 2:44 02. Dear Prudence 3:54 03. Glass Onion 2:17 04. Ob-La-Di, Ob-La-Da 3:08 05. Wild Honey Pie 0:53 06. The Continuing Story of Bungalow Bill 3:14 07. While My Guitar Gently Weeps 4:45 08. Happiness is a Warm Gun 2:44 09. Martha My Dear 2:28 10. I'm So Tired 2:03 11. Blackbird 2:18 12. Piggies 2:04 13. Rocky Raccoon 3:33 14. Don't Pass Me By 3:50 15. Why Don't We Do It In The Road? 1:41 16. I Will 1:45 17. Julia 3:00 eac ...

13
ноя
2018

The Beatles - The Beatles (White Album, 6CD Box Set Super Deluxe Edition, 1968) [2018, Rock Pop, MP3]

Формат: MP3, tracks, 320kbps
Год выпуска: 2018
Страна: England
Жанр: Rock Pop
Продолжительность: 05:27:19
Описание: ТреклистCD1 - Original Album 01. Back in the U.S.S.R. 2:44 02. Dear Prudence 3:54 03. Glass Onion 2:17 04. Ob-La-Di, Ob-La-Da 3:08 05. Wild Honey Pie 0:53 06. The Continuing Story of Bungalow Bill 3:14 07. While My Guitar Gently Weeps 4:45 08. Happiness is a Warm Gun 2:44 09. Martha My Dear 2:28 10. I'm So Tired 2:03 11. Blackbird 2:18 12. Piggies 2:04 13. Rocky Raccoon 3:33 14. Don't Pass Me By 3:50 15. Why Don't We Do It In The Road? 1:41 16. I Will 1:45 17. Julia 3:00 CD2 - O ...

21
дек
2016

VA - Reggae Box (6CD Limited Edition) [2016, Reggae, Dub, Roots Reggae, FLAC]

Формат: FLAC, tracks, lossless
Год выпуска: 2016
Страна: All World
Жанр: Reggae, Dub, Roots Reggae
Продолжительность: 04:32:43
Описание: CD 1 0001. Bob Marley & The Wailers - Stop The Train 2:18 02. Ronnie Davis - Rivers Of Babylon 3:21 03. Eric Donaldson - Cherry Oh Baby 3:03 04. Toots & The Maytals - Monkey Man 3:00 05. U-Roy - The Tide Is High (Dub Version) 2:39 06. Desmond Dekker - Unity 2:23 07. The Wailers - Get Up, Stand Up (Dub Version) 3:33 08. Max Romeo - Israelites 3:47 09. The Cimarons - You Can Get It If You Really Want 2:41 10. Al Campbell - Rasta Time 2:15 11. Gregory Isaacs - L ...

15
авг
2012

UFO - Let It Roll (Limited Edition 4CD Box Set) [2010, Hard Rock, Heavy Metal, FLAC]

Формат: FLAC, (image+ .cue), lossless
Год выпуска: 2010
Страна: UK
Жанр: Hard Rock, Heavy Metal
Продолжительность: 04:51:16
Описание: Disc One
Трeклист: 01. Natural Thing 04:27 02. Mother Mary 04:10 03. Let It Roll 04:54 04. Out In The Streets 05:15 05. This Kids 04:46 06. Only You Can Rock Me 04:26 07. Love To Love 07:45 08. Hot 'N' Ready 04:29 09. Too Hot To Handle 04:29 10. Lights Out 05:39 11. Doctor Doctor 05:28 12. Rock Bottom 11:24 13. Shoot Shoot 03:55 14. C'Mon Everybody 06:29Log EACExact Audio Copy V1.0 beta 3 from 29. August 2011 EAC extraction logfile from 8. Augu ...

25
янв
2014

ATB - Contact (3CD Limited Edition Deluxe Box) [2014, Trance, FLAC]

Формат: FLAC, tracks, lossless
Год выпуска: 2014
Страна: All World
Жанр: Trance
Продолжительность: 02:56:23
Описание: ТреклистCD 1: 01. When It Ends It Starts Again (feat. Sean Ryan) (4:51) 02. Raging Bull (with Boss and Swan) (3:37) 03. Together (ATB and JES) (4:42) 04. Face To Face (feat. Stanfour) (3:41) 05. Beam Me Up (feat. Boss and Swan) (4:32) 06. Hard To Cure (ATB and JES) (6:05) 07. Now Or Never (feat. JanSoon) (4:36) 08. Straight To The Stars (feat. Sean Ryan) (4:21) 09. Walking Awake (with Boss and Swan) (5:09) 10. Everything Is Beautiful (ATB and Taylr) (5:01) 11. What Are You Wait ...

25
янв
2014

ATB - Contact (3CD Limited Edition Deluxe Box) [2014, Trance, MP3]

Формат: MP3, tracks, 320kbps
Год выпуска: 2014
Страна: All World
Жанр: Trance
Продолжительность: 02:56:11
Описание: Треклист01. When It Ends It Starts Again (feat. Sean Ryan) [04:51] 02. Raging Bull (with Boss and Swan) [03:37] 03. Together (ATB and JES) [04:42] 04. Face To Face (feat. Stanfour) [03:41] 05. Beam Me Up (feat. Boss and Swan) [04:32] 06. Hard To Cure (ATB and JES) [06:05] 07. Now Or Never (feat. JanSoon) [04:36] 08. Straight To The Stars (feat. Sean Ryan) [04:21] 09. Walking Awake (with Boss and Swan) [05:09] 10. Everything Is Beautiful (ATB and Taylr) [05:01] 11. What Are You Wa ...

08
ноя
2010

Dio - Tournado: Limited Edition Tour Box Set 3CD [2010, Hard Rock, Metal, WV]

Формат: WV, (image + .cue), lossless
Год выпуска: 2010
Страна: England
Жанр: Hard Rock, Metal
Продолжительность: 02:10:49
Описание: Dio - Tournado Disc-1: © 2009-''Electra'' (Single) ======================================== 01. Electra [0:06:26.35] Disc-2: © 2002-''Killing The Dragon'' =========================================== 01. Killing The Dragon [0:04:25.35] 02. Along Comes A Spider [0:03:32.42] 03. Scream [0:05:02.70] 04. Better In The Dark [0:03:43.23] 05. Rock & Roll [0:06:11.50] 06. Push [0:04:08.72] 07. Guilty [0:04:26.05] 08. Throw Away Children [0:05:35.55] 09. Before The Fall [0 ...

27
ноя
2013

John Martyn - The Island Years (18-Discs Limited Edition Box Set) [2013, Folk Rock, FLAC]

Формат: FLAC, (image+ .cue), lossless
Год выпуска: 2013
Страна: UK
Жанр: Folk Rock
Продолжительность: 19:46:03
Описание: Disc 01 (01
Трeклист: 1967 London Conversation 01. Fairy Tale Lullaby 02:51 02. Sandy Grey 02:25 03. London Conversation 02:42 04. Ballad Of An Elder Woman 02:43 05. Cocain 02:57 06. Run Honey Run 02:37 07. Back To Stay 03:28 08. Rolling Home 05:44 09. Who’s Grown Up Now 04:03 10. Golden Girl 02:33 11. This Time 03:07 12. Don’t Think Twice (It’s Alright) 04:15 1968 The Tumbler 13. Sing A Song Of Summer 02:20 14. The River 02:55 15. Goin’ Down To Memphis 03:09 16. The Gard ...

20
ноя
2013

King Crimson - The Road To Red (24 Disc Limited Edition Box Set) [2013, Progressive Rock, Art Rock, FLAC]

Формат: FLAC, (image+ .cue), lossless
Год выпуска: 2013
Страна: UK
Жанр: Progressive Rock, Art Rock
Продолжительность: 21:20:09
Описание: Live Recordings 1Disc 01
Трeклист: 01. The Great Deceiver* 03:23 02. Lament 04:18 03. Improv I 02:26 04. Exiles 06:48 05. Fracture 11:06 06. Easy Money 06:46 07. Improv II 02:40 08. The Night Watch 04:52 09. RF Announcement 02:05 * incomplete recording Disc 1 taken from a band cassette soundboard recording. Audio restored at DGM by David Singleton and Alex R Mundy.Log EACExact Audio Copy V1.0 beta 3 from 29. August 2011 EAC extraction logfile from 22. ...

28
фев
2014

Axxis - Kingdom of the Night II (Super Deluxe Box, Limited Edition 3CD) [2014, Melodic Metal, MP3]

Формат: MP3, tracks, 320kbps
Год выпуска: 2014
Страна: Germany
Жанр: Melodic Metal
Продолжительность: 01:36:41
Описание: CD 1 - Kingdom of the Night II - Black Edition - 00 01. Kingdom of the Night II 04:15 02. Venom 03:47 03. Beyond the Sky 04:21 04. The War 03:43 05. Never Again 03:50 06. Soulfire 04:14 07. More than for One Day 03:24 08. Lass Dich gehn 04:03 09. Lie After Lie 03:40 10. Mary Married a Monster (Our Version) 03:28 11. Bites Inside 03:55 CD 2 - Kingdom of the Night II - White Edition - 00 01. Hall of Fame 03:38 02. Heaven in Paradise 03:54 03. Living in a Dream 04:19 04. 21 ...

19
мая
2014

Soundgarden - Superunknown: The Singles (Limited Collector's Edition, 5CD Box Set) [2014, Grunge, Alternative Rock, MP3]

Формат: MP3, tracks, 320kbps
Год выпуска: 2014
Страна: USA
Жанр: Grunge, Alternative Rock
Продолжительность: 01:41:57
Описание: CD1 Spoonman 00 01. Spoonman (04:04) 02. Fresh Tendrils (04:14) 03. Cold Bitch (04:58) 04. Exit Stonehenge (01:19)CD2 The Day I Tried To Live 00 01. The Day I Tried To Live (05:17) 02. Like Suicide (Acoustic) (06:07) 03. Kickstand (Live Aug 20 1993) (01:57) 04. Limo Wreck [05:42]CD3 Black Hole Sun 00 01. Black Hole Sun (05:16) 02. Jesus Christ Pose (Live Aug. 11 1993) (07:04) 03. Beyond The Wheel (Live Aug. 18 1993) (05:53) 04. Fell On Black Days (Live Aug. 16 1993) ...

25
апр
2015

Forgotten Tomb - Hurt Yourself and the Ones You Love [Deluxe Edition Box Set] [2015, Melodic Gothic, Black, Doom Metal, MP3]

Формат: MP3, tracks, 320kbps
Год выпуска: 2015
Страна: Italy
Жанр: Melodic Gothic, Black, Doom Metal
Продолжительность: 01:44:49
Описание: CD 1 - 00:50:38 01. Soulless Upheaval [07:02] 02. King of the Undesirables [06:17] 03. Bad Dreams Come True [07:20] 04. Hurt Yourself and the Ones You Love [07:34] 05. Mislead the Snakes [07:25] 06. Dread the Sundown [09:26] 07. Swallow the Void [05:32] Bonus CD - Darkness in Stereo: Eine Symphonie des Todes - 00:54:10 01. Springtime Depression [01:40] 02. Reject Existence [06:57] 03. Shutter [06:36] 04. Solitude Ways [06:53] 05. Todestrieb [09:35] 06. Sp ...

27
апр
2015

Forgotten Tomb - Hurt Yourself and the Ones You Love [Deluxe Edition Box Set] [2015, Melodic Gothic, Black, Doom Metal, FLAC]

Формат: FLAC, (image + .cue), lossless
Год выпуска: 2015
Страна: Italy
Жанр: Melodic Gothic, Black, Doom Metal
Продолжительность: 01:44:49
Описание: CD 1 - 00:50:38 01. Soulless Upheaval [07:02] 02. King of the Undesirables [06:17] 03. Bad Dreams Come True [07:20] 04. Hurt Yourself and the Ones You Love [07:34] 05. Mislead the Snakes [07:25] 06. Dread the Sundown [09:26] 07. Swallow the Void [05:32] Bonus CD - Darkness in Stereo: Eine Symphonie des Todes - 00:54:10 01. Springtime Depression [01:40] 02. Reject Existence [06:57] 03. Shutter [06:36] 04. Solitude Ways [06:53] 05. Todestrieb [09: ...

05
дек
2016

VA - 105 Disco Hits (Box Set, 6CD) [2011, Disco, MP3]

Формат: MP3, tracks, 320kbps
Год выпуска: 2011
Страна: All World
Жанр: Disco
Продолжительность: 06:58:49
Описание: CD 1 011. Vicki Sue Robinson - Turn The Beat Around (3:26) 2. Harold Melvin & The Blue Notes - The Love I Lost (3:34) 3. Bill Withers - Lovely Day (4:10) 4. Angela Bofill - Holdin' Out For Love (3:23) 5. Wild Cherry - I Feel Sanctified (3:49) 6. Earth Wind & Fire - Let's Groove (5:37) 7. Boney M. - Rivers Of Babylon (4:20) 8. Champaign - How 'Bout Us (3:21) 9. M.F.S.B. - Tsop - The Sound Of Philadelphia (3:46) 10. The Pointer Sisters - Jump (For My Love) (3:59) 11. Dan Hartman - ...