17
янв
2011

Elvis Presley - The Original Elvis Presley Collection (Box-Set 50CD) Part Two (CD26-50)[1966-1996, Rock Roll, APE]

Elvis Presley - The Original Elvis Presley Collection (Box-Set 50CD) Part Two (CD26-50)

Формат: APE, (image + .cue), lossless
Год выпуска: 1966-1996
Страна: USA
Жанр: Rock & Roll
Издатель: BMG Music Nederland BV
Год издания: 1996
Продолжительность: 14:12:16
Описание:


Elvis Presley - The Original Elvis Presley Collection
Трэклист:

01. Easy Come, Easy Go 02:20
02. The Love Machine 02:50
03. Yoga Is As Yoga Does 02:10
04. You Gotta Stop 02:18
05. Sing You Children 02:14
06. I'll Take Love 02:15
07. She's A Machine 01:38
08. The Love Machine (Alternate Take 11) 02:29
09. Sing You Children (Alternate Take 1) 02:29
10. She's A Machine (Alternate Take 13) 01:41
11. Suppose (Alternate Master) 03:03
12. Speedway 02:16
13. There Ain't Nothing Like A Song 02:10
14. You're Time Hasn't Come Yet, Baby 01:53
15. Who Are You (Who Am I) 02:34
16. He's Your Uncle Not Your Dad 02:29
17. Let Yourself Go 03:00
18. Five Sleepy Heads 01:31
19. Suppose 02:05
20. Your Groovy Self (with Nancy Sinatra) 02:55

Elvis Presley - The Original Elvis Presley Collection
Трэклист:

01. How Great Thou Art 03:05
02. In the Garden 03:13
03. Somebody Bigger Than You and I 02:29
04. Farther Along 04:08
05. Stand by Me 02:30
06. Without Him 02:31
07. So High 01:59
08. Where Could I Go But to the Lord 03:41
09. By and By 01:54
10. If the Lord Wasn't Walking by My Side 01:40
11. Run On 02:25
12. Where No One Stands Alone 02:47
13. Crying in the Chapel 02:27

Elvis Presley - The Original Elvis Presley Collection
Трэклист:

01. Love Letters 02:54
02. Witchcraft 02:25
03. It Hurts Me 02:30
04. What'd I Say 03:07
05. Please Don't Drag That String Around 01:56
06. Indescribably Blue 02:50
07. You're The Devil In Disguise 02:23
08. Lonely Man 02:48
09. A Mess Of Blues 02:43
10. Ask Me 02:09
11. Ain't That Loving You Baby 02:26
12. Just Tell Her Jim Said Hello 01:53

Elvis Presley - The Original Elvis Presley Collection
Трэклист:

01. Almost In Love 03:04
02. A Little Less Conversation 02:12
03. Wonderful World 02:24
04. Edge Of Reality 03:40
05. A Little Less Conversation (Album Version) 02:14
06. Charro! 02:47
07. Let's Forget About The Stars 02:31
08. Clean Up Your Own Backyard 03:09
09. Swing Down, Sweet Chariot 02:16
10. Signs Of The Zodiac 02:20
11. Almost 01:50
12. The Whiffenpoof Song 00:32
13. Violet 00:53
14. Clean Up Your Own Backyard (Undubbed Version) 03:10
15. Almost (Undubbed Version) 01:48
16. Have A Happy 02:23
17. Let's Be Friends 02:44
18. Change Of Habit 03:20
19. Let Us Pray 03:02
20. Rubberneckin' 02:09

Elvis Presley - The Original Elvis Presley Collection
Трэклист:

01. Trouble / Guitar Man 03:28
02. Lawdy, Miss Clawdy / Baby, What You Want Me To Do 03:34
03. Heartbreak Hotel / Hound Dog / All Shook Up / Can't Help Falling / Jailhouse Rock / Don’t Be Cruel / Blue Suede Shoes / Love Me Tender 14:15
04. Where Could I Go To But To The Lord / Up Above My Head / Saved 07:32
05. Baby, What You Want Me To Do / That's All Right / Blue Christmas / One Night / Tiger Man/ Trying To Get To You 15:50
06. Memories 03:17
07. Nothingville / Big Boss Man / Let Yourself Go / It Hurts Me / Guitar Man / Little Egypt / Trouble / Guitar Man 11:47
08. If I Can Dream 03:20

Elvis Presley - The Original Elvis Presley Collection
Трэклист:

01. Wearin' That Loved On Look 02:46
02. Only The Strong Survive 02:41
03. I'll Hold You In My Heart (Till I Can Hold You In My Arms) 04:34
04. Long Black Limousine 03:42
05. It Keeps Right On A-Hurtin' 02:38
06. I'm Movin' On 02:53
07. Power Of My Love 02:37
08. Gentle On My Mind 03:24
09. After Loving You 03:09
10. True Love Travels On A Gravel Road 02:39
11. Any Day Now 03:01
12. In The Ghetto 02:47

Elvis Presley - The Original Elvis Presley Collection
Трэклист:

01. Blue Suede Shoes 02:06
02. Johnny B. Good 02:10
03. All Shook Up 01:55
04. Are You Lonesome Tonight 03:06
05. Hound Dog 02:07
06. I Can't Stop Loving You 02:56
07. My Babe 02:52
08. Medley: Mystery Train / Tiger Man 03:28
09. Words 02:57
10. In The Ghetto 02:53
11. Suspicious Minds 07:41
12. Can't Help Falling In Love 02:25

Elvis Presley - The Original Elvis Presley Collection
Трэклист:

01. Inherit The Wind 03:00
02. This Is The Story 02:31
03. Stranger In My Own Home Town 04:24
04. A Little Bit Of Green 03:24
05. And The Grass Won't Pay Me No Mind 03:11
06. Do You Know Who Am I? 02:49
07. From A Jack To A King 02:26
08. The Fair's Moving On 03:10
09. You'll Think Of Me 04:02
10. Without Love (There Is Nothing) 02:54

Elvis Presley - The Original Elvis Presley Collection
Трэклист:

01. C.C.Rider 02:39
02. Release Me (And Let Me Love Again) 03:39
03. Sweet Caroline 02:43
04. Runaway 02:36
05. The Wonder Of You 02:50
06. Polk Salad Annie 05:02
07. Yesterday 02:59
08. Proud Mary 02:33
09. Walk A Mile In My Shoes 03:13
10. Let It Be Me 03:44

Elvis Presley - The Original Elvis Presley Collection
Трэклист:

01. I Just Can't Help Believin' 04:42
02. Twenty Days And Twenty Nights 03:19
03. How The Web Was Woven 03:27
04. Patch It Up 04:04
05. Mary In The Morning 04:13
06. You Don't Have To Say You Love Me 02:33
07. You've Lost That Lovin' Feelin' 04:26
08. I've Lost You 03:44
09. Just Pretend 04:06
10. Stranger In The Crowd 03:50
11. The Next Step Is Love 03:34
12. Bridge Over Troubled Water 04:35

Elvis Presley - The Original Elvis Presley Collection
Трэклист:

01. Snowbird 02:18
02. Tomorrow Never Comes 04:07
03. Little Cabin On The Hill 01:58
04. Whole Lotta Shakin' Goin' On 03:10
05. Funny How TIime Slips Away 04:32
06. I Really Don't Want To Know 02:51
07. There Goes My Everything 03:10
08. It's Your Baby, You Rock It 03:04
09. The Fool 02:34
10. Faded Love 03:19
11. I Washed My Hands In Muddy Water 03:56
12. Make The World Go Away 03:52

Elvis Presley - The Original Elvis Presley Collection
Трэклист:

01. Love Letters 02:54
02. When I'm Over You 02:30
03. If I Were You 03:03
04. Got My Mojo Working 04:37
05. Heart Of Rome 02:58
06. Only Believe 02:51
07. This Is Our Dance 03:17
08. Cindy Cindy 02:34
09. I'll Never Know 02:27
10. It Ain't No Big Thing (But It's Growing) 02:51
11. Life 03:11

Elvis Presley - The Original Elvis Presley Collection
Трэклист:

01. Oh Come, All Ye Faithful 02:49
02. The First Noel 02:11
03. On A Snowy Christmas Night 02:50
04. Winter Wonderland 02:20
05. The Wonderful World Of Christmas 01:59
06. It Won't Seem Like Christmas (Without You) 02:44
07. I'll Be Home On Christmas Day 03:50
08. If I Get Home On Christmas Day 02:54
09. Holly Leaves And Christmas Trees 02:15
10. Merry Christmas Baby 07:20
11. Silver Bells 02:29
12. If Every Day Was Like Christmas 02:55
13. I'll Be Home On Christmas Day 03:44

Elvis Presley - The Original Elvis Presley Collection
Трэклист:

01. Help Me Make It Through The Night 02:49
02. Miracle Of The Rosary 01:52
03. Hey Jude 04:31
04. Put Your Hand In The Hand 03:17
05. Until It's Time For You To Go 03:59
06. We Can Make The Morning 03:56
07. Early Mornin' Rain 02:57
08. Sylvia 03:18
09. Fools Rush In (Where Angels Fear To Tread) 02:42
10. I Was Born About Ten Thousand Years Ago 03:13

Elvis Presley - The Original Elvis Presley Collection
Трэклист:

01. He Touched Me 02:41
02. I've Got Confidence 02:22
03. Amazing Grace 03:35
04. Seeing Is Believing 02:54
05. He Is My Everything 02:41
06. Bosom of Abraham 01:37
07. An Evening Prayer 01:57
08. Lead Me, Guide Me 02:42
09. There Is No God but God 02:21
10. A Thing Called Love 02:26
11. I, John 02:17
12. Reach Out to Jesus 03:14

Elvis Presley - The Original Elvis Presley Collection
Трэклист:

01. Introduction: Also Sprach Zarathustra (Theme From 2001: A Space Odyssey) 01:04
02. That's All Right 02:14
03. Proud Mary 02:47
04. Never Been To Spain 03:26
05. You Don't Have To Say You Love Me 02:04
06. You've Lost That Lovin' Feelin' 04:12
07. Polk Salad Annie 02:59
08. Love Me 01:41
09. All Shook Up 01:00
10. Heartbreak Hotel 01:44
11. Medley: (Let Me Be Your) Teddy Bear / Don't Be Cruell 01:51
12. Love Me Tender 01:40
13. The Impossible Dream 02:37
14. Introductions By Elvis 01:34
15. Hound Dog 01:50
16. Suspicious Minds 04:22
17. For The Good Times 03:10
18. American Trilogy 04:32
19. Funny How Time Slips Away 02:42
20. I Can't Stop Loving You 02:43
21. Can't Help Falling In Love 01:41
22. End Theme 00:57

Elvis Presley - The Original Elvis Presley Collection
Трэклист:

01. Intro: Also Sprach Zaratustra 01:10
02. See See Rider 02:59
03. Burning Love 03:11
04. Something 03:32
05. You Gave Me A Mountain 03:18
06. Steamroller Blues 03:04
07. My Way 04:00
08. Love Me 01:54
09. Johnny B Goode 01:43
10. It's Over 02:12
11. Blue Suede Shoes 01:14
12. I'm So Lonesome I Could Cry 02:17
13. I Can't Stop Loving You 02:27
14. Hound Dog 00:53
15. What Now My Love 03:16
16. Fever 02:49
17. Welcome To My World 01:54
18. Suspicious Mind 04:31
19. Introductions By Elvis 01:37
20. I'll Remember You 02:32
21. Medley: Long Tall Sally / Whole Lotta Shakin' Goin' On 02:05
22. American Trilogy 04:35
23. A Big Hunk Of Love 02:10
24. Can't Help Falling In Love 02:51

Elvis Presley - The Original Elvis Presley Collection
Трэклист:

Треклист:
01. Fool 02:44
02. Where Do I Go From Here 02:41
03. Love Me, Love The Life I Lead 03:05
04. It's Still Here 02:08
05. It's Impossible 02:54
06. (That's What You Get) For Lovin' Me 02:09
07. Padre 02:31
08. I'll Take You Home Again Kathleen 02:26
09. I Will Be True 02:33
10. Don't Think Twice, It's All Right 02:43

Elvis Presley - The Original Elvis Presley Collection
Трэклист:

01. Raised On Rock 02:42
02. Are You Sincere 02:01
03. Find Out What's Happening 02:33
04. I Miss You 02:15
05. Girl Of Mine 03:40
06. For Ol' Times Sake 03:39
07. If You Don't Come Back 02:32
08. Just A Little Bit 02:33
09. Sweet Angeline 03:04
10. Three Corn Patches 02:46

Elvis Presley - The Original Elvis Presley Collection
Трэклист:

01. Take Good Care Of Her 02:54
02. Loving Arms 02:51
03. I Got A Feelin' In My Body 03:36
04. If That Isn't Love 03:32
05. She Wears My Ring 03:24
06. I've Got A Thing About You Baby 02:23
07. My Boy 03:22
08. Spanish Eyes 02:25
09. Talk About The Good Times 02:25
10. Good Time Charlie's Got The Blues 03:09

Elvis Presley - The Original Elvis Presley Collection
Трэклист:

01. See See Rider 04:10
02. I Got A Woman 03:39
03. Love Me 01:50
04. Trying To Get To You 02:05
05. Medley: Long Tall Sally / Whole Lotta Shakin' Goin' On / Your Mama Don't Danc... 03:36
06. Why Me Lord 02:53
07. How Great Thou Art 03:37
08. Medley: Blueberry Hill / I Can't Stop Loving You 03:04
09. Help Me 02:38
10. An American Trilogy 03:58
11. Let Me Be There 03:35
12. My Baby Left Me 02:22
13. Lawdy, Miss Clawdy 02:13
14. Can't Help Falling In Love 01:37
15. Closing Vamp 00:48

Elvis Presley - The Original Elvis Presley Collection
Трэклист:

01. Promised Land 02:56
02. There's A Honky Tonk Angel (Who Will Take Me Back In) 03:04
03. Help Me 02:32
04. Mr. Songman 02:10
05. Love Song Of The Year 03:17
06. It's Midnight 03:24
07. Your Love's Been A Long Time Coming 02:55
08. If You Talk In Your Sleep 02:28
09. Thinking About You 03:04
10. You Asked Me To 02:53

Elvis Presley - The Original Elvis Presley Collection
Трэклист:

01. T-R-O-U-B-L-E 03:06
02. And I Love You So 03:42
03. Susan When She Tried 02:19
04. Woman Without Love 03:37
05. Shake A Hand 03:49
06. Pieces Of My Life 04:07
07. Fairytale 02:47
08. I Can Help 04:06
09. Bringin' It Back 03:03
10. Green, Green Grass Of Home 03:36

Elvis Presley - The Original Elvis Presley Collection
Трэклист:

01. Hurt 02:10
02. Never Again 02:53
03. Blue Eyes Crying In The Rain 03:43
04. Danny Boy 04:00
05. The Last Farewell 04:06
06. For The Heart 03:23
07. Bitter They Are, Harder They Fall 03:19
08. Solitaire 04:44
09. Love Coming 'Down 03:09
10. I'll Never Fall In Love Again 03:45

Elvis Presley - The Original Elvis Presley Collection
Трэклист:

01. Unchained Melody 02:35
02. If You Love Me (Let Me Know) 03:02
03. Little Darlin' 01:56
04. He'll Have To Go 04:35
05. Let Me Be There 03:38
06. Way Down 02:41
07. Pledging My Love 02:53
08. Moody Blue 02:53
09. She Thinks I Still Care 03:51
10. It's Easy For You 03:30


Доп. информация:

Log EAC



Exact Audio Copy V0.99 prebeta 4 from 23. January 2008

Отчёт EAC об извлечении, выполненном 14. июля 2009, 12:13

Elvis Presley / Elvis Double Features: Easy Come, Easy Go + Speedway

Дисковод: ASUS DRW-2014L1T Adapter: 2 ID: 2

Режим чтения : Достоверность
Использование точного потока : Да
Отключение кэша аудио : Да
Использование указателей C2 : Нет

Коррекция смещения при чтении : 6
Способность читать области Lead-in и Lead-out : Нет
Заполнение пропущенных сэмплов тишиной : Да
Удаление блоков с тишиной в начале и конце : Нет
При вычислениях CRC использовались нулевые сэмплы : Нет
Интерфейс : Встроенный Win32-интерфейс для Win NT/2000

Выходной формат : Monkey's Audio Lossless Encoder v3.99 DLL
Формат сэмплов : High Lossless Compression

TOC извлечённого CD

Трек | Старт | Длительность | Начальный сектор | Конечный сектор
---------------------------------------------------------------------
1 | 0:00.00 | 2:20.30 | 0 | 10529
2 | 2:20.30 | 2:50.25 | 10530 | 23304
3 | 5:10.55 | 2:10.32 | 23305 | 33086
4 | 7:21.12 | 2:17.43 | 33087 | 43404
5 | 9:38.55 | 2:14.10 | 43405 | 53464
6 | 11:52.65 | 2:14.40 | 53465 | 63554
7 | 14:07.30 | 1:37.42 | 63555 | 70871
8 | 15:44.72 | 2:29.35 | 70872 | 82081
9 | 18:14.32 | 2:28.55 | 82082 | 93236
10 | 20:43.12 | 1:40.43 | 93237 | 100779
11 | 22:23.55 | 3:02.50 | 100780 | 114479
12 | 25:26.30 | 2:16.32 | 114480 | 124711
13 | 27:42.62 | 2:09.58 | 124712 | 134444
14 | 29:52.45 | 1:53.02 | 134445 | 142921
15 | 31:45.47 | 2:34.10 | 142922 | 154481
16 | 34:19.57 | 2:28.68 | 154482 | 165649
17 | 36:48.50 | 3:00.20 | 165650 | 179169
18 | 39:48.70 | 1:30.45 | 179170 | 185964
19 | 41:19.40 | 2:04.57 | 185965 | 195321
20 | 43:24.22 | 2:54.53 | 195322 | 208424

Характеристики диапазона извлечения и сообщения об ошибках

Выбранный диапазон

Имя файла N:Музыка на разбор!! Extract !!The Original Elvis Presley CollectionCD 26Elvis Presley-1996-Elvis Double Features (Easy Come, Easy Go + Speedway).ape

Пиковый уровень 99.8 %
Качество диапазона 100.0 %
CRC копии A5FD7D6E
Копирование... OK

Ошибок не произошло

Конец отчёта


Exact Audio Copy V0.99 prebeta 4 from 23. January 2008

Отчёт EAC об извлечении, выполненном 14. июля 2009, 12:20

Elvis Presley / How Great Thou Art

Дисковод: ASUS DRW-2014L1T Adapter: 2 ID: 2

Режим чтения : Достоверность
Использование точного потока : Да
Отключение кэша аудио : Да
Использование указателей C2 : Нет

Коррекция смещения при чтении : 6
Способность читать области Lead-in и Lead-out : Нет
Заполнение пропущенных сэмплов тишиной : Да
Удаление блоков с тишиной в начале и конце : Нет
При вычислениях CRC использовались нулевые сэмплы : Нет
Интерфейс : Встроенный Win32-интерфейс для Win NT/2000

Выходной формат : Monkey's Audio Lossless Encoder v3.99 DLL
Формат сэмплов : High Lossless Compression

TOC извлечённого CD

Трек | Старт | Длительность | Начальный сектор | Конечный сектор
---------------------------------------------------------------------
1 | 0:00.00 | 3:04.50 | 0 | 13849
2 | 3:04.50 | 3:13.07 | 13850 | 28331
3 | 6:17.57 | 2:29.28 | 28332 | 39534
4 | 8:47.10 | 4:07.57 | 39535 | 58116
5 | 12:54.67 | 2:30.33 | 58117 | 69399
6 | 15:25.25 | 2:31.20 | 69400 | 80744
7 | 17:56.45 | 1:59.05 | 80745 | 89674
8 | 19:55.50 | 3:41.12 | 89675 | 106261
9 | 23:36.62 | 1:53.58 | 106262 | 114794
10 | 25:30.45 | 1:40.15 | 114795 | 122309
11 | 27:10.60 | 2:25.30 | 122310 | 133214
12 | 29:36.15 | 2:46.40 | 133215 | 145704
13 | 32:22.55 | 2:27.00 | 145705 | 156729

Характеристики диапазона извлечения и сообщения об ошибках

Выбранный диапазон

Имя файла N:Музыка на разбор!! Extract !!The Original Elvis Presley CollectionCD 27Elvis Presley-1966-How Great Thou Art.ape

Пиковый уровень 100.0 %
Качество диапазона 100.0 %
CRC копии D5DEFE3E
Копирование... OK

Ошибок не произошло

Конец отчёта


Exact Audio Copy V0.99 prebeta 4 from 23. January 2008

Отчёт EAC об извлечении, выполненном 14. июля 2009, 12:29

Elvis Presley / Elvis' Gold Records (Volume 4)

Дисковод: ASUS DRW-2014L1T Adapter: 2 ID: 2

Режим чтения : Достоверность
Использование точного потока : Да
Отключение кэша аудио : Да
Использование указателей C2 : Нет

Коррекция смещения при чтении : 6
Способность читать области Lead-in и Lead-out : Нет
Заполнение пропущенных сэмплов тишиной : Да
Удаление блоков с тишиной в начале и конце : Нет
При вычислениях CRC использовались нулевые сэмплы : Нет
Интерфейс : Встроенный Win32-интерфейс для Win NT/2000

Выходной формат : Monkey's Audio Lossless Encoder v3.99 DLL
Формат сэмплов : High Lossless Compression

TOC извлечённого CD

Трек | Старт | Длительность | Начальный сектор | Конечный сектор
---------------------------------------------------------------------
1 | 0:00.32 | 2:54.18 | 32 | 13099
2 | 2:54.50 | 2:24.45 | 13100 | 23944
3 | 5:19.20 | 2:30.37 | 23945 | 35231
4 | 7:49.57 | 3:06.58 | 35232 | 49239
5 | 10:56.40 | 1:56.02 | 49240 | 57941
6 | 12:52.42 | 2:50.35 | 57942 | 70726
7 | 15:43.02 | 2:22.50 | 70727 | 81426
8 | 18:05.52 | 2:48.08 | 81427 | 94034
9 | 20:53.60 | 2:42.60 | 94035 | 106244
10 | 23:36.45 | 2:08.45 | 106245 | 115889
11 | 25:45.15 | 2:25.50 | 115890 | 126814
12 | 28:10.65 | 1:53.32 | 126815 | 135321

Характеристики диапазона извлечения и сообщения об ошибках

Выбранный диапазон

Имя файла N:Музыка на разбор!! Extract !!The Original Elvis Presley CollectionCD 28Elvis Presley-1968-Elvis' Gold Records (Volume 4).ape

Пиковый уровень 90.0 %
Качество диапазона 100.0 %
CRC копии 23646C42
Копирование... OK

Ошибок не произошло

Конец отчёта


Exact Audio Copy V0.99 prebeta 4 from 23. January 2008

Отчёт EAC об извлечении, выполненном 14. июля 2009, 12:38

Elvis Presley / Elvis Double Features: Live a Little, Love a Little + Charro! + The Trouble With Girls + Change of Habit

Дисковод: ASUS DRW-2014L1T Adapter: 2 ID: 2

Режим чтения : Достоверность
Использование точного потока : Да
Отключение кэша аудио : Да
Использование указателей C2 : Нет

Коррекция смещения при чтении : 6
Способность читать области Lead-in и Lead-out : Нет
Заполнение пропущенных сэмплов тишиной : Да
Удаление блоков с тишиной в начале и конце : Нет
При вычислениях CRC использовались нулевые сэмплы : Нет
Интерфейс : Встроенный Win32-интерфейс для Win NT/2000

Выходной формат : Monkey's Audio Lossless Encoder v3.99 DLL
Формат сэмплов : High Lossless Compression

TOC извлечённого CD

Трек | Старт | Длительность | Начальный сектор | Конечный сектор
---------------------------------------------------------------------
1 | 0:00.00 | 3:04.15 | 0 | 13814
2 | 3:04.15 | 2:11.67 | 13815 | 23706
3 | 5:16.07 | 2:24.25 | 23707 | 34531
4 | 7:40.32 | 3:40.15 | 34532 | 51046
5 | 11:20.47 | 2:13.65 | 51047 | 61086
6 | 13:34.37 | 2:47.20 | 61087 | 73631
7 | 16:21.57 | 2:30.48 | 73632 | 84929
8 | 18:52.30 | 3:09.12 | 84930 | 99116
9 | 22:01.42 | 2:16.03 | 99117 | 109319
10 | 24:17.45 | 2:20.12 | 109320 | 119831
11 | 26:37.57 | 1:49.48 | 119832 | 128054
12 | 28:27.30 | 0:31.72 | 128055 | 130451
13 | 28:59.27 | 0:52.38 | 130452 | 134389
14 | 29:51.65 | 3:09.67 | 134390 | 148631
15 | 33:01.57 | 1:48.35 | 148632 | 156766
16 | 34:50.17 | 2:22.38 | 156767 | 167454
17 | 37:12.55 | 2:43.65 | 167455 | 179744
18 | 39:56.45 | 3:19.45 | 179745 | 194714
19 | 43:16.15 | 3:01.50 | 194715 | 208339
20 | 46:17.65 | 2:09.17 | 208340 | 218031

Характеристики диапазона извлечения и сообщения об ошибках

Выбранный диапазон

Имя файла N:Музыка на разбор!! Extract !!The Original Elvis Presley CollectionCD 29Elvis Presley-1995-Elvis Double Features (Live a Little, Love a Little + Charro! + The Trouble With Girls + Change of Habit).ape

Пиковый уровень 97.4 %
Качество диапазона 100.0 %
CRC копии CF1C8BFE
Копирование... OK

Ошибок не произошло

Конец отчёта


Exact Audio Copy V0.99 prebeta 4 from 23. January 2008

Отчёт EAC об извлечении, выполненном 14. июля 2009, 13:09

Elvis Presley / NBC-TV Special

Дисковод: ASUS DRW-2014L1T Adapter: 2 ID: 2

Режим чтения : Достоверность
Использование точного потока : Да
Отключение кэша аудио : Да
Использование указателей C2 : Нет

Коррекция смещения при чтении : 6
Способность читать области Lead-in и Lead-out : Нет
Заполнение пропущенных сэмплов тишиной : Да
Удаление блоков с тишиной в начале и конце : Нет
При вычислениях CRC использовались нулевые сэмплы : Нет
Интерфейс : Встроенный Win32-интерфейс для Win NT/2000

Выходной формат : Monkey's Audio Lossless Encoder v3.99 DLL
Формат сэмплов : High Lossless Compression

TOC извлечённого CD

Трек | Старт | Длительность | Начальный сектор | Конечный сектор
---------------------------------------------------------------------
1 | 0:00.33 | 3:28.00 | 33 | 15632
2 | 3:28.33 | 3:33.67 | 15633 | 31674
3 | 7:02.25 | 14:14.58 | 31675 | 95782
4 | 21:17.08 | 7:31.60 | 95783 | 129667
5 | 28:48.68 | 15:50.00 | 129668 | 200917
6 | 44:38.68 | 3:17.25 | 200918 | 215717
7 | 47:56.18 | 11:46.70 | 215718 | 268737
8 | 59:43.13 | 3:20.20 | 268738 | 283757

Характеристики диапазона извлечения и сообщения об ошибках

Выбранный диапазон

Имя файла N:Музыка на разбор!! Extract !!The Original Elvis Presley CollectionCD 30Elvis Presley-1968-NBC-TV Special.ape

Пиковый уровень 98.1 %
Качество диапазона 100.0 %
CRC копии F306E7BE
Копирование... OK

Ошибок не произошло

Конец отчёта


Exact Audio Copy V0.99 prebeta 4 from 23. January 2008

Отчёт EAC об извлечении, выполненном 14. июля 2009, 13:20

Elvis Presley / From Elvis In Memphis

Дисковод: ASUS DRW-2014L1T Adapter: 2 ID: 2

Режим чтения : Достоверность
Использование точного потока : Да
Отключение кэша аудио : Да
Использование указателей C2 : Нет

Коррекция смещения при чтении : 6
Способность читать области Lead-in и Lead-out : Нет
Заполнение пропущенных сэмплов тишиной : Да
Удаление блоков с тишиной в начале и конце : Нет
При вычислениях CRC использовались нулевые сэмплы : Нет
Интерфейс : Встроенный Win32-интерфейс для Win NT/2000

Выходной формат : Monkey's Audio Lossless Encoder v3.99 DLL
Формат сэмплов : High Lossless Compression

TOC извлечённого CD

Трек | Старт | Длительность | Начальный сектор | Конечный сектор
---------------------------------------------------------------------
1 | 0:00.32 | 2:46.05 | 32 | 12486
2 | 2:46.37 | 2:40.45 | 12487 | 24531
3 | 5:27.07 | 4:33.55 | 24532 | 45061
4 | 10:00.62 | 3:42.35 | 45062 | 61746
5 | 13:43.22 | 2:38.05 | 61747 | 73601
6 | 16:21.27 | 2:52.70 | 73602 | 86571
7 | 19:14.22 | 2:37.28 | 86572 | 98374
8 | 21:51.50 | 3:24.17 | 98375 | 113691
9 | 25:15.67 | 3:08.40 | 113692 | 127831
10 | 28:24.32 | 2:38.40 | 127832 | 139721
11 | 31:02.72 | 3:01.33 | 139722 | 153329
12 | 34:04.30 | 2:47.30 | 153330 | 165884

Характеристики диапазона извлечения и сообщения об ошибках

Выбранный диапазон

Имя файла N:Музыка на разбор!! Extract !!The Original Elvis Presley CollectionCD 31Elvis Presley-1969-From Elvis In Memphis.ape

Пиковый уровень 93.3 %
Качество диапазона 100.0 %
CRC копии 6B6D6445
Копирование... OK

Ошибок не произошло

Конец отчёта


Exact Audio Copy V0.99 prebeta 4 from 23. January 2008

Отчёт EAC об извлечении, выполненном 14. июля 2009, 13:29

Elvis Presley / In Person

Дисковод: ASUS DRW-2014L1T Adapter: 2 ID: 2

Режим чтения : Достоверность
Использование точного потока : Да
Отключение кэша аудио : Да
Использование указателей C2 : Нет

Коррекция смещения при чтении : 6
Способность читать области Lead-in и Lead-out : Нет
Заполнение пропущенных сэмплов тишиной : Да
Удаление блоков с тишиной в начале и конце : Нет
При вычислениях CRC использовались нулевые сэмплы : Нет
Интерфейс : Встроенный Win32-интерфейс для Win NT/2000

Выходной формат : Monkey's Audio Lossless Encoder v3.99 DLL
Формат сэмплов : High Lossless Compression

TOC извлечённого CD

Трек | Старт | Длительность | Начальный сектор | Конечный сектор
---------------------------------------------------------------------
1 | 0:00.32 | 2:06.28 | 32 | 9509
2 | 2:06.60 | 2:09.72 | 9510 | 19256
3 | 4:16.57 | 1:54.60 | 19257 | 27866
4 | 6:11.42 | 3:05.50 | 27867 | 41791
5 | 9:17.17 | 2:07.00 | 41792 | 51316
6 | 11:24.17 | 2:55.55 | 51317 | 64496
7 | 14:19.72 | 2:52.03 | 64497 | 77399
8 | 17:12.00 | 3:28.32 | 77400 | 93031
9 | 20:40.32 | 2:57.03 | 93032 | 106309
10 | 23:37.35 | 2:52.47 | 106310 | 119256
11 | 26:30.07 | 7:41.10 | 119257 | 153841
12 | 34:11.17 | 2:24.63 | 153842 | 164704

Характеристики диапазона извлечения и сообщения об ошибках

Выбранный диапазон

Имя файла N:Музыка на разбор!! Extract !!The Original Elvis Presley CollectionCD 32Elvis Presley-1969-In Person.ape

Пиковый уровень 94.8 %
Качество диапазона 100.0 %
CRC копии 2361CA9D
Копирование... OK

Ошибок не произошло

Конец отчёта


Exact Audio Copy V0.99 prebeta 4 from 23. January 2008

Отчёт EAC об извлечении, выполненном 14. июля 2009, 13:39

Elvis Presley / Back In Memphis

Дисковод: ASUS DRW-2014L1T Adapter: 2 ID: 2

Режим чтения : Достоверность
Использование точного потока : Да
Отключение кэша аудио : Да
Использование указателей C2 : Нет

Коррекция смещения при чтении : 6
Способность читать области Lead-in и Lead-out : Нет
Заполнение пропущенных сэмплов тишиной : Да
Удаление блоков с тишиной в начале и конце : Нет
При вычислениях CRC использовались нулевые сэмплы : Нет
Интерфейс : Встроенный Win32-интерфейс для Win NT/2000

Выходной формат : Monkey's Audio Lossless Encoder v3.99 DLL
Формат сэмплов : High Lossless Compression

TOC извлечённого CD

Трек | Старт | Длительность | Начальный сектор | Конечный сектор
---------------------------------------------------------------------
1 | 0:00.33 | 2:59.40 | 33 | 13497
2 | 2:59.73 | 2:30.57 | 13498 | 24804
3 | 5:30.55 | 4:23.48 | 24805 | 44577
4 | 9:54.28 | 3:23.72 | 44578 | 59874
5 | 13:18.25 | 3:11.18 | 59875 | 74217
6 | 16:29.43 | 2:49.30 | 74218 | 86922
7 | 19:18.73 | 2:25.65 | 86923 | 97862
8 | 21:44.63 | 3:10.27 | 97863 | 112139
9 | 24:55.15 | 4:01.50 | 112140 | 130264
10 | 28:56.65 | 2:53.43 | 130265 | 143282

Характеристики диапазона извлечения и сообщения об ошибках

Выбранный диапазон

Имя файла N:Музыка на разбор!! Extract !!The Original Elvis Presley CollectionCD 33Elvis Presley-1969-Back In Memphis.ape

Пиковый уровень 88.6 %
Качество диапазона 100.0 %
CRC копии C578C19B
Копирование... OK

Ошибок не произошло

Конец отчёта


Exact Audio Copy V0.99 prebeta 4 from 23. January 2008

Отчёт EAC об извлечении, выполненном 14. июля 2009, 13:46

Elvis Presley / On Stage

Дисковод: ASUS DRW-2014L1T Adapter: 2 ID: 2

Режим чтения : Достоверность
Использование точного потока : Да
Отключение кэша аудио : Да
Использование указателей C2 : Нет

Коррекция смещения при чтении : 6
Способность читать области Lead-in и Lead-out : Нет
Заполнение пропущенных сэмплов тишиной : Да
Удаление блоков с тишиной в начале и конце : Нет
При вычислениях CRC использовались нулевые сэмплы : Нет
Интерфейс : Встроенный Win32-интерфейс для Win NT/2000

Выходной формат : Monkey's Audio Lossless Encoder v3.99 DLL
Формат сэмплов : High Lossless Compression

TOC извлечённого CD

Трек | Старт | Длительность | Начальный сектор | Конечный сектор
---------------------------------------------------------------------
1 | 0:00.33 | 2:39.37 | 33 | 11994
2 | 2:39.70 | 3:39.23 | 11995 | 28442
3 | 6:19.18 | 2:42.60 | 28443 | 40652
4 | 9:02.03 | 2:36.12 | 40653 | 52364
5 | 11:38.15 | 2:49.60 | 52365 | 65099
6 | 14:28.00 | 5:01.38 | 65100 | 87712
7 | 19:29.38 | 2:59.05 | 87713 | 101142
8 | 22:28.43 | 2:33.20 | 101143 | 112637
9 | 25:01.63 | 3:12.72 | 112638 | 127109
10 | 28:14.60 | 3:44.15 | 127110 | 143924

Характеристики диапазона извлечения и сообщения об ошибках

Выбранный диапазон

Имя файла N:Музыка на разбор!! Extract !!The Original Elvis Presley CollectionCD 34Elvis Presley-1970-On Stage.ape

Пиковый уровень 80.9 %
Качество диапазона 99.9 %
CRC копии 8E56343B
Копирование... OK

Ошибок не произошло

Конец отчёта


Exact Audio Copy V0.99 prebeta 4 from 23. January 2008

Отчёт EAC об извлечении, выполненном 14. июля 2009, 13:54

Elvis Presley / That's The Way It Is

Дисковод: ASUS DRW-2014L1T Adapter: 2 ID: 2

Режим чтения : Достоверность
Использование точного потока : Да
Отключение кэша аудио : Да
Использование указателей C2 : Нет

Коррекция смещения при чтении : 6
Способность читать области Lead-in и Lead-out : Нет
Заполнение пропущенных сэмплов тишиной : Да
Удаление блоков с тишиной в начале и конце : Нет
При вычислениях CRC использовались нулевые сэмплы : Нет
Интерфейс : Встроенный Win32-интерфейс для Win NT/2000

Выходной формат : Monkey's Audio Lossless Encoder v3.99 DLL
Формат сэмплов : High Lossless Compression

TOC извлечённого CD

Трек | Старт | Длительность | Начальный сектор | Конечный сектор
---------------------------------------------------------------------
1 | 0:00.33 | 4:42.05 | 33 | 21187
2 | 4:42.38 | 3:18.70 | 21188 | 36107
3 | 8:01.33 | 3:27.32 | 36108 | 51664
4 | 11:28.65 | 4:03.50 | 51665 | 69939
5 | 15:32.40 | 4:13.28 | 69940 | 88942
6 | 19:45.68 | 2:32.62 | 88943 | 100404
7 | 22:18.55 | 4:26.28 | 100405 | 120382
8 | 26:45.08 | 3:43.55 | 120383 | 137162
9 | 30:28.63 | 4:05.62 | 137163 | 155599
10 | 34:34.50 | 3:50.18 | 155600 | 172867
11 | 38:24.68 | 3:34.15 | 172868 | 188932
12 | 41:59.08 | 4:35.37 | 188933 | 209594

Характеристики диапазона извлечения и сообщения об ошибках

Выбранный диапазон

Имя файла N:Музыка на разбор!! Extract !!The Original Elvis Presley CollectionCD 35Elvis Presley-1970-That's The Way It Is.ape

Пиковый уровень 89.6 %
Качество диапазона 100.0 %
CRC копии 7BD15809
Копирование... OK

Ошибок не произошло

Конец отчёта


Exact Audio Copy V0.99 prebeta 4 from 23. January 2008

Отчёт EAC об извлечении, выполненном 14. июля 2009, 14:13

Elvis Presley / Elvis Country

Дисковод: ASUS DRW-2014L1T Adapter: 2 ID: 2

Режим чтения : Достоверность
Использование точного потока : Да
Отключение кэша аудио : Да
Использование указателей C2 : Нет

Коррекция смещения при чтении : 6
Способность читать области Lead-in и Lead-out : Нет
Заполнение пропущенных сэмплов тишиной : Да
Удаление блоков с тишиной в начале и конце : Нет
При вычислениях CRC использовались нулевые сэмплы : Нет
Интерфейс : Встроенный Win32-интерфейс для Win NT/2000

Выходной формат : Monkey's Audio Lossless Encoder v3.99 DLL
Формат сэмплов : High Lossless Compression

TOC извлечённого CD

Трек | Старт | Длительность | Начальный сектор | Конечный сектор
---------------------------------------------------------------------
1 | 0:00.32 | 2:18.15 | 32 | 10396
2 | 2:18.47 | 4:07.13 | 10397 | 28934
3 | 6:25.60 | 1:58.30 | 28935 | 37814
4 | 8:24.15 | 3:09.42 | 37815 | 52031
5 | 11:33.57 | 4:32.05 | 52032 | 72436
6 | 16:05.62 | 2:50.65 | 72437 | 85251
7 | 18:56.52 | 3:10.08 | 85252 | 99509
8 | 22:06.60 | 3:03.72 | 99510 | 113306
9 | 25:10.57 | 2:33.65 | 113307 | 124846
10 | 27:44.47 | 3:19.28 | 124847 | 139799
11 | 31:04.00 | 3:56.32 | 139800 | 157531
12 | 35:00.32 | 3:51.73 | 157532 | 174929

Характеристики диапазона извлечения и сообщения об ошибках

Выбранный диапазон

Имя файла N:Музыка на разбор!! Extract !!The Original Elvis Presley CollectionCD 36Elvis Presley-1970-Elvis Country.ape

Пиковый уровень 94.2 %
Качество диапазона 99.9 %
CRC копии 1DB2E50A
Копирование... OK

Ошибок не произошло

Конец отчёта


Exact Audio Copy V0.99 prebeta 4 from 23. January 2008

Отчёт EAC об извлечении, выполненном 14. июля 2009, 14:20

Elvis Presley / Love Letters From Elvis

Дисковод: ASUS DRW-2014L1T Adapter: 2 ID: 2

Режим чтения : Достоверность
Использование точного потока : Да
Отключение кэша аудио : Да
Использование указателей C2 : Нет

Коррекция смещения при чтении : 6
Способность читать области Lead-in и Lead-out : Нет
Заполнение пропущенных сэмплов тишиной : Да
Удаление блоков с тишиной в начале и конце : Нет
При вычислениях CRC использовались нулевые сэмплы : Нет
Интерфейс : Встроенный Win32-интерфейс для Win NT/2000

Выходной формат : Monkey's Audio Lossless Encoder v3.99 DLL
Формат сэмплов : High Lossless Compression

TOC извлечённого CD

Трек | Старт | Длительность | Начальный сектор | Конечный сектор
---------------------------------------------------------------------
1 | 0:00.00 | 2:54.20 | 0 | 13069
2 | 2:54.20 | 2:29.55 | 13070 | 24299
3 | 5:24.00 | 3:02.52 | 24300 | 38001
4 | 8:26.52 | 4:37.08 | 38002 | 58784
5 | 13:03.60 | 2:57.65 | 58785 | 72124
6 | 16:01.50 | 2:51.22 | 72125 | 84971
7 | 18:52.72 | 3:17.15 | 84972 | 99761
8 | 22:10.12 | 2:34.05 | 99762 | 111316
9 | 24:44.17 | 2:26.45 | 111317 | 122311
10 | 27:10.62 | 2:50.45 | 122312 | 135106
11 | 30:01.32 | 3:11.05 | 135107 | 149436

Характеристики диапазона извлечения и сообщения об ошибках

Выбранный диапазон

Имя файла N:Музыка на разбор!! Extract !!The Original Elvis Presley CollectionCD 37Elvis Presley-1971-Love Letters From Elvis.ape

Пиковый уровень 95.9 %
Качество диапазона 100.0 %
CRC копии 0DB228C3
Копирование... OK

Ошибок не произошло

Конец отчёта


Exact Audio Copy V0.99 prebeta 4 from 23. January 2008

Отчёт EAC об извлечении, выполненном 14. июля 2009, 14:29

Elvis Presley / The Wonderful World Of Christmas

Дисковод: ASUS DRW-2014L1T Adapter: 2 ID: 2

Режим чтения : Достоверность
Использование точного потока : Да
Отключение кэша аудио : Да
Использование указателей C2 : Нет

Коррекция смещения при чтении : 6
Способность читать области Lead-in и Lead-out : Нет
Заполнение пропущенных сэмплов тишиной : Да
Удаление блоков с тишиной в начале и конце : Нет
При вычислениях CRC использовались нулевые сэмплы : Нет
Интерфейс : Встроенный Win32-интерфейс для Win NT/2000

Выходной формат : Monkey's Audio Lossless Encoder v3.99 DLL
Формат сэмплов : High Lossless Compression

TOC извлечённого CD

Трек | Старт | Длительность | Начальный сектор | Конечный сектор
---------------------------------------------------------------------
1 | 0:00.33 | 2:48.60 | 33 | 12692
2 | 2:49.18 | 2:11.05 | 12693 | 22522
3 | 5:00.23 | 2:50.12 | 22523 | 35284
4 | 7:50.35 | 2:20.23 | 35285 | 45807
5 | 10:10.58 | 1:59.37 | 45808 | 54769
6 | 12:10.20 | 2:43.68 | 54770 | 67062
7 | 14:54.13 | 3:50.32 | 67063 | 84344
8 | 18:44.45 | 2:54.28 | 84345 | 97422
9 | 21:38.73 | 2:14.72 | 97423 | 107544
10 | 23:53.70 | 7:20.30 | 107545 | 140574
11 | 31:14.25 | 2:28.60 | 140575 | 151734
12 | 33:43.10 | 2:54.70 | 151735 | 164854
13 | 36:38.05 | 3:44.20 | 164855 | 181674

Характеристики диапазона извлечения и сообщения об ошибках

Выбранный диапазон

Имя файла N:Музыка на разбор!! Extract !!The Original Elvis Presley CollectionCD 38Elvis Presley-1971-The Wonderful World Of Christmas.ape

Пиковый уровень 91.8 %
Качество диапазона 100.0 %
CRC копии C5286BC7
Копирование... OK

Ошибок не произошло

Конец отчёта


Exact Audio Copy V0.99 prebeta 4 from 23. January 2008

Отчёт EAC об извлечении, выполненном 14. июля 2009, 14:35

Elvis Presley / Elvis Now

Дисковод: ASUS DRW-2014L1T Adapter: 2 ID: 2

Режим чтения : Достоверность
Использование точного потока : Да
Отключение кэша аудио : Да
Использование указателей C2 : Нет

Коррекция смещения при чтении : 6
Способность читать области Lead-in и Lead-out : Нет
Заполнение пропущенных сэмплов тишиной : Да
Удаление блоков с тишиной в начале и конце : Нет
При вычислениях CRC использовались нулевые сэмплы : Нет
Интерфейс : Встроенный Win32-интерфейс для Win NT/2000

Выходной формат : Monkey's Audio Lossless Encoder v3.99 DLL
Формат сэмплов : High Lossless Compression

TOC извлечённого CD

Трек | Старт | Длительность | Начальный сектор | Конечный сектор
---------------------------------------------------------------------
1 | 0:00.33 | 2:49.37 | 33 | 12744
2 | 2:49.70 | 1:52.08 | 12745 | 21152
3 | 4:42.03 | 4:31.07 | 21153 | 41484
4 | 9:13.10 | 3:17.23 | 41485 | 56282
5 | 12:30.33 | 3:59.07 | 56283 | 74214
6 | 16:29.40 | 3:56.28 | 74215 | 91942
7 | 20:25.68 | 2:57.15 | 91943 | 105232
8 | 23:23.08 | 3:18.00 | 105233 | 120082
9 | 26:41.08 | 2:41.62 | 120083 | 132219
10 | 29:22.70 | 3:12.38 | 132220 | 146657

Характеристики диапазона извлечения и сообщения об ошибках

Выбранный диапазон

Имя файла N:Музыка на разбор!! Extract !!The Original Elvis Presley CollectionCD 39Elvis Presley-1972-Elvis Now.ape

Пиковый уровень 93.7 %
Качество диапазона 100.0 %
CRC копии 16103CF5
Копирование... OK

Ошибок не произошло

Конец отчёта


Exact Audio Copy V0.99 prebeta 4 from 23. January 2008

Отчёт EAC об извлечении, выполненном 14. июля 2009, 14:46

Elvis Presley / He Touched Me

Дисковод: ASUS DRW-2014L1T Adapter: 2 ID: 2

Режим чтения : Достоверность
Использование точного потока : Да
Отключение кэша аудио : Да
Использование указателей C2 : Нет

Коррекция смещения при чтении : 6
Способность читать области Lead-in и Lead-out : Нет
Заполнение пропущенных сэмплов тишиной : Да
Удаление блоков с тишиной в начале и конце : Нет
При вычислениях CRC использовались нулевые сэмплы : Нет
Интерфейс : Встроенный Win32-интерфейс для Win NT/2000

Выходной формат : Monkey's Audio Lossless Encoder v3.99 DLL
Формат сэмплов : High Lossless Compression

TOC извлечённого CD

Трек | Старт | Длительность | Начальный сектор | Конечный сектор
---------------------------------------------------------------------
1 | 0:00.33 | 2:40.62 | 33 | 12094
2 | 2:41.20 | 2:22.18 | 12095 | 22762
3 | 5:03.38 | 3:35.37 | 22763 | 38924
4 | 8:39.00 | 2:53.58 | 38925 | 51957
5 | 11:32.58 | 2:41.37 | 51958 | 64069
6 | 14:14.20 | 1:37.15 | 64070 | 71359
7 | 15:51.35 | 1:56.38 | 71360 | 80097
8 | 17:47.73 | 2:42.07 | 80098 | 92254
9 | 20:30.05 | 2:20.48 | 92255 | 102802
10 | 22:50.53 | 2:26.35 | 102803 | 113787
11 | 25:17.13 | 2:17.30 | 113788 | 124092
12 | 27:34.43 | 3:13.65 | 124093 | 138632

Характеристики диапазона извлечения и сообщения об ошибках

Выбранный диапазон

Имя файла N:Музыка на разбор!! Extract !!The Original Elvis Presley CollectionCD 40Elvis Presley-1972-He Touched Me.ape

Пиковый уровень 100.0 %
Качество диапазона 100.0 %
CRC копии 107E0C14
Копирование... OK

Ошибок не произошло

Конец отчёта


Exact Audio Copy V0.99 prebeta 4 from 23. January 2008

Отчёт EAC об извлечении, выполненном 14. июля 2009, 15:12

Elvis Presley / Elvis: As Recorded At Madison Square Garden

Дисковод: ASUS DRW-2014L1T Adapter: 2 ID: 2

Режим чтения : Достоверность
Использование точного потока : Да
Отключение кэша аудио : Да
Использование указателей C2 : Нет

Коррекция смещения при чтении : 6
Способность читать области Lead-in и Lead-out : Нет
Заполнение пропущенных сэмплов тишиной : Да
Удаление блоков с тишиной в начале и конце : Нет
При вычислениях CRC использовались нулевые сэмплы : Нет
Интерфейс : Встроенный Win32-интерфейс для Win NT/2000

Выходной формат : Monkey's Audio Lossless Encoder v3.99 DLL
Формат сэмплов : High Lossless Compression

TOC извлечённого CD

Трек | Старт | Длительность | Начальный сектор | Конечный сектор
---------------------------------------------------------------------
1 | 0:00.33 | 1:03.45 | 33 | 4802
2 | 1:04.03 | 2:14.30 | 4803 | 14882
3 | 3:18.33 | 2:46.50 | 14883 | 27382
4 | 6:05.08 | 3:26.27 | 27383 | 42859
5 | 9:31.35 | 2:03.73 | 42860 | 52157
6 | 11:35.33 | 4:12.10 | 52158 | 71067
7 | 15:47.43 | 2:58.70 | 71068 | 84487
8 | 18:46.38 | 1:40.40 | 84488 | 92027
9 | 20:27.03 | 0:59.40 | 92028 | 96492
10 | 21:26.43 | 1:44.27 | 96493 | 104319
11 | 23:10.70 | 1:51.00 | 104320 | 112644
12 | 25:01.70 | 1:40.03 | 112645 | 120147
13 | 26:41.73 | 2:36.45 | 120148 | 131892
14 | 29:18.43 | 1:34.10 | 131893 | 138952
15 | 30:52.53 | 1:49.72 | 138953 | 147199
16 | 32:42.50 | 4:21.70 | 147200 | 166844
17 | 37:04.45 | 3:10.30 | 166845 | 181124
18
Музыка / Lossless / Разное
СКАЧАТЬ БЕСПЛАТНО  [6.0 GB]


17
янв
2011

Elvis Presley - The Original Elvis Presley Collection (Box-Set 50CD) Part One (CD1-25)[1956-1995, Rock Roll, APE]

Формат: APE, (image + .cue), lossless
Год выпуска: 1956-1995
Страна: USA
Жанр: Rock & Roll
Издатель: BMG Music Nederland BV
Год издания: 1996
Продолжительность: 14:28:54
Описание: 1956 - Elvis Presley 00
Трэклист: 01. Blue Suede Shoes 02:01 02. I'm Counting on You 02:24 03. I Got a Woman 02:26 04. One-Sided Love Affair 02:11 05. I Love You Because 02:44 06. Just Because 02:34 07. Tutti Frutti 01:59 08. Tryin' to Get to You 02:34 09. I'm Gonna Sit Right Down and Cry (Over You) 02:01 10. I'll Never Let You Go (Little Darlin') 02:24 11. Blue Moon 02:41 12. Money Honey 02:33 1956 - Elvis 00 Тр ...

17
янв
2012

Elvis Presley - The Real... Elvis. The Ultimate Elvis Presley Collection [2011, Rock, Rockabilly, MP3]

Формат: MP3, tracks, 320kbps
Год выпуска: 2011
Страна: USA
Жанр: Rock, Rockabilly
Продолжительность: 03:35:54
Описание: CD1 01 - Jailhouse Rock 02 - All Shook Up 03 - Hound Dog 04 - Blue Suede Shoes 05 - A Big Hunk O' Love 06 - That's All Right 07 - Don't Be Cruel 08 - Tutti Frutti 09 - Long Tall Sally 10 - Shake, Rattle And Roll 11 - Got A Lot O' Livin' To Do 12 - Rip It Up 13 - I Got Stung 14 - Wear My Ring Around Your Neck 15 - Mean Woman Blues 16 - King Creole 17 - Too Much 18 - (You're So Square) Baby I Don't Care 19 - Hard Headed Woman 20 - Mystery Train 21 - I Don't Care If The Sun Don ...

26
мар
2016

Elvis Presley The Album Collection (60CD Box Set) [2016, Rock, Blues, Pop, Folk, World, Country, Stage Screen, FLAC]

Формат: FLAC, (image + .cue), lossless
Год выпуска: 2016
Страна: USA
Жанр: Rock, Blues, Pop, Folk, World, & Country, Stage & Screen
Продолжительность: 33:21:37
Описание: CD 1 1956 Elvis Presley 00 01. Blue Suede Shoes January 30,1956. RCA Victor Recording Studios (Studio 1), New York Single 20/47-6636, released August 31, 1956 02. I'm Counting on You January 11,1956. RCA Victor Studio, Nashville Single 20/47-6637, released August 31,1956 03. I Got a Woman January 10,1956. RCA Victor Studio, Nashville Single 20/47-6637, released August 31, 1956 04. One-Sided Love Affair January 30,1956. RCA Vic ...

22
окт
2016

Elvis Presley - The Wonder Of You: Elvis Presley With The Royal Philharmonic Orchestra [2016, Rock Roll, Gospel , Rockabilly, MP3]

Формат: MP3, tracks, 320kbps
Год выпуска: 2016
Страна: USA
Жанр: Rock & Roll, Gospel, Rockabilly
Продолжительность: 00:51:15
Описание: 01. A Big Hunk o' Love [02:21] 02. I've Got a Thing About You Baby [02:34] 03. Suspicious Minds [03:44] 04. Don't [03:09] 05. I Just Can't Help Believin' [04:33] 06. Just Pretend [04:05] 07. Love Letters [02:54] 08. Amazing Grace [03:45] 09. Starting Today [03:09] 10. Kentucky Rain [04:02] 11. Memories [03:14] 12. Let It Be Me [03:24] 13. Always on My Mind [03:37] 14. The Wonder of You [02:31] 15. Just Pretend [04:05]
Доп. информация: http://www.elvisthemusic ...

23
фев
2013

Elvis Presley - Brilliant Elvis Collection [2013, Rock, Rock & Roll, Country, Ballad, Gospel, Soundtrack, FLAC]

Формат: FLAC, (image + .cue), lossless
Год выпуска: 2013
Страна: USA
Жанр: Rock, Rock & Roll, Country, Ballad, Gospel, Soundtrack
Продолжительность: 06:34:00
Описание: Rock And Roll (2CD Set) 01Disc One 00Трeклист: 01. Blue Suede Shoes 02:40 02. That's Allright Mama 02:15 03. Good Rockin' Tonight 02:01 04. Jailhouse Rock 02:33 05. Long Tall Sally 03:07 06. Stuck On You 02:45 07. Tutti Frutti 02:19 08. Shake, Rattle And Roll 02:34 09. I Got Stung 02:24 10. Baby Let's Play House 02:26 11. Dirty, Dirty Feeling 02:36 12. In Your Arms 02:00 13. Rip It Up 02:20 14. Ready Teddy 02:17 ...

02
мая
2007

Elvis Presley - The Essential Elvis Presley (2007) [mp3, 166]

Страна: usa
Год выпуска: 2007
Жанр: Rock & Roll
Продолжительность: 01:52:33
Формат: MP3
Битрейт аудио: 166 kbps
Трэклист: CD 1 01. That's All Right 1:57 02. Baby, Let's Play House 2:17 03. Mystery Train 2:29 04. Heartbreak Hotel 2:09 05. I Was The One 2:33 06. Blue Suede Shoes 2:00 07. Hound Dog 2:17 08. Don't Be Cruel 2:03 09. Love Me Tender 2:42 10. All Shook Up 1:59 11. (There'll Be) Peace In The Valley (For Me) 3:22 12. Jailhouse Rock 2:36 13. Trouble 2:18 14. Fever 3:33 15. It's Now Or Never 3:16 16. Reconsider Baby 3:44 17. Are You Lonesome Tonight 3:08 18. Little Sister 2:32 19. Follow ...

23
фев
2016

VA - The Many Faces Of Elvis: A Journey Through The Inner World Of Elvis Presley (3CD) [2015, Rock Roll, Country, Honky Tonk, Soul, Gospel, R B, FLAC]

Формат: FLAC, (image + .cue), lossless
Год выпуска: 2015
Страна: USA
Жанр: Rock & Roll, Country, Honky Tonk, Soul, Gospel, R&B
Продолжительность: 01:51:01
Описание: CD 1 A Small Circle Of Friends 00 01. Bill Black's Combo - Work With Me, Anne 02. The Blue Moon Boys (Elvis, Scotty & Bill) - Maybellene 03. Scotty Moore - Have Guitar, Will Travel 04. The Jordanaires - Dig A Little Deeper 05. The Blue Moon Boys (Elvis, Scotty & Bill) - Blue Moon Of Kentucky 06. Bill Black's Combo - Smokie (Part 2) 07. The Million Dollar Quartet Feat. Elvis, Carl Perkins, Jerry Lee & Johnny Cash - Don't Be Cruel 0 ...

17
ноя
2013

Elvis Presley - The Nation's Favourite Elvis Songs [Deluxe Edition] [2013, Rock Roll, MP3]

Формат: MP3, tracks, 320kbps
Год выпуска: 2013
Страна: США
Жанр: Rock & Roll
Продолжительность: 02:02:59
Описание: CD1 (00 01. Suspicious Minds 02. Always On My Mind 03. Love Me Tender 04. In the Ghetto 05. Viva Las Vegas 06. Jailhouse Rock 07. Hound Dog 08. Blue Suede Shoes 09. All Shook Up 10. Are You Lonesome Tonight? 11. The Wonder Of You 12. It's Now Or Never 13. Don't Be Cruel 14. Heartbreak Hotel 15. If I Can Dream 16. An American Trilogy 17. King Creole 18. Return To Sender 19. A Little Less Conversation (JXL Remix) 20. Can't Help Falling In Love CD2 (01 01. (Let Me Be Your) Teddy Be ...

30
сен
2017

Elvis Presley - Elvis Singing Flaming Star And Others [24 bit 96 khz] [1968, Rock Roll, Rhythm Blues, Ballad, FLAC]

Формат: FLAC, tracks, lossless
Год выпуска: 1968
Страна: USA
Жанр: Rock & Roll, Rhythm & Blues, Ballad
Продолжительность: 00:20:46
Описание: 01. Flaming Star (2:30) 02. Wonderful World (2:15) 03. Night Life (1:54) 04. All I Needed Was The Rain (1:50) 05. Too Much Monkey Business (2:33) 06. The Yellow Rose Of Texas / The Eyes Of Texas (2:58 ) 07. She's A Machine (1:40) 08. Do The Vega (2:25) 09. Tiger Man (Live) (2:40)
Доп. информация: Logfoobar2000 1.3.9 / Dynamic Range Meter 1.1.1 log date: 2017-09-30 21:03:50 -------------------------------------------------------------------------------- ...

07
окт
2017

Elvis Presley - Christmas with Elvis and The Royal Philharmonic Orchestra [24 bit 96 khz] [2017, Pop, Rock, Rock 'n' Roll, Christmas, FLAC]

Формат: FLAC, tracks, lossless
Год выпуска: 2017
Страна: USA
Жанр: Pop, Rock, Rock 'n' Roll, Christmas
Продолжительность: 00:36:13
Описание: 01. Santa Claus Is Back In Town (02:29) 02. White Christmas (02:42) 03. Here Comes Santa Claus (Right Down Santa Claus Lane) (02:03) 04. Merry Christmas Baby (04:51) 05. Blue Christmas (02:10) 06. I'll Be Home for Christmas (03:18 ) 07. Winter Wonderland (02:21) 08. Santa Bring My Baby Back (To Me) (01:53) 09. Silver Bells (02:56) 10. Oh Little Town of Bethlehem (02:50) 11. O Come All Ye Faithful (03:04) 12. The First Noel (02:54) 13. Silent Night (02:41 ...

07
июл
2007

Elvis Presley Альбомы:BLUE HAWAII, Elvis is back, G.I. BLUES, How great thou art...

Страна: USA
Жанр: Rock & Roll
Формат: MP3
Трэклист:
АЛЬБОМЫ: BLUE HAWAII (46:39)
Битрейт аудио: 192 кбит/сек 1. Blue Hawaii 2. Almost Always True 3. Aloha Oe 4. No More 5. Can't Help Falling In Love 6. Rock-A-Hula Baby 7. Moonlight Swim 8. Ku-U-I-Po 9. Ito Eats 10. Slicin' Sand 11. Hawaiian Sunset 12. Beach Boy Blues 13. Island Of Love 14. Hawaiian Wedding Song 15. Steppin' Out Of Line 16. Can't Help Falling In Love 17. Slicin' Sand (Alternate take 4) 18. No More (Alternate take 7) 19. Rock-A-Hula Baby (Alternate take 1) 20. Beach Boy Blues (Movie version) 21. Steppin' Out Of Line (Movie ver ...

09
июн
2008

Elvis Presley - Elvis At The Movies (CD1, CD2)

Страна: USA
Год выпуска: 2007
Жанр: Рок
Продолжительность: 80 мин.
Формат: MP3
Битрейт: 256
Трэклист: CD1: 1. Love Me Tender (2003 Sony Remaster) 2. Loving You (2003 Sony Remaster) 3. Jailhouse Rock (2003 Sony Remaster) 4. Treat Me Nice (2003 Sony Remaster) 5. Hard Headed Woman (2003 Sony Remaster) 6. King Creole (2003 Sony Remaster) 7. G.I. Blues (Remastered At The Movies Version) 8. Frankfort Special (Remastered At The Movies Version) 9. Flaming Star 10. Lonely Man (Remastered The Hits O-Card Version) 11. Can't Help Falling In Love (Remastered At The Movies Version) 12. Blue Hawaii (Remaster ...

07
фев
2015

Elvis Presley - Elvis Best Hits In Japan [2CD] [2007, Rock Roll, Gospel music, Rockabilly, FLAC]

Формат: FLAC, tracks, lossless
Год выпуска: 2007
Страна: USA
Жанр: Rock & Roll, Gospel music, Rockabilly
Продолжительность: 01:30:54
Описание: Elvis Best Hits In Japan 01 01. Heartbreak Hotel (2:08 ) 02. I Want You, I Need You, I Love You (2:40) 03. Hound Dog (2:13) 04. Don't Be Cruel (2:03) 05. Love Me Tender (2:42) 06. Jailhouse Rock (2:35) 07. Wear My Ring Around Your Neck (2:14) 08. It's Now Or Never (3:15) 09. Are You Lonesome Tonight (3:07) 10. G.I. Blues (2:36) 11. Surrender (1:52) 12. Crying In The Chapel (2:23) 13. Blue Hawaii (2:36) 14. Can't Help Falling In Love (3:02) ...

10
июн
2010

Elvis Presley - Grand Collection [2008, Rock'n'Roll, MP3]

Формат: MP3, tracks, 320kbps
Год выпуска: 2008
Страна: USA
Жанр: Rock'n'Roll
Продолжительность: 01:19:57
Трэклист: 1 Heartbreak Hotel 2 Don't Be Cruel 3 Hound Dog 4 Love Me Tender 5 All Shook Up 6 Jailhouse Rock 7 Don't 8 Hard Headed Woman 9 One Night 10 It's Now Or Newer 11 Are You Lonesome Tonight? 12 Wooden Heart 13 Can't Help Falling In Love 14 Return To Sender 15 She's Not You 16 Viva Las Vegas 17 I Gotta Know 18 Surrender 19 Fever 20 Loving You 21 The Girl Of My Best Friend 22 Stuck On You 23 Too Much 24 Wear My Ring Around Your Neck 25 King Creole 26 A Big Hunk O'Love 27 Love Letters 2 ...

22
авг
2013

Elvis Presley - Elvis At Stax (3CD) [2013, Rock'n'Roll, MP3]

Формат: MP3, tracks, 320kbps
Год выпуска: 2013
Страна: США
Жанр: Rock'n'Roll
Продолжительность: 02:53:53
Описание: CD1 (00 01. I Got a Feelin in My Body 02. Find Out What s Happening 03. Promised Land 04. For Ol Times Sake 05. I ve Got a Thing About You Baby 06. It s Midnight 07. If You Talk in Your Sleep 08. Loving Arms 09. You Asked Me To 10. Good Time Charlie s Got the Blues 11. Talk About the Good Times 12. There s a Honky Tonk Angel 13. She Wears My Ring 14. Three Corn Patches 15. I Got a Feelin in My Body 16. If You Don t Come Back 17. Promised Land CD2 (01 01. Mr. Songman 02. Your Love ...