17
янв
2011

Elvis Presley - The Original Elvis Presley Collection (Box-Set 50CD) Part One (CD1-25)[1956-1995, Rock Roll, APE]

Elvis Presley - The Original Elvis Presley Collection (Box-Set 50CD) Part One (CD1-25)

Формат: APE, (image + .cue), lossless
Год выпуска: 1956-1995
Страна: USA
Жанр: Rock & Roll
Издатель: BMG Music Nederland BV
Год издания: 1996
Продолжительность: 14:28:54
Описание:


Elvis Presley - The Original Elvis Presley Collection
Трэклист:

01. Blue Suede Shoes 02:01
02. I'm Counting on You 02:24
03. I Got a Woman 02:26
04. One-Sided Love Affair 02:11
05. I Love You Because 02:44
06. Just Because 02:34
07. Tutti Frutti 01:59
08. Tryin' to Get to You 02:34
09. I'm Gonna Sit Right Down and Cry (Over You) 02:01
10. I'll Never Let You Go (Little Darlin') 02:24
11. Blue Moon 02:41
12. Money Honey 02:33

Elvis Presley - The Original Elvis Presley Collection
Трэклист:

01. Rip It Up 01:57
02. Love Me 02:45
03. When My Blue Moon Turns To Gold Again 02:22
04. Long Tall Sally 01:54
05. First In Line 03:25
06. Paralyzed 02:24
07. So Glad You're Mine 02:22
08. Old Shep 04:11
09. Ready Teddy 01:58
10. Anyplace Is Paradise 02:27
11. How's The World Treating You 02:26
12. How Do You Think I Feel 02:10

Elvis Presley - The Original Elvis Presley Collection
Трэклист:

01. Mean Woman Blues 02:14
02. (Let Me Be Your) Teddy Bear 01:49
03. Loving You 02:16
04. Got A Lot O' Livin' To Do 02:34
05. Lonesome Cowboy 03:04
06. Hot Dog 01:13
07. Party 01:30
08. Blueberry Hill 02:41
09. True Love 02:10
10. Don't Leave Me Now 02:01
11. Have I Told You Lately (That I Love You) 02:33
12. I Need You So 02:41

Elvis Presley - The Original Elvis Presley Collection
Трэклист:

01. Santa Claus Is Back In Town 02:22
02. White Christmas 02:44
03. Here Comes Santa Claus (Right Down Santa Claus Lane) 01:56
04. I'll Be Home For Christmas 01:55
05. Blue Christmas 02:09
06. Santa Bring My Baby Back (To Me) 01:54
07. Oh Little Town Of Bethlehem 02:36
08. Silent Night 02:26
09. (There'll Be) Peace In The Valley (For Me) 03:23
10. I Believe 02:05
11. Take My Hand, Precious Lord 03:18
12. It Is No Secret (What God Can Do) 03:59

Elvis Presley - The Original Elvis Presley Collection
Трэклист:

01. Hound Dog 02:18
02. Loving You 02:16
03. All Shook Up 01:59
04. Heartbreak Hotel 02:08
05. Jailhouse Rock 02:27
06. Love Me 02:45
07. Too Much 02:33
08. Don't Be Cruel 02:04
09. That's When Your Heartaches Begin 03:25
10. (Let Me Be Your) Teddy Bear 01:49
11. Love Me Tender 02:46
12. Treate Me Nice 02:14
13. Anyway You Want Me (That's How I Will Be) 02:16
14. I Want You, I Need You, I Love You 02:40

Elvis Presley - The Original Elvis Presley Collection
Трэклист:

01. King Creole 02:07
02. As Long as I Have You 01:51
03. Hard Headed Woman 01:55
04. Trouble 02:19
05. Dixieland Rock 01:48
06. Don't Ask Me Why 02:07
07. Lover Doll 02:12
08. Crawfish 01:52
09. Young Dreams 02:24
10. Steadfast, Loyal and True 01:19
11. New Orleans 02:01

Elvis Presley - The Original Elvis Presley Collection
Трэклист:

01. That's All Right 01:58
02. Lawdy Miss Clawdy 02:10
03. Mystery Train 02:30
04. Playing For Keeps 02:55
05. Poor Boy 02:15
06. Money Honey 02:36
07. I'm Counting On You 02:25
08. My Baby Left Me 02:11
09. I Was The One 02:30
10. Shake Rattle & Roll 02:31
11. I'm Left, You're Right, She's Gone 02:38
12. You're A Heartbreaker 02:13
13. Tryin' To Get To You 02:35
14. Blue Suede Shoes 01:58

Elvis Presley - The Original Elvis Presley Collection
Трэклист:

01. Blue Moon Of Kentucky 02:07
02. Milkcow Blues Boogie 02:40
03. Baby Lets Play House 02:18
04. I Don't Care If The Sun Don't Shine 02:29
05. Tutti Frutti 02:01
06. I'm Gonna Sit Right Down And Cry (Over You) 02:04
07. I Got A Woman 02:28
08. Good Rockin' Tonight 02:15
09. Is It So Strange 02:30
10. We're Gonna Move 02:31
11. Blue Moon 02:34
12. Just Because 02:34
13. One Sided Love Affair 02:13
14. Let Me 02:09

Elvis Presley - The Original Elvis Presley Collection
Трэклист:

01. A Big Hunk Of Love 02:15
02. My Wish Came True 02:34
03. (Now And Then There's) A Fool Such As I 02:31
04. I Need Your Love Tonight 02:06
05. Don't 02:50
06. I Beg Of You 01:54
07. Santa Bring My Baby Back 01:54
08. Party 01:33
09. Paralyzed 02:25
10. One Night 02:34
11. I Got Stung 01:51
12. King Creole 02:09
13. Wear My Ring Around Your Neck 02:15
14. Doncha' Think It's Time 01:57

Elvis Presley - The Original Elvis Presley Collection
Трэклист:

01. Make Me Know It 02:03
02. Fever 03:35
03. The Girl Of My Best Friend 02:25
04. I Will Be Home Again 02:37
05. Dirty Dirty Feeling 01:36
06. Thrill Of Your Love 03:02
07. Soldier Boy 03:04
08. Such A Night 03:02
09. It Feels So Right 02:12
10. Girl Next Door Went A'walking 02:16
11. Like A Baby 02:42
12. Reconsider Baby 03:41

Elvis Presley - The Original Elvis Presley Collection
Трэклист:

01. Flaming Star 02:28
02. Summer Kisses Winter Tears 02:21
03. Britches 01:42
04. A Cane And A High Starched Collar 01:48
05. Black Star 02:31
06. Sumer Kisses Winter Tears (Movie Version) 01:33
07. Flaming Star (End Title Version) 00:41
08. Wild In The Country 01:53
09. I Slipped, I Stumbled, I Fell 01:36
10. Lonely Man 02:45
11. In My Way 01:23
12. Forget Me Never 01:38
13. Lonely Man (Solo) 02:02
14. I Slipped, I Stumbled, I Fell (Alternate Master) 01:38
15. Follow That Dream 01:39
16. Angel 02:40
17. What A Wonderful Life 02:28
18. I'm Not The Marrying Kind 01:52
19. A Whistling Tune 02:14
20. Sound Advice 01:46

Elvis Presley - The Original Elvis Presley Collection
Трэклист:

01. Tonight Is So Right For Love 02:17
02. What's She Really Like 02:20
03. Frankfort Special 02:59
04. Wooden Heart 02:07
05. G.I. Blues 02:40
06. Pocketful Of Rainbows 02:38
07. Shoppin' Around 02:27
08. Big Boots 01:35
09. Didja' Ever 02:40
10. Blue Suede Shoes 02:10
11. Doin' The Best I Can 03:15
12. Tonight's Alright For Love 01:22

Elvis Presley - The Original Elvis Presley Collection
Трэклист:

01. His Hand In Mine 03:21
02. (I'm) Gonna Walk Dem Golden Stairs 01:54
03. In My Father's House 02:07
04. Milky White Way 02:16
05. Known Only To Him 02:11
06. I Believe In The Man In The Sky 02:16
07. Joshua Fit The Battle 02:41
08. He Knows Just What I Need 02:14
09. Swing Down Sweet Chariot 02:35
10. Mansion Over The Hilltop 03:00
11. If We Never Meet Again 02:02
12. Working On The Building 01:56
13. It Is No Secret 03:56
14. You'll Never Walk Alone 02:41
15. Who Am I [3:20]

Elvis Presley - The Original Elvis Presley Collection
Трэклист:

01. There's Always Me 02:19
02. Give Me The Right 02:37
03. It's A Sin 02:44
04. Sentimental Me 02:35
05. Starting Today 02:07
06. Gently 02:18
07. I'm Comin' Home 02:24
08. In Your Arms 01:51
09. Put The Blame On Me 01:59
10. Judy 02:10
11. I Want You With Me 02:16
12. I Slipped, I Stumbled, I Fell 01:36

Elvis Presley - The Original Elvis Presley Collection
Трэклист:

01. Blue Hawaii 02:39
02. Almost Always True 02:25
03. Aloha Oe 01:57
04. No More 02:25
05. Can't Help Falling In Love 03:05
06. Rock-A-Hula Baby 02:02
07. Moonlight Swim 02:22
08. Ku-U-I-Po 02:25
09. Ito Eats 01:26
10. Slicin' Sand 01:38
11. Hawaiian Sunset 02:36
12. Beach Boy Blues 02:06
13. Island Of Love 02:42
14. Hawaiian Wedding Song 02:51

Elvis Presley - The Original Elvis Presley Collection
Трэклист:

01. Kiss Me Quick 02:49
02. Just For Old Times's Sake 02:11
03. Gonna Get Back Home Somehow 02:31
04. Easy Question 02:22
05. Steppin' Out Of Line 01:55
06. I'm Yours 02:23
07. Something Blue 03:01
08. Suspicion 02:37
09. I Feel That I've Known You Forever 01:42
10. Night Rider 02:11
11. Fountain Of Love 02:17
12. That's Someone You Never Forget 02:48

Elvis Presley - The Original Elvis Presley Collection
Трэклист:

01. King Of The Whole Wide World 02:43
02. This Is Living 01:45
03. Riding The Rainbow 01:39
04. Home Is Where The Heart Is 02:34
05. I Got Lucky 02:12
06. A Whistling Tune 03:19
07. Girls! Girls! Girls! 02:32
08. I Don't Wanna Be Tied 02:06
09. Where Do You Come From 02:07
10. I Don't Want To 02:40
11. We'll Be Together 02:17
12. A Boy Like Me, A Girl Like You 02:20
13. Earth Boy 02:22
14. Return To Sender 02:08
15. Because Of Love 02:32
16. Thanks To The Rolling Sea 01:38
17. Song Of The Shrimp 02:21
18. The Walls Have Ears 02:31
19. We're Coming In Loaded 01:31
20. Mama 01:00
21. Plantation Rock 01:51
22. Dainty Little Moonbeams 00:57
23. Girls! Girls! Girls! (End Title Version) 00:54

Elvis Presley - The Original Elvis Presley Collection
Трэклист:

01. Beyond The Bend 01:52
02. Relax 02:21
03. Take Me To The Fair 01:36
04. They Remind Me Too Much Of You 02:32
05. One Broken Heart For Sale (Film Version) 02:25
06. I'm Falling In Love Tonight 01:41
07. Cotton Candy Land 01:35
08. A World Of Our Own 02:16
09. How Would You Like To Be 03:28
10. Happy Ending 02:10
11. One Broken Heart For Sale 01:51
12. Fun In Acapulco 02:30
13. Vino, Diner Y Amor 01:56
14. Mexico 02:00
15. El Toro 02:43
16. Marguerita 02:42
17. The Bullfighter Was A Lady 02:04
18. (There's) No Room To Rhumba In A Sports Car 01:53
19. I Think I'm Gonna Like It Here 02:53
20. Bossa Nova Baby 02:03
21. You Can't Say No In Acapulco 01:55
22. Guadalajara 02:43

Elvis Presley - The Original Elvis Presley Collection
Трэклист:

01. It's Now Or Never 03:18
02. Stuck On You 02:20
03. Fame And Fortune 02:32
04. I Gotta Know 02:17
05. Surrender 01:55
06. I Feel So Bad 02:58
07. Are You Lonesome Tonight 03:07
08. (Marie's The Name) His Latest Flame 02:08
09. Little Sister 02:31
10. Good Luck Charm 02:23
11. Anything That's Part Of You 02:04
12. She's Not You 02:08

Elvis Presley - The Original Elvis Presley Collection
Трэклист:

01. Kissin' Cousins (Nr. 2) 01:17
02. Smokey Mountain Boy 02:37
03. There's Gold In The Mountains 01:54
04. One Boy Two Little Girls 02:33
05. Catchin' On Fast 01:22
06. Tender Feeling 02:33
07. Anyone (Could Fall In Love With You) 02:30
08. Barefoot Ballad 02:26
09. Once Is Enough 02:18
10. Kissin' Cousins 02:15
11. Clambake 02:36
12. Who Needs Money 03:16
13. A House That Has Everything 02:14
14. Confidence 02:34
15. Hey, Hey, Hey 02:31
16. You Don't Know Me (Original Film Version) 02:13
17. The Girl I Never Loved 01:53
18. How Can You Lose What You Never Had 02:27
19. Clambake (Reprise) 00:24
20. Stay Away, Joe 01:39
21. Dominic 01:44
22. All I Needed Was The Rain 01:49
23. Goin' Home 02:29
24. Stay Away 02:21

Elvis Presley - The Original Elvis Presley Collection
Трэклист:

01. Viva Las Vegas 02:23
02. If You Think I Don't Need You 02:05
03. I Need Somebody To Lean On 02:52
04. You're The Boss (with Ann-Margret) 02:32
05. What'd I Say 03:03
06. Do The Vega 02:24
07. C'mon Everybody 02:18
08. The Lady Loves Me 03:43
09. Night Life 01:52
10. Today, Tomorrow And Forever 03:24
11. The Yellow Rose Of Texas/The Eyes Of Texas (Medley) 02:48
12. Santa Lucia (Traditional) 01:15
13. Roustabout 01:58
14. Little Egypt 02:17
15. Poison Ivy League 02:04
16. Hard Knocks 01:44
17. It's A Wonderful World 01:50
18. Big Love Big Heartache 01:59
19. One Track Heart 02:17
20. It's Carnival Time 01:34
21. Carny Town 01:21
22. There's A Brand New Day On The Horizon 02:02
23. Wheels On My Heels 01:19

Elvis Presley - The Original Elvis Presley Collection
Трэклист:

01. Harem Holiday 02:21
02. My Desert Serenade 01:49
03. Go East - Young Man 02:28
04. Mirage 02:27
05. Kismet 02:10
06. Shake That Tambourine 02:04
07. Hey Little Girl 02:17
08. Golden Coins 01:56
09. So Close, Yet So Far (From Paradise) 03:03
10. Animal Instinct 02:15
11. Wisdom Of The Ages 02:01
12. Girl Happy 02:09
13. Spring Fever 01:54
14. Fort Laudernale Chamber Of Commerce 01:33
15. Startin' Tonight 01:21
16. Wolf Call 01:28
17. Do Not Distrub 01:54
18. Cross My Heart And Hope To Die 01:57
19. The Meanest Girl In Town 01:57
20. Do The Clam 03:21
21. Puppet On A String 02:41
22. I've Got To Find My Baby 01:35

Elvis Presley - The Original Elvis Presley Collection
Трэклист:

01. Your Cheatin' Heart 02:26
02. Summer Kisses, Winter Tears 02:21
03. Finders Keepers, Losers Weepers 01:50
04. In My Way 01:23
05. Tomorrow Night 02:40
06. Memphis Tennessee 02:10
07. For The Millionth And The Last Time 02:08
08. Forget Me Never 01:37
09. Sound Advice 01:47
10. Santa Lucia 01:12
11. I Met Her Today 02:44
12. When It Rains, It Really Pours 01:48

Elvis Presley - The Original Elvis Presley Collection
Трэклист:

01. Frankie And Johnny 02:35
02. Come Along 01:53
03. Petunia The Gardener's Daughter 03:00
04. Chesay 01:39
05. What Every Woman Lives For 02:27
06. Look Out Broadway 01:41
07. Beginner's Luck 02:35
08. Down By The Riverside And When The Saints Go Marching In 01:57
09. Shout It Out 02:18
10. Hard Luck 02:52
11. Please Don't Stop Loving Me 02:04
12. Everybody Come Aboard 01:52
13. Paradise Hawaiian Style 02:40
14. Queenie Wahine's Papaya 01:35
15. Scratch My Back 02:16
16. Drums Of The Islands 02:35
17. Datin' 01:23
18. A Dog's Life 01:59
19. House Of Sand 02:05
20. Stop Where You Are 02:06
21. This Is My Heaven 02:36
22. Sand Castles 02:59

Elvis Presley - The Original Elvis Presley Collection
Трэклист:

01. Stop, Look And Listen 01:32
02. Adam And Evil 01:54
03. All That I Am 02:17
04. Never Say Yes 01:52
05. Am I Ready 02:24
06. Beach Shack 01:47
07. Spinout 02:34
08. Smorgasbord 01:59
09. I'll Be Back 02:04
10. Double Trouble 01:39
11. Baby, If You'll Give Me All Of Your Love 01:49
12. Could I Fall In Love 01:43
13. Long Legged Girl (With The Short Dress On) 01:28
14. City By Night 03:05
15. Old MacDonald 02:06
16. I Love Only One Girl 01:54
17. There Is So Much World To See 01:54
18. It Won't Be Long 01:44


Доп. информация:

Log EAC



Exact Audio Copy V0.99 prebeta 4 from 23. January 2008

Отчёт EAC об извлечении, выполненном 13. июля 2009, 0:16

Elvis Presley / Elvis Presley

Дисковод: ASUS DRW-2014L1T Adapter: 2 ID: 2

Режим чтения : Достоверность
Использование точного потока : Да
Отключение кэша аудио : Да
Использование указателей C2 : Нет

Коррекция смещения при чтении : 6
Способность читать области Lead-in и Lead-out : Нет
Заполнение пропущенных сэмплов тишиной : Да
Удаление блоков с тишиной в начале и конце : Нет
При вычислениях CRC использовались нулевые сэмплы : Нет
Интерфейс : Встроенный Win32-интерфейс для Win NT/2000

Выходной формат : Monkey's Audio Lossless Encoder v3.99 DLL
Формат сэмплов : High Lossless Compression

TOC извлечённого CD

Трек | Старт | Длительность | Начальный сектор | Конечный сектор
---------------------------------------------------------------------
1 | 0:00.00 | 2:01.22 | 0 | 9096
2 | 2:01.22 | 2:24.20 | 9097 | 19916
3 | 4:25.42 | 2:25.73 | 19917 | 30864
4 | 6:51.40 | 2:11.37 | 30865 | 40726
5 | 9:03.02 | 2:43.38 | 40727 | 52989
6 | 11:46.40 | 2:33.72 | 52990 | 64536
7 | 14:20.37 | 1:58.73 | 64537 | 73459
8 | 16:19.35 | 2:33.47 | 73460 | 84981
9 | 18:53.07 | 2:01.18 | 84982 | 94074
10 | 20:54.25 | 2:24.32 | 94075 | 104906
11 | 23:18.57 | 2:40.45 | 104907 | 116951
12 | 25:59.27 | 2:33.05 | 116952 | 128431

Характеристики диапазона извлечения и сообщения об ошибках

Выбранный диапазон

Имя файла N:Музыка на разбор!! Extract !!The Original Elvis Presley CollectionElvis Presley-1956-Elvis Presley.ape

Пиковый уровень 95.4 %
Качество диапазона 100.0 %
CRC копии E250092B
Копирование... OK

Ошибок не произошло

Конец отчёта


Exact Audio Copy V0.99 prebeta 4 from 23. January 2008

Отчёт EAC об извлечении, выполненном 13. июля 2009, 0:23

Elvis Presley / Elvis

Дисковод: ASUS DRW-2014L1T Adapter: 2 ID: 2

Режим чтения : Достоверность
Использование точного потока : Да
Отключение кэша аудио : Да
Использование указателей C2 : Нет

Коррекция смещения при чтении : 6
Способность читать области Lead-in и Lead-out : Нет
Заполнение пропущенных сэмплов тишиной : Да
Удаление блоков с тишиной в начале и конце : Нет
При вычислениях CRC использовались нулевые сэмплы : Нет
Интерфейс : Встроенный Win32-интерфейс для Win NT/2000

Выходной формат : Monkey's Audio Lossless Encoder v3.99 DLL
Формат сэмплов : High Lossless Compression

TOC извлечённого CD

Трек | Старт | Длительность | Начальный сектор | Конечный сектор
---------------------------------------------------------------------
1 | 0:00.33 | 1:56.47 | 33 | 8779
2 | 1:57.05 | 2:44.73 | 8780 | 21152
3 | 4:42.03 | 2:22.32 | 21153 | 31834
4 | 7:04.35 | 1:54.33 | 31835 | 40417
5 | 8:58.68 | 3:25.20 | 40418 | 55812
6 | 12:24.13 | 2:24.10 | 55813 | 66622
7 | 14:48.23 | 2:22.00 | 66623 | 77272
8 | 17:10.23 | 4:11.02 | 77273 | 96099
9 | 21:21.25 | 1:57.73 | 96100 | 104947
10 | 23:19.23 | 2:26.50 | 104948 | 115947
11 | 25:45.73 | 2:25.65 | 115948 | 126887
12 | 28:11.63 | 2:09.45 | 126888 | 136607

Характеристики диапазона извлечения и сообщения об ошибках

Выбранный диапазон

Имя файла N:Музыка на разбор!! Extract !!The Original Elvis Presley CollectionElvis Presley-1956-Elvis.ape

Пиковый уровень 100.0 %
Качество диапазона 100.0 %
CRC копии 1B07E7A5
Копирование... OK

Ошибок не произошло

Конец отчёта


Exact Audio Copy V0.99 prebeta 4 from 23. January 2008

Отчёт EAC об извлечении, выполненном 13. июля 2009, 0:30

Elvis Presley / Loving You

Дисковод: ASUS DRW-2014L1T Adapter: 2 ID: 2

Режим чтения : Достоверность
Использование точного потока : Да
Отключение кэша аудио : Да
Использование указателей C2 : Нет

Коррекция смещения при чтении : 6
Способность читать области Lead-in и Lead-out : Нет
Заполнение пропущенных сэмплов тишиной : Да
Удаление блоков с тишиной в начале и конце : Нет
При вычислениях CRC использовались нулевые сэмплы : Нет
Интерфейс : Встроенный Win32-интерфейс для Win NT/2000

Выходной формат : Monkey's Audio Lossless Encoder v3.99 DLL
Формат сэмплов : High Lossless Compression

TOC извлечённого CD

Трек | Старт | Длительность | Начальный сектор | Конечный сектор
---------------------------------------------------------------------
1 | 0:00.38 | 2:13.72 | 38 | 10084
2 | 2:14.35 | 1:49.13 | 10085 | 18272
3 | 4:03.48 | 2:16.17 | 18273 | 28489
4 | 6:19.65 | 2:33.58 | 28490 | 40022
5 | 8:53.48 | 3:04.20 | 40023 | 53842
6 | 11:57.68 | 1:13.05 | 53843 | 59322
7 | 13:10.73 | 1:29.40 | 59323 | 66037
8 | 14:40.38 | 2:41.25 | 66038 | 78137
9 | 17:21.63 | 2:10.25 | 78138 | 87912
10 | 19:32.13 | 2:00.50 | 87913 | 96962
11 | 21:32.63 | 2:33.05 | 96963 | 108442
12 | 24:05.68 | 2:41.20 | 108443 | 120537

Характеристики диапазона извлечения и сообщения об ошибках

Выбранный диапазон

Имя файла N:Музыка на разбор!! Extract !!The Original Elvis Presley CollectionElvis Presley-1957-Loving You.ape

Пиковый уровень 69.6 %
Качество диапазона 99.9 %
CRC копии 5215FFD4
Копирование... OK

Ошибок не произошло

Конец отчёта


Exact Audio Copy V0.99 prebeta 5 from 4. May 2009

Отчёт EAC об извлечении, выполненном 10. августа 2009, 23:17

Elvis Presley / Elvis' Christmas Album

Дисковод: ASUS DRW-2014L1T Adapter: 2 ID: 2

Режим чтения : Достоверность
Использование точного потока : Да
Отключение кэша аудио : Да
Использование указателей C2 : Нет

Коррекция смещения при чтении : 6
Способность читать области Lead-in и Lead-out : Нет
Заполнение пропущенных сэмплов тишиной : Да
Удаление блоков с тишиной в начале и конце : Нет
При вычислениях CRC использовались нулевые сэмплы : Нет
Интерфейс : Встроенный Win32-интерфейс для Win NT/2000

Выходной формат : Monkey's Audio Lossless Encoder v3.99 DLL
Формат сэмплов : High Lossless Compression

TOC извлечённого CD

Трек | Старт | Длительность | Начальный сектор | Конечный сектор
---------------------------------------------------------------------
1 | 0:00.33 | 2:22.05 | 33 | 10687
2 | 2:22.38 | 2:44.07 | 10688 | 22994
3 | 5:06.45 | 1:55.68 | 22995 | 31687
4 | 7:02.38 | 1:55.10 | 31688 | 40322
5 | 8:57.48 | 2:09.00 | 40323 | 49997
6 | 11:06.48 | 1:53.60 | 49998 | 58532
7 | 13:00.33 | 2:36.30 | 58533 | 70262
8 | 15:36.63 | 2:25.72 | 70263 | 81209
9 | 18:02.60 | 3:22.48 | 81210 | 96407
10 | 21:25.33 | 2:05.00 | 96408 | 105782
11 | 23:30.33 | 3:18.35 | 105783 | 120667
12 | 26:48.68 | 3:58.70 | 120668 | 138587

Характеристики диапазона извлечения и сообщения об ошибках

Выбранный диапазон

Имя файла I:Lossless (Eng)EElvis PresleyBOXSET1995 - The Original Elvis Presley Collection (50CD)CD 04Elvis Presley-1957-Elvis' Christmas Album.ape

Пиковый уровень 100.0 %
Качество диапазона 100.0 %
CRC копии D0383D38
Копирование... OK

Ошибок не произошло

Конец отчёта


Exact Audio Copy V0.99 prebeta 4 from 23. January 2008

Отчёт EAC об извлечении, выполненном 13. июля 2009, 0:53

Elvis Presley / Elvis' Golden Records (Volume 1)

Дисковод: ASUS DRW-2014L1T Adapter: 2 ID: 2

Режим чтения : Достоверность
Использование точного потока : Да
Отключение кэша аудио : Да
Использование указателей C2 : Нет

Коррекция смещения при чтении : 6
Способность читать области Lead-in и Lead-out : Нет
Заполнение пропущенных сэмплов тишиной : Да
Удаление блоков с тишиной в начале и конце : Нет
При вычислениях CRC использовались нулевые сэмплы : Нет
Интерфейс : Встроенный Win32-интерфейс для Win NT/2000

Выходной формат : Monkey's Audio Lossless Encoder v3.99 DLL
Формат сэмплов : High Lossless Compression

TOC извлечённого CD

Трек | Старт | Длительность | Начальный сектор | Конечный сектор
---------------------------------------------------------------------
1 | 0:00.32 | 2:17.73 | 32 | 10379
2 | 2:18.30 | 2:16.20 | 10380 | 20599
3 | 4:34.50 | 1:58.55 | 20600 | 29504
4 | 6:33.30 | 2:07.60 | 29505 | 39089
5 | 8:41.15 | 2:27.32 | 39090 | 50146
6 | 11:08.47 | 2:45.03 | 50147 | 62524
7 | 13:53.50 | 2:33.22 | 62525 | 74021
8 | 16:26.72 | 2:04.03 | 74022 | 83324
9 | 18:31.00 | 3:24.72 | 83325 | 98696
10 | 21:55.72 | 1:48.73 | 98697 | 106869
11 | 23:44.70 | 2:46.32 | 106870 | 119351
12 | 26:31.27 | 2:14.20 | 119352 | 129421
13 | 28:45.47 | 2:15.43 | 129422 | 139589
14 | 31:01.15 | 2:40.15 | 139590 | 151604

Характеристики диапазона извлечения и сообщения об ошибках

Выбранный диапазон

Имя файла N:Музыка на разбор!! Extract !!The Original Elvis Presley CollectionElvis Presley-1958-Elvis' Golden Records (Volume 1).ape

Пиковый уровень 81.3 %
Качество диапазона 99.9 %
CRC копии D06AC09E
Копирование... OK

Ошибок не произошло

Конец отчёта


Exact Audio Copy V0.99 prebeta 4 from 23. January 2008

Отчёт EAC об извлечении, выполненном 13. июля 2009, 1:00

Elvis Presley / King Creole

Дисковод: ASUS DRW-2014L1T Adapter: 2 ID: 2

Режим чтения : Достоверность
Использование точного потока : Да
Отключение кэша аудио : Да
Использование указателей C2 : Нет

Коррекция смещения при чтении : 6
Способность читать области Lead-in и Lead-out : Нет
Заполнение пропущенных сэмплов тишиной : Да
Удаление блоков с тишиной в начале и конце : Нет
При вычислениях CRC использовались нулевые сэмплы : Нет
Интерфейс : Встроенный Win32-интерфейс для Win NT/2000

Выходной формат : Monkey's Audio Lossless Encoder v3.99 DLL
Формат сэмплов : High Lossless Compression

TOC извлечённого CD

Трек | Старт | Длительность | Начальный сектор | Конечный сектор
---------------------------------------------------------------------
1 | 0:00.33 | 2:07.30 | 33 | 9587
2 | 2:07.63 | 1:50.65 | 9588 | 17902
3 | 3:58.53 | 1:54.65 | 17903 | 26517
4 | 5:53.43 | 2:18.72 | 26518 | 36939
5 | 8:12.40 | 1:48.03 | 36940 | 45042
6 | 10:00.43 | 2:07.10 | 45043 | 54577
7 | 12:07.53 | 2:12.00 | 54578 | 64477
8 | 14:19.53 | 1:51.45 | 64478 | 72847
9 | 16:11.23 | 2:23.52 | 72848 | 83624
10 | 18:35.00 | 1:18.50 | 83625 | 89524
11 | 19:53.50 | 2:01.18 | 89525 | 98617

Характеристики диапазона извлечения и сообщения об ошибках

Выбранный диапазон

Имя файла N:Музыка на разбор!! Extract !!The Original Elvis Presley CollectionElvis Presley-1958-King Creole.ape

Пиковый уровень 71.2 %
Качество диапазона 100.0 %
CRC копии 60F6D3DD
Копирование... OK

Ошибок не произошло

Конец отчёта


Exact Audio Copy V0.99 prebeta 4 from 23. January 2008

Отчёт EAC об извлечении, выполненном 13. июля 2009, 1:09

Elvis Presley / For LP Fans Only

Дисковод: ASUS DRW-2014L1T Adapter: 2 ID: 2

Режим чтения : Достоверность
Использование точного потока : Да
Отключение кэша аудио : Да
Использование указателей C2 : Нет

Коррекция смещения при чтении : 6
Способность читать области Lead-in и Lead-out : Нет
Заполнение пропущенных сэмплов тишиной : Да
Удаление блоков с тишиной в начале и конце : Нет
При вычислениях CRC использовались нулевые сэмплы : Нет
Интерфейс : Встроенный Win32-интерфейс для Win NT/2000

Выходной формат : Monkey's Audio Lossless Encoder v3.99 DLL
Формат сэмплов : High Lossless Compression

TOC извлечённого CD

Трек | Старт | Длительность | Начальный сектор | Конечный сектор
---------------------------------------------------------------------
1 | 0:00.33 | 1:57.60 | 33 | 8867
2 | 1:58.18 | 2:09.65 | 8868 | 18607
3 | 4:08.08 | 2:30.02 | 18608 | 29859
4 | 6:38.10 | 2:54.70 | 29860 | 42979
5 | 9:33.05 | 2:15.35 | 42980 | 53139
6 | 11:48.40 | 2:35.70 | 53140 | 64834
7 | 14:24.35 | 2:25.28 | 64835 | 75737
8 | 16:49.63 | 2:11.30 | 75738 | 85592
9 | 19:01.18 | 2:30.20 | 85593 | 96862
10 | 21:31.38 | 2:30.62 | 96863 | 108174
11 | 24:02.25 | 2:37.68 | 108175 | 120017
12 | 26:40.18 | 2:13.22 | 120018 | 130014
13 | 28:53.40 | 2:34.38 | 130015 | 141602
14 | 31:28.03 | 1:58.30 | 141603 | 150482

Характеристики диапазона извлечения и сообщения об ошибках

Выбранный диапазон

Имя файла N:Музыка на разбор!! Extract !!The Original Elvis Presley CollectionElvis Presley-1959-For LP Fans Only.ape

Пиковый уровень 100.0 %
Качество диапазона 100.0 %
CRC копии 0D3E2DD2
Копирование... OK

Ошибок не произошло

Конец отчёта


Exact Audio Copy V0.99 prebeta 4 from 23. January 2008

Отчёт EAC об извлечении, выполненном 13. июля 2009, 1:17

Elvis Presley / A Date With Elvis

Дисковод: ASUS DRW-2014L1T Adapter: 2 ID: 2

Режим чтения : Достоверность
Использование точного потока : Да
Отключение кэша аудио : Да
Использование указателей C2 : Нет

Коррекция смещения при чтении : 6
Способность читать области Lead-in и Lead-out : Нет
Заполнение пропущенных сэмплов тишиной : Да
Удаление блоков с тишиной в начале и конце : Нет
При вычислениях CRC использовались нулевые сэмплы : Нет
Интерфейс : Встроенный Win32-интерфейс для Win NT/2000

Выходной формат : Monkey's Audio Lossless Encoder v3.99 DLL
Формат сэмплов : High Lossless Compression

TOC извлечённого CD

Трек | Старт | Длительность | Начальный сектор | Конечный сектор
---------------------------------------------------------------------
1 | 0:00.33 | 2:06.50 | 33 | 9532
2 | 2:07.08 | 2:39.60 | 9533 | 21517
3 | 4:46.68 | 2:17.62 | 21518 | 31854
4 | 7:04.55 | 2:28.58 | 31855 | 43012
5 | 9:33.38 | 2:00.67 | 43013 | 52079
6 | 11:34.30 | 2:04.20 | 52080 | 61399
7 | 13:38.50 | 2:27.38 | 61400 | 72462
8 | 16:06.13 | 2:14.62 | 72463 | 82574
9 | 18:21.00 | 2:30.13 | 82575 | 93837
10 | 20:51.13 | 2:31.32 | 93838 | 105194
11 | 23:22.45 | 2:33.43 | 105195 | 116712
12 | 25:56.13 | 2:34.20 | 116713 | 128282
13 | 28:30.33 | 2:12.52 | 128283 | 138234
14 | 30:43.10 | 2:09.23 | 138235 | 147932

Характеристики диапазона извлечения и сообщения об ошибках

Выбранный диапазон

Имя файла N:Музыка на разбор!! Extract !!The Original Elvis Presley CollectionElvis Presley-1959-A Date With Elvis.ape

Пиковый уровень 100.0 %
Качество диапазона 100.0 %
CRC копии D8BE6A65
Копирование... OK

Ошибок не произошло

Конец отчёта


Exact Audio Copy V0.99 prebeta 4 from 23. January 2008

Отчёт EAC об извлечении, выполненном 13. июля 2009, 1:28

Elvis Presley / 50,000,000 Elvis Fans Can't Be Wrong: Elvis' Gold Records - Volume 2

Дисковод: ASUS DRW-2014L1T Adapter: 2 ID: 2

Режим чтения : Достоверность
Использование точного потока : Да
Отключение кэша аудио : Да
Использование указателей C2 : Нет

Коррекция смещения при чтении : 6
Способность читать области Lead-in и Lead-out : Нет
Заполнение пропущенных сэмплов тишиной : Да
Удаление блоков с тишиной в начале и конце : Нет
При вычислениях CRC использовались нулевые сэмплы : Нет
Интерфейс : Встроенный Win32-интерфейс для Win NT/2000

Выходной формат : Monkey's Audio Lossless Encoder v3.99 DLL
Формат сэмплов : High Lossless Compression

TOC извлечённого CD

Трек | Старт | Длительность | Начальный сектор | Конечный сектор
---------------------------------------------------------------------
1 | 0:00.32 | 2:14.63 | 32 | 10144
2 | 2:15.20 | 2:34.37 | 10145 | 21731
3 | 4:49.57 | 2:31.15 | 21732 | 33071
4 | 7:20.72 | 2:06.05 | 33072 | 42526
5 | 9:27.02 | 2:50.20 | 42527 | 55296
6 | 12:17.22 | 1:54.35 | 55297 | 63881
7 | 14:11.57 | 1:53.68 | 63882 | 72424
8 | 16:05.50 | 1:33.05 | 72425 | 79404
9 | 17:38.55 | 2:24.67 | 79405 | 90271
10 | 20:03.47 | 2:33.55 | 90272 | 101801
11 | 22:37.27 | 1:50.55 | 101802 | 110106
12 | 24:28.07 | 2:08.70 | 110107 | 119776
13 | 26:37.02 | 2:15.23 | 119777 | 129924
14 | 28:52.25 | 1:56.45 | 129925 | 138669

Характеристики диапазона извлечения и сообщения об ошибках

Выбранный диапазон

Имя файла N:Музыка на разбор!! Extract !!The Original Elvis Presley CollectionElvis Presley-1959-50,000,000 Elvis Fans Can't Be Wrong - Elvis' Gold Records - Volume 2.ape

Пиковый уровень 90.6 %
Качество диапазона 99.9 %
CRC копии 074CD548
Копирование... OK

Ошибок не произошло

Конец отчёта


Exact Audio Copy V0.99 prebeta 4 from 23. January 2008

Отчёт EAC об извлечении, выполненном 13. июля 2009, 1:36

Elvis Presley / Elvis Is Back!

Дисковод: ASUS DRW-2014L1T Adapter: 2 ID: 2

Режим чтения : Достоверность
Использование точного потока : Да
Отключение кэша аудио : Да
Использование указателей C2 : Нет

Коррекция смещения при чтении : 6
Способность читать области Lead-in и Lead-out : Нет
Заполнение пропущенных сэмплов тишиной : Да
Удаление блоков с тишиной в начале и конце : Нет
При вычислениях CRC использовались нулевые сэмплы : Нет
Интерфейс : Встроенный Win32-интерфейс для Win NT/2000

Выходной формат : Monkey's Audio Lossless Encoder v3.99 DLL
Формат сэмплов : High Lossless Compression

TOC извлечённого CD

Трек | Старт | Длительность | Начальный сектор | Конечный сектор
---------------------------------------------------------------------
1 | 0:00.38 | 2:03.00 | 38 | 9262
2 | 2:03.38 | 3:35.17 | 9263 | 25404
3 | 5:38.55 | 2:25.15 | 25405 | 36294
4 | 8:03.70 | 2:36.55 | 36295 | 48049
5 | 10:40.50 | 1:36.35 | 48050 | 55284
6 | 12:17.10 | 3:02.30 | 55285 | 68964
7 | 15:19.40 | 3:04.15 | 68965 | 82779
8 | 18:23.55 | 3:01.68 | 82780 | 96422
9 | 21:25.48 | 2:12.12 | 96423 | 106334
10 | 23:37.60 | 2:15.60 | 106335 | 116519
11 | 25:53.45 | 2:41.73 | 116520 | 128667
12 | 28:35.43 | 3:40.70 | 128668 | 145237

Характеристики диапазона извлечения и сообщения об ошибках

Выбранный диапазон

Имя файла N:Музыка на разбор!! Extract !!The Original Elvis Presley CollectionElvis Presley-1960-Elvis Is Back!.ape

Пиковый уровень 80.4 %
Качество диапазона 100.0 %
CRC копии D950B863
Копирование... OK

Ошибок не произошло

Конец отчёта


Exact Audio Copy V0.99 prebeta 4 from 23. January 2008

Отчёт EAC об извлечении, выполненном 13. июля 2009, 20:27

Elvis Presley / Elvis Double Features: Flaming Star + Wild In The Country + Follow That Dream

Дисковод: ASUS DRW-2014L1T Adapter: 2 ID: 2

Режим чтения : Достоверность
Использование точного потока : Да
Отключение кэша аудио : Да
Использование указателей C2 : Нет

Коррекция смещения при чтении : 6
Способность читать области Lead-in и Lead-out : Нет
Заполнение пропущенных сэмплов тишиной : Да
Удаление блоков с тишиной в начале и конце : Нет
При вычислениях CRC использовались нулевые сэмплы : Нет
Интерфейс : Встроенный Win32-интерфейс для Win NT/2000

Выходной формат : Monkey's Audio Lossless Encoder v3.99 DLL
Формат сэмплов : High Lossless Compression

TOC извлечённого CD

Трек | Старт | Длительность | Начальный сектор | Конечный сектор
---------------------------------------------------------------------
1 | 0:00.00 | 2:27.45 | 0 | 11069
2 | 2:27.45 | 2:20.47 | 11070 | 21616
3 | 4:48.17 | 1:42.18 | 21617 | 29284
4 | 6:30.35 | 1:47.52 | 29285 | 37361
5 | 8:18.12 | 2:31.23 | 37362 | 48709
6 | 10:49.35 | 1:33.22 | 48710 | 55706
7 | 12:22.57 | 0:40.48 | 55707 | 58754
8 | 13:03.30 | 1:53.30 | 58755 | 67259
9 | 14:56.60 | 1:35.55 | 67260 | 74439
10 | 16:32.40 | 2:45.05 | 74440 | 86819
11 | 19:17.45 | 1:22.62 | 86820 | 93031
12 | 20:40.32 | 1:37.45 | 93032 | 100351
13 | 22:18.02 | 2:02.05 | 100352 | 109506
14 | 24:20.07 | 1:38.00 | 109507 | 116856
15 | 25:58.07 | 1:39.10 | 116857 | 124291
16 | 27:37.17 | 2:39.53 | 124292 | 136269
17 | 30:16.70 | 2:27.40 | 136270 | 147334
18 | 32:44.35 | 1:51.55 | 147335 | 155714
19 | 34:36.15 | 2:14.35 | 155715 | 165799
20 | 36:50.50 | 1:46.00 | 165800 | 173749

Характеристики диапазона извлечения и сообщения об ошибках

Выбранный диапазон

Имя файла N:Музыка на разбор!! Extract !!The Original Elvis Presley CollectionCD11Elvis Presley-1995-Elvis Double Features (Flaming Star + Wild In The Country + Follow That Dream).ape

Пиковый уровень 96.6 %
Качество диапазона 100.0 %
CRC копии 7A4393D2
Копирование... OK

Ошибок не произошло

Конец отчёта


Exact Audio Copy V0.99 prebeta 4 from 23. January 2008

Отчёт EAC об извлечении, выполненном 13. июля 2009, 20:35

Elvis Presley / G.I. Blues

Дисковод: ASUS DRW-2014L1T Adapter: 2 ID: 2

Режим чтения : Достоверность
Использование точного потока : Да
Отключение кэша аудио : Да
Использование указателей C2 : Нет

Коррекция смещения при чтении : 6
Способность читать области Lead-in и Lead-out : Нет
Заполнение пропущенных сэмплов тишиной : Да
Удаление блоков с тишиной в начале и конце : Нет
При вычислениях CRC использовались нулевые сэмплы : Нет
Интерфейс : Встроенный Win32-интерфейс для Win NT/2000

Выходной формат : Monkey's Audio Lossless Encoder v3.99 DLL
Формат сэмплов : High Lossless Compression

TOC извлечённого CD

Трек | Старт | Длительность | Начальный сектор | Конечный сектор
---------------------------------------------------------------------
1 | 0:00.33 | 2:17.00 | 33 | 10307
2 | 2:17.33 | 2:20.32 | 10308 | 20839
3 | 4:37.65 | 2:59.05 | 20840 | 34269
4 | 7:36.70 | 2:06.43 | 34270 | 43762
5 | 9:43.38 | 2:39.72 | 43763 | 55759
6 | 12:23.35 | 2:37.63 | 55760 | 67597
7 | 15:01.23 | 2:27.37 | 67598 | 78659
8 | 17:28.60 | 1:35.35 | 78660 | 85819
9 | 19:04.20 | 2:40.25 | 85820 | 97844
10 | 21:44.45 | 2:09.43 | 97845 | 107562
11 | 23:54.13 | 3:14.47 | 107563 | 122159
12 | 27:08.60 | 1:21.48 | 122160 | 128282

Характеристики диапазона извлечения и сообщения об ошибках

Выбранный диапазон

Имя файла N:Музыка на разбор!! Extract !!The Original Elvis Presley CollectionCD 12Elvis Presley-1960-G.I. Blues.ape

Пиковый уровень 85.6 %
Качество диапазона 99.9 %
CRC копии 5B67FAE7
Копирование... OK

Ошибок не произошло

Конец отчёта


Exact Audio Copy V0.99 prebeta 4 from 23. January 2008

Отчёт EAC об извлечении, выполненном 14. июля 2009, 0:17

Elvis Presley / His Hand In Mine

Дисковод: ASUS DRW-2014L1T Adapter: 2 ID: 2

Режим чтения : Достоверность
Использование точного потока : Да
Отключение кэша аудио : Да
Использование указателей C2 : Нет

Коррекция смещения при чтении : 6
Способность читать области Lead-in и Lead-out : Нет
Заполнение пропущенных сэмплов тишиной : Да
Удаление блоков с тишиной в начале и конце : Нет
При вычислениях CRC использовались нулевые сэмплы : Нет
Интерфейс : Встроенный Win32-интерфейс для Win NT/2000

Выходной формат : Monkey's Audio Lossless Encoder v3.99 DLL
Формат сэмплов : High Lossless Compression

TOC извлечённого CD

Трек | Старт | Длительность | Начальный сектор | Конечный сектор
---------------------------------------------------------------------
1 | 0:00.00 | 3:20.52 | 0 | 15051
2 | 3:20.52 | 1:53.43 | 15052 | 23569
3 | 5:14.20 | 2:06.50 | 23570 | 33069
4 | 7:20.70 | 2:16.30 | 33070 | 43299
5 | 9:37.25 | 2:11.37 | 43300 | 53161
6 | 11:48.62 | 2:16.08 | 53162 | 63369
7 | 14:04.70 | 2:41.27 | 63370 | 75471
8 | 16:46.22 | 2:14.08 | 75472 | 85529
9 | 19:00.30 | 2:34.55 | 85530 | 97134
10 | 21:35.10 | 2:59.40 | 97135 | 110599
11 | 24:34.50 | 2:01.40 | 110600 | 119714
12 | 26:36.15 | 1:55.42 | 119715 | 128381
13 | 28:31.57 | 3:55.60 | 128382 | 146066
14 | 32:27.42 | 2:40.43 | 146067 | 158109
15 | 35:08.10 | 3:19.70 | 158110 | 173104

Характеристики диапазона извлечения и сообщения об ошибках

Выбранный диапазон

Имя файла N:Музыка на разбор!! Extract !!The Original Elvis Presley CollectionCD 13Elvis Presley-1960-His Hand In Mine.ape

Пиковый уровень 100.0 %
Качество диапазона 100.0 %
CRC копии B0FC1D34
Копирование... OK

Ошибок не произошло

Конец отчёта


Exact Audio Copy V0.99 prebeta 4 from 23. January 2008

Отчёт EAC об извлечении, выполненном 14. июля 2009, 0:25

Elvis Presley / Something For Everybody

Дисковод: ASUS DRW-2014L1T Adapter: 2 ID: 2

Режим чтения : Достоверность
Использование точного потока : Да
Отключение кэша аудио : Да
Использование указателей C2 : Нет

Коррекция смещения при чтении : 6
Способность читать области Lead-in и Lead-out : Нет
Заполнение пропущенных сэмплов тишиной : Да
Удаление блоков с тишиной в начале и конце : Нет
При вычислениях CRC использовались нулевые сэмплы : Нет
Интерфейс : Встроенный Win32-интерфейс для Win NT/2000

Выходной формат : Monkey's Audio Lossless Encoder v3.99 DLL
Формат сэмплов : High Lossless Compression

TOC извлечённого CD

Трек | Старт | Длительность | Начальный сектор | Конечный сектор
---------------------------------------------------------------------
1 | 0:00.33 | 2:19.15 | 33 | 10472
2 | 2:19.48 | 2:36.47 | 10473 | 22219
3 | 4:56.20 | 2:43.68 | 22220 | 34512
4 | 7:40.13 | 2:34.60 | 34513 | 46122
5 | 10:14.73 | 2:06.45 | 46123 | 55617
6 | 12:21.43 | 2:18.07 | 55618 | 65974
7 | 14:39.50 | 2:24.10 | 65975 | 76784
8 | 17:03.60 | 1:51.05 | 76785 | 85114
9 | 18:54.65 | 1:58.53 | 85115 | 94017
10 | 20:53.43 | 2:10.12 | 94018 | 103779
11 | 23:03.55 | 2:16.23 | 103780 | 114002
12 | 25:20.03 | 1:36.17 | 114003 | 121219

Характеристики диапазона извлечения и сообщения об ошибках

Выбранный диапазон

Имя файла N:Музыка на разбор!! Extract !!The Original Elvis Presley CollectionCD 14Elvis Presley-1961-Something For Everybody.ape

Пиковый уровень 68.4 %
Качество диапазона 100.0 %
CRC копии 7360E86E
Копирование... OK

Ошибок не произошло

Конец отчёта


Exact Audio Copy V0.99 prebeta 4 from 23. January 2008

Отчёт EAC об извлечении, выполненном 14. июля 2009, 0:32

Elvis Presley / Blue Hawaii

Дисковод: ASUS DRW-2014L1T Adapter: 2 ID: 2

Режим чтения : Достоверность
Использование точного потока : Да
Отключение кэша аудио : Да
Использование указателей C2 : Нет

Коррекция смещения при чтении : 6
Способность читать области Lead-in и Lead-out : Нет
Заполнение пропущенных сэмплов тишиной : Да
Удаление блоков с тишиной в начале и конце : Нет
При вычислениях CRC использовались нулевые сэмплы : Нет
Интерфейс : Встроенный Win32-интерфейс для Win NT/2000

Выходной формат : Monkey's Audio Lossless Encoder v3.99 DLL
Формат сэмплов : High Lossless Compression

TOC извлечённого CD

Трек | Старт | Длительность | Начальный сектор | Конечный сектор
---------------------------------------------------------------------
1 | 0:00.00 | 2:39.07 | 0 | 11931
2 | 2:39.07 | 2:24.50 | 11932 | 22781
3 | 5:03.57 | 1:56.63 | 22782 | 31544
4 | 7:00.45 | 2:25.30 | 31545 | 42449
5 | 9:26.00 | 3:04.52 | 42450 | 56301
6 | 12:30.52 | 2:02.33 | 56302 | 65484
7 | 14:33.10 | 2:21.60 | 65485 | 76119
8 | 16:54.70 | 2:24.60 | 76120 | 86979
9 | 19:19.55 | 1:26.30 | 86980 | 93459
10 | 20:46.10 | 1:38.22 | 93460 | 100831
11 | 22:24.32 | 2:36.23 | 100832 | 112554
12 | 25:00.55 | 2:06.20 | 112555 | 122024
13 | 27:07.00 | 2:42.00 | 122025 | 134174
14 | 29:49.00 | 2:50.67 | 134175 | 146991

Характеристики диапазона извлечения и сообщения об ошибках

Выбранный диапазон

Имя файла N:Музыка на разбор!! Extract !!The Original Elvis Presley CollectionCD 15Elvis Presley-1961-Blue Hawaii.ape

Пиковый уровень 86.6 %
Качество диапазона 100.0 %
CRC копии 88
Музыка / Lossless / Разное
СКАЧАТЬ БЕСПЛАТНО  [5.1 GB]


17
янв
2011

Elvis Presley - The Original Elvis Presley Collection (Box-Set 50CD) Part Two (CD26-50)[1966-1996, Rock Roll, APE]

Формат: APE, (image + .cue), lossless
Год выпуска: 1966-1996
Страна: USA
Жанр: Rock & Roll
Издатель: BMG Music Nederland BV
Год издания: 1996
Продолжительность: 14:12:16
Описание: 1996 - Elvis Double Features (Easy Come, Easy Go + Speedway) 00
Трэклист: 01. Easy Come, Easy Go 02:20 02. The Love Machine 02:50 03. Yoga Is As Yoga Does 02:10 04. You Gotta Stop 02:18 05. Sing You Children 02:14 06. I'll Take Love 02:15 07. She's A Machine 01:38 08. The Love Machine (Alternate Take 11) 02:29 09. Sing You Children (Alternate Take 1) 02:29 10. She's A Machine (Alternate Take 13) 01:41 11. Suppose ...

17
янв
2012

Elvis Presley - The Real... Elvis. The Ultimate Elvis Presley Collection [2011, Rock, Rockabilly, MP3]

Формат: MP3, tracks, 320kbps
Год выпуска: 2011
Страна: USA
Жанр: Rock, Rockabilly
Продолжительность: 03:35:54
Описание: CD1 01 - Jailhouse Rock 02 - All Shook Up 03 - Hound Dog 04 - Blue Suede Shoes 05 - A Big Hunk O' Love 06 - That's All Right 07 - Don't Be Cruel 08 - Tutti Frutti 09 - Long Tall Sally 10 - Shake, Rattle And Roll 11 - Got A Lot O' Livin' To Do 12 - Rip It Up 13 - I Got Stung 14 - Wear My Ring Around Your Neck 15 - Mean Woman Blues 16 - King Creole 17 - Too Much 18 - (You're So Square) Baby I Don't Care 19 - Hard Headed Woman 20 - Mystery Train 21 - I Don't Care If The Sun Don ...

26
мар
2016

Elvis Presley The Album Collection (60CD Box Set) [2016, Rock, Blues, Pop, Folk, World, Country, Stage Screen, FLAC]

Формат: FLAC, (image + .cue), lossless
Год выпуска: 2016
Страна: USA
Жанр: Rock, Blues, Pop, Folk, World, & Country, Stage & Screen
Продолжительность: 33:21:37
Описание: CD 1 1956 Elvis Presley 00 01. Blue Suede Shoes January 30,1956. RCA Victor Recording Studios (Studio 1), New York Single 20/47-6636, released August 31, 1956 02. I'm Counting on You January 11,1956. RCA Victor Studio, Nashville Single 20/47-6637, released August 31,1956 03. I Got a Woman January 10,1956. RCA Victor Studio, Nashville Single 20/47-6637, released August 31, 1956 04. One-Sided Love Affair January 30,1956. RCA Vic ...

09
июн
2008

Elvis Presley - Elvis At The Movies (CD1, CD2)

Страна: USA
Год выпуска: 2007
Жанр: Рок
Продолжительность: 80 мин.
Формат: MP3
Битрейт: 256
Трэклист: CD1: 1. Love Me Tender (2003 Sony Remaster) 2. Loving You (2003 Sony Remaster) 3. Jailhouse Rock (2003 Sony Remaster) 4. Treat Me Nice (2003 Sony Remaster) 5. Hard Headed Woman (2003 Sony Remaster) 6. King Creole (2003 Sony Remaster) 7. G.I. Blues (Remastered At The Movies Version) 8. Frankfort Special (Remastered At The Movies Version) 9. Flaming Star 10. Lonely Man (Remastered The Hits O-Card Version) 11. Can't Help Falling In Love (Remastered At The Movies Version) 12. Blue Hawaii (Remaster ...

22
окт
2016

Elvis Presley - The Wonder Of You: Elvis Presley With The Royal Philharmonic Orchestra [2016, Rock Roll, Gospel , Rockabilly, MP3]

Формат: MP3, tracks, 320kbps
Год выпуска: 2016
Страна: USA
Жанр: Rock & Roll, Gospel, Rockabilly
Продолжительность: 00:51:15
Описание: 01. A Big Hunk o' Love [02:21] 02. I've Got a Thing About You Baby [02:34] 03. Suspicious Minds [03:44] 04. Don't [03:09] 05. I Just Can't Help Believin' [04:33] 06. Just Pretend [04:05] 07. Love Letters [02:54] 08. Amazing Grace [03:45] 09. Starting Today [03:09] 10. Kentucky Rain [04:02] 11. Memories [03:14] 12. Let It Be Me [03:24] 13. Always on My Mind [03:37] 14. The Wonder of You [02:31] 15. Just Pretend [04:05]
Доп. информация: http://www.elvisthemusic ...

23
фев
2013

Elvis Presley - Brilliant Elvis Collection [2013, Rock, Rock & Roll, Country, Ballad, Gospel, Soundtrack, FLAC]

Формат: FLAC, (image + .cue), lossless
Год выпуска: 2013
Страна: USA
Жанр: Rock, Rock & Roll, Country, Ballad, Gospel, Soundtrack
Продолжительность: 06:34:00
Описание: Rock And Roll (2CD Set) 01Disc One 00Трeклист: 01. Blue Suede Shoes 02:40 02. That's Allright Mama 02:15 03. Good Rockin' Tonight 02:01 04. Jailhouse Rock 02:33 05. Long Tall Sally 03:07 06. Stuck On You 02:45 07. Tutti Frutti 02:19 08. Shake, Rattle And Roll 02:34 09. I Got Stung 02:24 10. Baby Let's Play House 02:26 11. Dirty, Dirty Feeling 02:36 12. In Your Arms 02:00 13. Rip It Up 02:20 14. Ready Teddy 02:17 ...

02
мая
2007

Elvis Presley - The Essential Elvis Presley (2007) [mp3, 166]

Страна: usa
Год выпуска: 2007
Жанр: Rock & Roll
Продолжительность: 01:52:33
Формат: MP3
Битрейт аудио: 166 kbps
Трэклист: CD 1 01. That's All Right 1:57 02. Baby, Let's Play House 2:17 03. Mystery Train 2:29 04. Heartbreak Hotel 2:09 05. I Was The One 2:33 06. Blue Suede Shoes 2:00 07. Hound Dog 2:17 08. Don't Be Cruel 2:03 09. Love Me Tender 2:42 10. All Shook Up 1:59 11. (There'll Be) Peace In The Valley (For Me) 3:22 12. Jailhouse Rock 2:36 13. Trouble 2:18 14. Fever 3:33 15. It's Now Or Never 3:16 16. Reconsider Baby 3:44 17. Are You Lonesome Tonight 3:08 18. Little Sister 2:32 19. Follow ...

23
фев
2016

VA - The Many Faces Of Elvis: A Journey Through The Inner World Of Elvis Presley (3CD) [2015, Rock Roll, Country, Honky Tonk, Soul, Gospel, R B, FLAC]

Формат: FLAC, (image + .cue), lossless
Год выпуска: 2015
Страна: USA
Жанр: Rock & Roll, Country, Honky Tonk, Soul, Gospel, R&B
Продолжительность: 01:51:01
Описание: CD 1 A Small Circle Of Friends 00 01. Bill Black's Combo - Work With Me, Anne 02. The Blue Moon Boys (Elvis, Scotty & Bill) - Maybellene 03. Scotty Moore - Have Guitar, Will Travel 04. The Jordanaires - Dig A Little Deeper 05. The Blue Moon Boys (Elvis, Scotty & Bill) - Blue Moon Of Kentucky 06. Bill Black's Combo - Smokie (Part 2) 07. The Million Dollar Quartet Feat. Elvis, Carl Perkins, Jerry Lee & Johnny Cash - Don't Be Cruel 0 ...

30
сен
2017

Elvis Presley - Elvis Singing Flaming Star And Others [24 bit 96 khz] [1968, Rock Roll, Rhythm Blues, Ballad, FLAC]

Формат: FLAC, tracks, lossless
Год выпуска: 1968
Страна: USA
Жанр: Rock & Roll, Rhythm & Blues, Ballad
Продолжительность: 00:20:46
Описание: 01. Flaming Star (2:30) 02. Wonderful World (2:15) 03. Night Life (1:54) 04. All I Needed Was The Rain (1:50) 05. Too Much Monkey Business (2:33) 06. The Yellow Rose Of Texas / The Eyes Of Texas (2:58 ) 07. She's A Machine (1:40) 08. Do The Vega (2:25) 09. Tiger Man (Live) (2:40)
Доп. информация: Logfoobar2000 1.3.9 / Dynamic Range Meter 1.1.1 log date: 2017-09-30 21:03:50 -------------------------------------------------------------------------------- ...

17
ноя
2013

Elvis Presley - The Nation's Favourite Elvis Songs [Deluxe Edition] [2013, Rock Roll, MP3]

Формат: MP3, tracks, 320kbps
Год выпуска: 2013
Страна: США
Жанр: Rock & Roll
Продолжительность: 02:02:59
Описание: CD1 (00 01. Suspicious Minds 02. Always On My Mind 03. Love Me Tender 04. In the Ghetto 05. Viva Las Vegas 06. Jailhouse Rock 07. Hound Dog 08. Blue Suede Shoes 09. All Shook Up 10. Are You Lonesome Tonight? 11. The Wonder Of You 12. It's Now Or Never 13. Don't Be Cruel 14. Heartbreak Hotel 15. If I Can Dream 16. An American Trilogy 17. King Creole 18. Return To Sender 19. A Little Less Conversation (JXL Remix) 20. Can't Help Falling In Love CD2 (01 01. (Let Me Be Your) Teddy Be ...

07
окт
2017

Elvis Presley - Christmas with Elvis and The Royal Philharmonic Orchestra [24 bit 96 khz] [2017, Pop, Rock, Rock 'n' Roll, Christmas, FLAC]

Формат: FLAC, tracks, lossless
Год выпуска: 2017
Страна: USA
Жанр: Pop, Rock, Rock 'n' Roll, Christmas
Продолжительность: 00:36:13
Описание: 01. Santa Claus Is Back In Town (02:29) 02. White Christmas (02:42) 03. Here Comes Santa Claus (Right Down Santa Claus Lane) (02:03) 04. Merry Christmas Baby (04:51) 05. Blue Christmas (02:10) 06. I'll Be Home for Christmas (03:18 ) 07. Winter Wonderland (02:21) 08. Santa Bring My Baby Back (To Me) (01:53) 09. Silver Bells (02:56) 10. Oh Little Town of Bethlehem (02:50) 11. O Come All Ye Faithful (03:04) 12. The First Noel (02:54) 13. Silent Night (02:41 ...

07
июл
2007

Elvis Presley Альбомы:BLUE HAWAII, Elvis is back, G.I. BLUES, How great thou art...

Страна: USA
Жанр: Rock & Roll
Формат: MP3
Трэклист:
АЛЬБОМЫ: BLUE HAWAII (46:39)
Битрейт аудио: 192 кбит/сек 1. Blue Hawaii 2. Almost Always True 3. Aloha Oe 4. No More 5. Can't Help Falling In Love 6. Rock-A-Hula Baby 7. Moonlight Swim 8. Ku-U-I-Po 9. Ito Eats 10. Slicin' Sand 11. Hawaiian Sunset 12. Beach Boy Blues 13. Island Of Love 14. Hawaiian Wedding Song 15. Steppin' Out Of Line 16. Can't Help Falling In Love 17. Slicin' Sand (Alternate take 4) 18. No More (Alternate take 7) 19. Rock-A-Hula Baby (Alternate take 1) 20. Beach Boy Blues (Movie version) 21. Steppin' Out Of Line (Movie ver ...

07
фев
2015

Elvis Presley - Elvis Best Hits In Japan [2CD] [2007, Rock Roll, Gospel music, Rockabilly, FLAC]

Формат: FLAC, tracks, lossless
Год выпуска: 2007
Страна: USA
Жанр: Rock & Roll, Gospel music, Rockabilly
Продолжительность: 01:30:54
Описание: Elvis Best Hits In Japan 01 01. Heartbreak Hotel (2:08 ) 02. I Want You, I Need You, I Love You (2:40) 03. Hound Dog (2:13) 04. Don't Be Cruel (2:03) 05. Love Me Tender (2:42) 06. Jailhouse Rock (2:35) 07. Wear My Ring Around Your Neck (2:14) 08. It's Now Or Never (3:15) 09. Are You Lonesome Tonight (3:07) 10. G.I. Blues (2:36) 11. Surrender (1:52) 12. Crying In The Chapel (2:23) 13. Blue Hawaii (2:36) 14. Can't Help Falling In Love (3:02) ...

10
июн
2010

Elvis Presley - Grand Collection [2008, Rock'n'Roll, MP3]

Формат: MP3, tracks, 320kbps
Год выпуска: 2008
Страна: USA
Жанр: Rock'n'Roll
Продолжительность: 01:19:57
Трэклист: 1 Heartbreak Hotel 2 Don't Be Cruel 3 Hound Dog 4 Love Me Tender 5 All Shook Up 6 Jailhouse Rock 7 Don't 8 Hard Headed Woman 9 One Night 10 It's Now Or Newer 11 Are You Lonesome Tonight? 12 Wooden Heart 13 Can't Help Falling In Love 14 Return To Sender 15 She's Not You 16 Viva Las Vegas 17 I Gotta Know 18 Surrender 19 Fever 20 Loving You 21 The Girl Of My Best Friend 22 Stuck On You 23 Too Much 24 Wear My Ring Around Your Neck 25 King Creole 26 A Big Hunk O'Love 27 Love Letters 2 ...

13
мар
2008

Elvis Presley - Elvis Country (original) (1971) [mp3, 192]

Страна: USA
Год выпуска: 1971
Жанр: кантри
Продолжительность: 38:48
Формат: MP3
Битрейт аудио: 192
Трэклист: 01 «Snowbird» (2:17) 02 «Tomorrow Never Comes» (4:07) 03 «Little Cabin on the Hill» (1:58) 04 «Whole Lotta Shakin' Going On» (3:10) 05 «Funny How Time Slips Away» (4:32) 06 «I Really Don’t Want To Know» (2:51) 07 «There Goes My Everything» (3:10) 08 «It’s Your Baby, You Rock It» (3:04) 09 «The Fool» (2:34) 10 «Faded Love» (3:19) 11 «I Washed My Hands in Muddy Water» (3:57) 12 «Make The World Go Away» (3:49)
Доп. информация: В июне 1970 года Пресли после полуторагодичного перерыва отправ ...