07
фев
2015

Elvis Presley - Elvis Best Hits In Japan [2CD] [2007, Rock Roll, Gospel music, Rockabilly, FLAC]

Elvis Presley - Elvis Best Hits In Japan [2CD]
Формат: FLAC, tracks, lossless
Год выпуска: 2007
Страна: USA
Жанр: Rock & Roll, Gospel music, Rockabilly
Продолжительность: 01:30:54
Описание:
Elvis Best Hits In Japan 01
01. Heartbreak Hotel (2:08 )
02. I Want You, I Need You, I Love You (2:40)
03. Hound Dog (2:13)
04. Don't Be Cruel (2:03)
05. Love Me Tender (2:42)
06. Jailhouse Rock (2:35)
07. Wear My Ring Around Your Neck (2:14)
08. It's Now Or Never (3:15)
09. Are You Lonesome Tonight (3:07)
10. G.I. Blues (2:36)
11. Surrender (1:52)
12. Crying In The Chapel (2:23)
13. Blue Hawaii (2:36)
14. Can't Help Falling In Love (3:02)
15. Follow That Dream (1:37)
16. Suspicion (2:35)
17. Return To Sender (2:07)
18. (You're The) Devil In Disguise (2:20)
19. Viva Las Vegas (2:24)
20. All That I Am (2:16)
21. I've Lost You (3:55)
22. Bridge Ove Troubled Water (4:29)
23. You Don't Have To Say You Love Me (2:31)
24. I Really Don't Want To Know (2:44)
25. An American Trilogy (4:35)
26. Always On My Mind (3:38 )
27. My Boy (3:19)
28. My Way (3:51)
29. Blue Christmas (2:07)

Elvis Best Hits In Japan BONUS DISC 00
01. A Little Less Conversation (JXL Radio Edit Remix) (3:33)
02. Rubberneckin' Paul Oakenfold Remix (Radio Edit) (3:30)
03. The Elvis Medley (3:58 )

Доп. информация:
Exact Audio Copy CD 1
Exact Audio Copy V0.99 prebeta 5 from 4. May 2009

Отчёт EAC об извлечении, выполненном 30. октября 2010, 18:00

ELVIS PRESLEY / ELVIS BEST HITS IN JAPAN

Дисковод: PIONEER DVD-RW DVR-218L Adapter: 0 ID: 0

Режим чтения : Достоверность
Использование точного потока : Да
Отключение кэша аудио : Да
Использование указателей C2 : Нет

Коррекция смещения при чтении : 6
Способность читать области Lead-in и Lead-out : Нет
Заполнение пропущенных сэмплов тишиной : Да
Удаление блоков с тишиной в начале и конце : Нет
При вычислениях CRC использовались нулевые сэмплы : Да
Интерфейс : Встроенный Win32-интерфейс для Win NT/2000
Обработка зазоров : Добавлено к предыдущему треку

Выходной формат : Пользовательский кодировщик
Выбранный битрейт : 128 kBit/s
Качество : Высокий
Добавление ID3-тэга : Нет
Утилита сжатия : C:Program Files (x86)Exact Audio CopyFlacflac.exe
Дополнительные параметры : -5 -V -T "ARTIST=%a" -T "TITLE=%t" -T "ALBUM=%g" -T "DATE=%y" -T "TRACKNUMBER=%n" -T "GENRE=%m" -T "COMMENT=EAC FLAC -5" %s

TOC извлечённого CD

Трек | Старт | Длительность | Начальный сектор | Конечный сектор
---------------------------------------------------------------------
1 | 0:00.00 | 2:08.31 | 0 | 9630
2 | 2:08.31 | 2:40.18 | 9631 | 21648
3 | 4:48.49 | 2:13.06 | 21649 | 31629
4 | 7:01.55 | 2:02.61 | 31630 | 40840
5 | 9:04.41 | 2:41.53 | 40841 | 52968
6 | 11:46.19 | 2:35.02 | 52969 | 64595
7 | 14:21.21 | 2:14.07 | 64596 | 74652
8 | 16:35.28 | 3:14.55 | 74653 | 89257
9 | 19:50.08 | 3:06.40 | 89258 | 103247
10 | 22:56.48 | 2:35.59 | 103248 | 114931
11 | 25:32.32 | 1:52.25 | 114932 | 123356
12 | 27:24.57 | 2:23.26 | 123357 | 134107
13 | 29:48.08 | 2:35.69 | 134108 | 145801
14 | 32:24.02 | 3:02.22 | 145802 | 159473
15 | 35:26.24 | 1:37.17 | 159474 | 166765
16 | 37:03.41 | 2:34.48 | 166766 | 178363
17 | 39:38.14 | 2:06.58 | 178364 | 187871
18 | 41:44.72 | 2:19.60 | 187872 | 198356
19 | 44:04.57 | 2:23.73 | 198357 | 209154
20 | 46:28.55 | 2:15.61 | 209155 | 219340
21 | 48:44.41 | 3:55.25 | 219341 | 236990
22 | 52:39.66 | 4:28.66 | 236991 | 257156
23 | 57:08.57 | 2:30.55 | 257157 | 268461
24 | 59:39.37 | 2:44.04 | 268462 | 280765
25 | 62:23.41 | 4:34.46 | 280766 | 301361
26 | 66:58.12 | 3:37.43 | 301362 | 317679
27 | 70:35.55 | 3:19.00 | 317680 | 332604
28 | 73:54.55 | 3:51.22 | 332605 | 349951
29 | 77:46.02 | 2:07.24 | 349952 | 359500

Трек 1

Имя файла F:ELVIS BEST HITS IN JAPAN�1 Heartbreak Hotel.wav

Длина предзазора 0:00:02.00

Пиковый уровень 99.8 %
Качество трека 100.0 %
CRC теста 3C63D5F4
CRC копии 3C63D5F4
Трек не обнаружен в базе AccurateRip
Копирование... OK

Трек 2

Имя файла F:ELVIS BEST HITS IN JAPAN�2 I Want You, I Need You, I Love You.wav

Пиковый уровень 100.0 %
Качество трека 100.0 %
CRC теста E636C279
CRC копии E636C279
Точное извлечение (достоверность 2) [F917BC52]
Копирование... OK

Трек 3

Имя файла F:ELVIS BEST HITS IN JAPAN�3 Hound Dog.wav

Пиковый уровень 99.8 %
Качество трека 100.0 %
CRC теста DD386441
CRC копии DD386441
Точное извлечение (достоверность 2) [3D5662F6]
Копирование... OK

Трек 4

Имя файла F:ELVIS BEST HITS IN JAPAN�4 Don't Be Cruel.wav

Пиковый уровень 99.8 %
Качество трека 100.0 %
CRC теста 579100CD
CRC копии 579100CD
Точное извлечение (достоверность 2) [61812DA3]
Копирование... OK

Трек 5

Имя файла F:ELVIS BEST HITS IN JAPAN�5 Love Me Tender.wav

Пиковый уровень 100.0 %
Качество трека 99.9 %
CRC теста D7287010
CRC копии D7287010
Точное извлечение (достоверность 2) [BE916DFC]
Копирование... OK

Трек 6

Имя файла F:ELVIS BEST HITS IN JAPAN�6 Jailhouse Rock.wav

Пиковый уровень 99.8 %
Качество трека 100.0 %
CRC теста F46EE84F
CRC копии F46EE84F
Точное извлечение (достоверность 2) [189984F0]
Копирование... OK

Трек 7

Имя файла F:ELVIS BEST HITS IN JAPAN�7 Wear My Ring Around Your Neck.wav

Пиковый уровень 100.0 %
Качество трека 100.0 %
CRC теста 0599C2F8
CRC копии 0599C2F8
Точное извлечение (достоверность 2) [F745E188]
Копирование... OK

Трек 8

Имя файла F:ELVIS BEST HITS IN JAPAN�8 It's Now Or Never.wav

Пиковый уровень 100.0 %
Качество трека 100.0 %
CRC теста 89C01D5B
CRC копии 89C01D5B
Точное извлечение (достоверность 2) [E535AB87]
Копирование... OK

Трек 9

Имя файла F:ELVIS BEST HITS IN JAPAN�9 Are You Lonesome Tonight .wav

Пиковый уровень 100.0 %
Качество трека 100.0 %
CRC теста 132E8B9D
CRC копии 132E8B9D
Точное извлечение (достоверность 2) [0508718A]
Копирование... OK

Трек 10

Имя файла F:ELVIS BEST HITS IN JAPAN10 G.I. Blues.wav

Пиковый уровень 100.0 %
Качество трека 100.0 %
CRC теста 2F8B5835
CRC копии 2F8B5835
Точное извлечение (достоверность 2) [E2C972E3]
Копирование... OK

Трек 11

Имя файла F:ELVIS BEST HITS IN JAPAN11 Surrender.wav

Пиковый уровень 100.0 %
Качество трека 100.0 %
CRC теста 12A7F7CD
CRC копии 12A7F7CD
Точное извлечение (достоверность 2) [50AC8886]
Копирование... OK

Трек 12

Имя файла F:ELVIS BEST HITS IN JAPAN12 Crying In The Chapel.wav

Пиковый уровень 100.0 %
Качество трека 100.0 %
CRC теста 741139A5
CRC копии 741139A5
Точное извлечение (достоверность 2) [DE126583]
Копирование... OK

Трек 13

Имя файла F:ELVIS BEST HITS IN JAPAN13 Blue Hawaii.wav

Пиковый уровень 96.5 %
Качество трека 100.0 %
CRC теста B551F167
CRC копии B551F167
Точное извлечение (достоверность 2) [38EAA1FC]
Копирование... OK

Трек 14

Имя файла F:ELVIS BEST HITS IN JAPAN14 Can't Help Falling In Love.wav

Пиковый уровень 100.0 %
Качество трека 99.9 %
CRC теста 3A3D38DA
CRC копии 3A3D38DA
Точное извлечение (достоверность 2) [2D1FB404]
Копирование... OK

Трек 15

Имя файла F:ELVIS BEST HITS IN JAPAN15 Follow That Dream.wav

Пиковый уровень 100.0 %
Качество трека 100.0 %
CRC теста 1817FF3B
CRC копии 1817FF3B
Точное извлечение (достоверность 2) [C21ECC00]
Копирование... OK

Трек 16

Имя файла F:ELVIS BEST HITS IN JAPAN16 Suspicion.wav

Пиковый уровень 99.9 %
Качество трека 100.0 %
CRC теста 7F7D63B5
CRC копии 7F7D63B5
Точное извлечение (достоверность 2) [5BA9687B]
Копирование... OK

Трек 17

Имя файла F:ELVIS BEST HITS IN JAPAN17 Return To Sender.wav

Пиковый уровень 100.0 %
Качество трека 100.0 %
CRC теста 17118FC2
CRC копии 17118FC2
Точное извлечение (достоверность 2) [3FEDDFA2]
Копирование... OK

Трек 18

Имя файла F:ELVIS BEST HITS IN JAPAN18 (you're The) Devil In Disguise.wav

Пиковый уровень 96.5 %
Качество трека 99.9 %
CRC теста 4EEC17BE
CRC копии 4EEC17BE
Точное извлечение (достоверность 2) [DB5B15A4]
Копирование... OK

Трек 19

Имя файла F:ELVIS BEST HITS IN JAPAN19 Viva Las Vegas.wav

Пиковый уровень 99.8 %
Качество трека 100.0 %
CRC теста 40F2ACA1
CRC копии 40F2ACA1
Точное извлечение (достоверность 2) [8BA2DFE0]
Копирование... OK

Трек 20

Имя файла F:ELVIS BEST HITS IN JAPAN20 All That I Am.wav

Пиковый уровень 100.0 %
Качество трека 99.9 %
CRC теста E6B8ACC4
CRC копии E6B8ACC4
Точное извлечение (достоверность 2)
Копирование... OK

Трек 21

Имя файла F:ELVIS BEST HITS IN JAPAN21 I've Lost You.wav

Пиковый уровень 100.0 %
Качество трека 100.0 %
CRC теста 903D7C1B
CRC копии 903D7C1B
Точное извлечение (достоверность 2) [7C299DC6]
Копирование... OK

Трек 22

Имя файла F:ELVIS BEST HITS IN JAPAN22 Bridge Ove Troubled Water.wav

Пиковый уровень 100.0 %
Качество трека 100.0 %
CRC теста E9D2CEBB
CRC копии E9D2CEBB
Точное извлечение (достоверность 2) [1CF1F38B]
Копирование... OK

Трек 23

Имя файла F:ELVIS BEST HITS IN JAPAN23 You Don't Have To Say You Love Me.wav

Пиковый уровень 99.8 %
Качество трека 99.9 %
CRC теста 1567E9E2
CRC копии 1567E9E2
Трек не обнаружен в базе AccurateRip
Копирование... OK

Трек 24

Имя файла F:ELVIS BEST HITS IN JAPAN24 I Really Don't Want To Know.wav

Пиковый уровень 100.0 %
Качество трека 99.9 %
CRC теста 0BD95E25
CRC копии 0BD95E25
Точное извлечение (достоверность 2) [A947BE31]
Копирование... OK

Трек 25

Имя файла F:ELVIS BEST HITS IN JAPAN25 An American Trilogy.wav

Пиковый уровень 99.8 %
Качество трека 99.9 %
CRC теста C1EF68B6
CRC копии C1EF68B6
Точное извлечение (достоверность 2) [C8B5271A]
Копирование... OK

Трек 26

Имя файла F:ELVIS BEST HITS IN JAPAN26 Always On My Mind.wav

Пиковый уровень 99.8 %
Качество трека 100.0 %
CRC теста 137770E0
CRC копии 137770E0
Точное извлечение (достоверность 2)
Копирование... OK

Трек 27

Имя файла F:ELVIS BEST HITS IN JAPAN27 My Boy.wav

Подозрительная позиция 0:02:58

Пиковый уровень 100.0 %
Качество трека 98.6 %
CRC теста D266CD55
CRC копии FD7C0A04
Трек не обнаружен в базе AccurateRip
Копирование завершено

Трек 28

Копирование прервано

Трек 29

Копирование прервано

24 трек(и) скопированы точно
3 трек(и) не содержатся в базе AccurateRip
2 трек(и) отменены

Некоторые треки не прошли проверку на точность

Конец отчёта

Exact Audio Copy CD 2
Exact Audio Copy V0.99 prebeta 5 from 4. May 2009

EAC extraction logfile from 30. October 2010, 19:20

ELVIS PRESLEY / ELVIS BEST HITS IN JAPAN [BONUS DISC]

Used drive : PIONEER DVD-RW DVR-218L Adapter: 0 ID: 0

Read mode : Secure
Utilize accurate stream : Yes
Defeat audio cache : Yes
Make use of C2 pointers : No

Read offset correction : 6
Overread into Lead-In and Lead-Out : No
Fill up missing offset samples with silence : Yes
Delete leading and trailing silent blocks : No
Null samples used in CRC calculations : Yes
Used interface : Native Win32 interface for Win NT & 2000
Gap handling : Not detected, thus appended to previous track

Used output format : User Defined Encoder
Selected bitrate : 128 kBit/s
Quality : High
Add ID3 tag : No
Command line compressor : C:Program Files (x86)Exact Audio CopyFlacflac.exe
Additional command line options : -5 -V -T "ARTIST=%a" -T "TITLE=%t" -T "ALBUM=%g" -T "DATE=%y" -T "TRACKNUMBER=%n" -T "GENRE=%m" -T "COMMENT=EAC FLAC -5" %s

TOC of the extracted CD

Track | Start | Length | Start sector | End sector
---------------------------------------------------------
1 | 0:00.00 | 3:32.73 | 0 | 15972
2 | 3:32.73 | 3:30.27 | 15973 | 31749
3 | 7:03.25 | 3:57.61 | 31750 | 49585

Track 1

Filename F:ELVIS BEST HITS IN JAPAN[BONUS DISC]�1 A little Less Conversation (JXL Radio Edit Remix).wav

Peak level 99.8 %
Track quality 100.0 %
Test CRC 4C66A5A9
Copy CRC 4C66A5A9
Accurately ripped (confidence 1) [FBCCC469]
Copy OK

Track 2

Filename F:ELVIS BEST HITS IN JAPAN[BONUS DISC]�2 Rubberneckin' Paul Oakenfold Remix (Radio Edit).wav

Peak level 97.6 %
Track quality 100.0 %
Test CRC 997315B8
Copy CRC 997315B8
Accurately ripped (confidence 1) [4012C0A9]
Copy OK

Track 3

Filename F:ELVIS BEST HITS IN JAPAN[BONUS DISC]�3 The Elvis Medley.wav

Peak level 100.0 %
Track quality 100.0 %
Test CRC 27982845
Copy CRC 27982845
Accurately ripped (confidence 1) [04143ACF]
Copy OK

All tracks accurately ripped

No errors occurred

End of status report
Музыка / Lossless / Рок, Панк, Метал, Альтернатива.
СКАЧАТЬ БЕСПЛАТНО  [662.8 MB]


17
янв
2012

Elvis Presley - The Real... Elvis. The Ultimate Elvis Presley Collection [2011, Rock, Rockabilly, MP3]

Формат: MP3, tracks, 320kbps
Год выпуска: 2011
Страна: USA
Жанр: Rock, Rockabilly
Продолжительность: 03:35:54
Описание: CD1 01 - Jailhouse Rock 02 - All Shook Up 03 - Hound Dog 04 - Blue Suede Shoes 05 - A Big Hunk O' Love 06 - That's All Right 07 - Don't Be Cruel 08 - Tutti Frutti 09 - Long Tall Sally 10 - Shake, Rattle And Roll 11 - Got A Lot O' Livin' To Do 12 - Rip It Up 13 - I Got Stung 14 - Wear My Ring Around Your Neck 15 - Mean Woman Blues 16 - King Creole 17 - Too Much 18 - (You're So Square) Baby I Don't Care 19 - Hard Headed Woman 20 - Mystery Train 21 - I Don't Care If The Sun Don ...

17
янв
2011

Elvis Presley - The Original Elvis Presley Collection (Box-Set 50CD) Part Two (CD26-50)[1966-1996, Rock Roll, APE]

Формат: APE, (image + .cue), lossless
Год выпуска: 1966-1996
Страна: USA
Жанр: Rock & Roll
Издатель: BMG Music Nederland BV
Год издания: 1996
Продолжительность: 14:12:16
Описание: 1996 - Elvis Double Features (Easy Come, Easy Go + Speedway) 00
Трэклист: 01. Easy Come, Easy Go 02:20 02. The Love Machine 02:50 03. Yoga Is As Yoga Does 02:10 04. You Gotta Stop 02:18 05. Sing You Children 02:14 06. I'll Take Love 02:15 07. She's A Machine 01:38 08. The Love Machine (Alternate Take 11) 02:29 09. Sing You Children (Alternate Take 1) 02:29 10. She's A Machine (Alternate Take 13) 01:41 11. Suppose ...

17
янв
2011

Elvis Presley - The Original Elvis Presley Collection (Box-Set 50CD) Part One (CD1-25)[1956-1995, Rock Roll, APE]

Формат: APE, (image + .cue), lossless
Год выпуска: 1956-1995
Страна: USA
Жанр: Rock & Roll
Издатель: BMG Music Nederland BV
Год издания: 1996
Продолжительность: 14:28:54
Описание: 1956 - Elvis Presley 00
Трэклист: 01. Blue Suede Shoes 02:01 02. I'm Counting on You 02:24 03. I Got a Woman 02:26 04. One-Sided Love Affair 02:11 05. I Love You Because 02:44 06. Just Because 02:34 07. Tutti Frutti 01:59 08. Tryin' to Get to You 02:34 09. I'm Gonna Sit Right Down and Cry (Over You) 02:01 10. I'll Never Let You Go (Little Darlin') 02:24 11. Blue Moon 02:41 12. Money Honey 02:33 1956 - Elvis 00 Тр ...

22
окт
2016

Elvis Presley - The Wonder Of You: Elvis Presley With The Royal Philharmonic Orchestra [2016, Rock Roll, Gospel , Rockabilly, MP3]

Формат: MP3, tracks, 320kbps
Год выпуска: 2016
Страна: USA
Жанр: Rock & Roll, Gospel, Rockabilly
Продолжительность: 00:51:15
Описание: 01. A Big Hunk o' Love [02:21] 02. I've Got a Thing About You Baby [02:34] 03. Suspicious Minds [03:44] 04. Don't [03:09] 05. I Just Can't Help Believin' [04:33] 06. Just Pretend [04:05] 07. Love Letters [02:54] 08. Amazing Grace [03:45] 09. Starting Today [03:09] 10. Kentucky Rain [04:02] 11. Memories [03:14] 12. Let It Be Me [03:24] 13. Always on My Mind [03:37] 14. The Wonder of You [02:31] 15. Just Pretend [04:05]
Доп. информация: http://www.elvisthemusic ...

23
фев
2016

VA - The Many Faces Of Elvis: A Journey Through The Inner World Of Elvis Presley (3CD) [2015, Rock Roll, Country, Honky Tonk, Soul, Gospel, R B, FLAC]

Формат: FLAC, (image + .cue), lossless
Год выпуска: 2015
Страна: USA
Жанр: Rock & Roll, Country, Honky Tonk, Soul, Gospel, R&B
Продолжительность: 01:51:01
Описание: CD 1 A Small Circle Of Friends 00 01. Bill Black's Combo - Work With Me, Anne 02. The Blue Moon Boys (Elvis, Scotty & Bill) - Maybellene 03. Scotty Moore - Have Guitar, Will Travel 04. The Jordanaires - Dig A Little Deeper 05. The Blue Moon Boys (Elvis, Scotty & Bill) - Blue Moon Of Kentucky 06. Bill Black's Combo - Smokie (Part 2) 07. The Million Dollar Quartet Feat. Elvis, Carl Perkins, Jerry Lee & Johnny Cash - Don't Be Cruel 0 ...

30
сен
2017

Elvis Presley - Elvis Singing Flaming Star And Others [24 bit 96 khz] [1968, Rock Roll, Rhythm Blues, Ballad, FLAC]

Формат: FLAC, tracks, lossless
Год выпуска: 1968
Страна: USA
Жанр: Rock & Roll, Rhythm & Blues, Ballad
Продолжительность: 00:20:46
Описание: 01. Flaming Star (2:30) 02. Wonderful World (2:15) 03. Night Life (1:54) 04. All I Needed Was The Rain (1:50) 05. Too Much Monkey Business (2:33) 06. The Yellow Rose Of Texas / The Eyes Of Texas (2:58 ) 07. She's A Machine (1:40) 08. Do The Vega (2:25) 09. Tiger Man (Live) (2:40)
Доп. информация: Logfoobar2000 1.3.9 / Dynamic Range Meter 1.1.1 log date: 2017-09-30 21:03:50 -------------------------------------------------------------------------------- ...

17
ноя
2013

Elvis Presley - The Nation's Favourite Elvis Songs [Deluxe Edition] [2013, Rock Roll, MP3]

Формат: MP3, tracks, 320kbps
Год выпуска: 2013
Страна: США
Жанр: Rock & Roll
Продолжительность: 02:02:59
Описание: CD1 (00 01. Suspicious Minds 02. Always On My Mind 03. Love Me Tender 04. In the Ghetto 05. Viva Las Vegas 06. Jailhouse Rock 07. Hound Dog 08. Blue Suede Shoes 09. All Shook Up 10. Are You Lonesome Tonight? 11. The Wonder Of You 12. It's Now Or Never 13. Don't Be Cruel 14. Heartbreak Hotel 15. If I Can Dream 16. An American Trilogy 17. King Creole 18. Return To Sender 19. A Little Less Conversation (JXL Remix) 20. Can't Help Falling In Love CD2 (01 01. (Let Me Be Your) Teddy Be ...

07
окт
2017

Elvis Presley - Christmas with Elvis and The Royal Philharmonic Orchestra [24 bit 96 khz] [2017, Pop, Rock, Rock 'n' Roll, Christmas, FLAC]

Формат: FLAC, tracks, lossless
Год выпуска: 2017
Страна: USA
Жанр: Pop, Rock, Rock 'n' Roll, Christmas
Продолжительность: 00:36:13
Описание: 01. Santa Claus Is Back In Town (02:29) 02. White Christmas (02:42) 03. Here Comes Santa Claus (Right Down Santa Claus Lane) (02:03) 04. Merry Christmas Baby (04:51) 05. Blue Christmas (02:10) 06. I'll Be Home for Christmas (03:18 ) 07. Winter Wonderland (02:21) 08. Santa Bring My Baby Back (To Me) (01:53) 09. Silver Bells (02:56) 10. Oh Little Town of Bethlehem (02:50) 11. O Come All Ye Faithful (03:04) 12. The First Noel (02:54) 13. Silent Night (02:41 ...

07
июл
2007

Elvis Presley Альбомы:BLUE HAWAII, Elvis is back, G.I. BLUES, How great thou art...

Страна: USA
Жанр: Rock & Roll
Формат: MP3
Трэклист:
АЛЬБОМЫ: BLUE HAWAII (46:39)
Битрейт аудио: 192 кбит/сек 1. Blue Hawaii 2. Almost Always True 3. Aloha Oe 4. No More 5. Can't Help Falling In Love 6. Rock-A-Hula Baby 7. Moonlight Swim 8. Ku-U-I-Po 9. Ito Eats 10. Slicin' Sand 11. Hawaiian Sunset 12. Beach Boy Blues 13. Island Of Love 14. Hawaiian Wedding Song 15. Steppin' Out Of Line 16. Can't Help Falling In Love 17. Slicin' Sand (Alternate take 4) 18. No More (Alternate take 7) 19. Rock-A-Hula Baby (Alternate take 1) 20. Beach Boy Blues (Movie version) 21. Steppin' Out Of Line (Movie ver ...

09
июн
2008

Elvis Presley - Elvis At The Movies (CD1, CD2)

Страна: USA
Год выпуска: 2007
Жанр: Рок
Продолжительность: 80 мин.
Формат: MP3
Битрейт: 256
Трэклист: CD1: 1. Love Me Tender (2003 Sony Remaster) 2. Loving You (2003 Sony Remaster) 3. Jailhouse Rock (2003 Sony Remaster) 4. Treat Me Nice (2003 Sony Remaster) 5. Hard Headed Woman (2003 Sony Remaster) 6. King Creole (2003 Sony Remaster) 7. G.I. Blues (Remastered At The Movies Version) 8. Frankfort Special (Remastered At The Movies Version) 9. Flaming Star 10. Lonely Man (Remastered The Hits O-Card Version) 11. Can't Help Falling In Love (Remastered At The Movies Version) 12. Blue Hawaii (Remaster ...

02
мая
2007

Elvis Presley - The Essential Elvis Presley (2007) [mp3, 166]

Страна: usa
Год выпуска: 2007
Жанр: Rock & Roll
Продолжительность: 01:52:33
Формат: MP3
Битрейт аудио: 166 kbps
Трэклист: CD 1 01. That's All Right 1:57 02. Baby, Let's Play House 2:17 03. Mystery Train 2:29 04. Heartbreak Hotel 2:09 05. I Was The One 2:33 06. Blue Suede Shoes 2:00 07. Hound Dog 2:17 08. Don't Be Cruel 2:03 09. Love Me Tender 2:42 10. All Shook Up 1:59 11. (There'll Be) Peace In The Valley (For Me) 3:22 12. Jailhouse Rock 2:36 13. Trouble 2:18 14. Fever 3:33 15. It's Now Or Never 3:16 16. Reconsider Baby 3:44 17. Are You Lonesome Tonight 3:08 18. Little Sister 2:32 19. Follow ...

13
мар
2008

Elvis Presley - Elvis Country (original) (1971) [mp3, 192]

Страна: USA
Год выпуска: 1971
Жанр: кантри
Продолжительность: 38:48
Формат: MP3
Битрейт аудио: 192
Трэклист: 01 «Snowbird» (2:17) 02 «Tomorrow Never Comes» (4:07) 03 «Little Cabin on the Hill» (1:58) 04 «Whole Lotta Shakin' Going On» (3:10) 05 «Funny How Time Slips Away» (4:32) 06 «I Really Don’t Want To Know» (2:51) 07 «There Goes My Everything» (3:10) 08 «It’s Your Baby, You Rock It» (3:04) 09 «The Fool» (2:34) 10 «Faded Love» (3:19) 11 «I Washed My Hands in Muddy Water» (3:57) 12 «Make The World Go Away» (3:49)
Доп. информация: В июне 1970 года Пресли после полуторагодичного перерыва отправ ...

22
авг
2013

Elvis Presley - Elvis At Stax (3CD) [2013, Rock'n'Roll, MP3]

Формат: MP3, tracks, 320kbps
Год выпуска: 2013
Страна: США
Жанр: Rock'n'Roll
Продолжительность: 02:53:53
Описание: CD1 (00 01. I Got a Feelin in My Body 02. Find Out What s Happening 03. Promised Land 04. For Ol Times Sake 05. I ve Got a Thing About You Baby 06. It s Midnight 07. If You Talk in Your Sleep 08. Loving Arms 09. You Asked Me To 10. Good Time Charlie s Got the Blues 11. Talk About the Good Times 12. There s a Honky Tonk Angel 13. She Wears My Ring 14. Three Corn Patches 15. I Got a Feelin in My Body 16. If You Don t Come Back 17. Promised Land CD2 (01 01. Mr. Songman 02. Your Love ...

23
фев
2013

Elvis Presley - Brilliant Elvis Collection [2013, Rock, Rock & Roll, Country, Ballad, Gospel, Soundtrack, FLAC]

Формат: FLAC, (image + .cue), lossless
Год выпуска: 2013
Страна: USA
Жанр: Rock, Rock & Roll, Country, Ballad, Gospel, Soundtrack
Продолжительность: 06:34:00
Описание: Rock And Roll (2CD Set) 01Disc One 00Трeклист: 01. Blue Suede Shoes 02:40 02. That's Allright Mama 02:15 03. Good Rockin' Tonight 02:01 04. Jailhouse Rock 02:33 05. Long Tall Sally 03:07 06. Stuck On You 02:45 07. Tutti Frutti 02:19 08. Shake, Rattle And Roll 02:34 09. I Got Stung 02:24 10. Baby Let's Play House 02:26 11. Dirty, Dirty Feeling 02:36 12. In Your Arms 02:00 13. Rip It Up 02:20 14. Ready Teddy 02:17 ...

26
июн
2015

Elvis Presley - That's The Way It Is (2CD) [2014, Rock, Rock'N'Roll, FLAC]

Формат: FLAC, (image + .cue), lossless
Год выпуска: 2014
Страна: USA
Жанр: Rock, Rock'N'Roll
Продолжительность: 02:28:42
Описание: CD 1 01THE ORIGINAL ALBUM 01. I Just Can't Help Believin' (C. Weil / B. Mann) 4:40 02. Twenty Days and Twenty Nights (B. Weisman / C. Westlake) 3:17 03. How the Web Was Woven (C. Westlake / D. Most) 3:25 04. Patch It Up (E. Rabbit / R. Bourke) 4:00 05. Mary in the Morning (J. Cymbal / M. Rashkow) 4:10 06. You Don't Have to Say You Love Me (V. Vickham / S. Napier-Bell /P. Donaggio / V. Pallavicini) 2:30 07. You've Lost That Loving Feeling (C. Weil / B. Mann) 4:24 08 ...