14
авг
2015

Led Zeppelin - Albums Collection (Super Deluxe Edition 7CD Box Sets) [2015, Hard Rock, Blues Rock, FLAC]

Led Zeppelin - Albums Collection (Super Deluxe Edition 7CD Box Sets)
Формат: FLAC, (image + .cue), lossless
Год выпуска: 2015
Страна: UK
Жанр: Hard Rock, Blues Rock
Продолжительность: 04:17:05
Описание:
1976 Presence (2CD) 01
Led Zeppelin - Albums Collection
CD -1 Original Album 00:44:48

1. Achilles Last Stand
2. For Your Life
3. Royal Orleans
4. Nobody's Fault But Mine
5. Candy Store Rock
6. Hots On For Nowhere
7. Tea For One


CD -2 Companion Audio 00:31:34

1. Two Ones Are Won (Achilles Last Stand) (Reference Mix)
2. For Your Life (Reference Mix)
3. 10 Ribs & All / Carrot Pod Pod (Pod) (Reference Mix)
4. Royal Orleans (Reference Mix)
5. Hots On For Nowhere (Reference Mix)

eac CD 1
Exact Audio Copy V1.1 from 23. June 2015

EAC extraction logfile from 9. August 2015, 11:03

Led Zeppelin / Presence Deluxe CD1

Used drive : Optiarc DVD RW AD-7280S Adapter: 1 ID: 0

Read mode : Secure
Utilize accurate stream : Yes
Defeat audio cache : Yes
Make use of C2 pointers : No

Read offset correction : 48
Overread into Lead-In and Lead-Out : No
Fill up missing offset samples with silence : Yes
Delete leading and trailing silent blocks : No
Null samples used in CRC calculations : Yes
Used interface : Native Win32 interface for Win NT & 2000

Used output format : Internal WAV Routines
Sample format : 44.100 Hz; 16 Bit; Stereo

TOC of the extracted CD

Track | Start | Length | Start sector | End sector
---------------------------------------------------------
1 | 0:00.00 | 10:31.54 | 0 | 47378
2 | 10:31.54 | 6:25.06 | 47379 | 76259
3 | 16:56.60 | 2:59.17 | 76260 | 89701
4 | 19:56.02 | 6:28.07 | 89702 | 118808
5 | 26:24.09 | 4:11.28 | 118809 | 137661
6 | 30:35.37 | 4:44.16 | 137662 | 158977
7 | 35:19.53 | 9:28.05 | 158978 | 201582

Range status and errors

Selected range

Filename C:UsersMeijinDesktopLossless Galaxy ALLexxessLed Zeppelin1976 Presence (2CD + 2LP Super Deluxe Atlantic Records 2015)CD1 Original AlbumLed Zeppelin - Presence Deluxe CD1.wav

Peak level 100.0 %
Extraction speed 3.7 X
Range quality 99.9 %
Test CRC 3B8710C4
Copy CRC 3B8710C4
Copy OK

No errors occurred

AccurateRip summary

Track 1 not present in database
Track 2 not present in database
Track 3 not present in database
Track 4 not present in database
Track 5 not present in database
Track 6 not present in database
Track 7 not present in database

None of the tracks are present in the AccurateRip database

End of status report

---- CUETools DB Plugin V2.1.6

[CTDB TOCID: mlXFyD5DnEzmGgPedvQSCM64Jzs-] found
Submit result: mlXFyD5DnEzmGgPedvQSCM64Jzs- has been submitted
Track | CTDB Status
1 | (89/93) Differs in 28 samples @08:07:31
2 | (90/93) Accurately ripped
3 | (91/93) Accurately ripped
4 | (89/93) Differs in 4 samples @01:03:65
5 | (93/93) Accurately ripped
6 | (92/93) Accurately ripped
7 | (92/93) Accurately ripped
If you are sure that your rip contains errors, you can use CUETools to repair it.

==== Log checksum 3E9A0B11E725EF1CDA67239E3C2EB7A0EED3D1306F72C662C65419D0921335F6 ====
eac CD 2
Exact Audio Copy V1.1 from 23. June 2015

EAC extraction logfile from 9. August 2015, 10:06

Led Zeppelin / Presence Deluxe CD2

Used drive : PLEXTOR BD-R PX-B950SA Adapter: 1 ID: 1

Read mode : Secure
Utilize accurate stream : Yes
Defeat audio cache : Yes
Make use of C2 pointers : No

Read offset correction : 6
Overread into Lead-In and Lead-Out : No
Fill up missing offset samples with silence : Yes
Delete leading and trailing silent blocks : No
Null samples used in CRC calculations : Yes
Used interface : Native Win32 interface for Win NT & 2000

Used output format : Internal WAV Routines
Sample format : 44.100 Hz; 16 Bit; Stereo

TOC of the extracted CD

Track | Start | Length | Start sector | End sector
---------------------------------------------------------
1 | 0:00.00 | 10:28.50 | 0 | 47149
2 | 10:28.50 | 6:28.04 | 47150 | 76253
3 | 16:56.54 | 6:48.59 | 76254 | 106912
4 | 23:45.38 | 3:01.04 | 106913 | 120491
5 | 26:46.42 | 4:47.16 | 120492 | 142032

Range status and errors

Selected range

Filename C:UsersMeijinDesktopLossless Galaxy ALLexxessLed Zeppelin1976 Presence (2CD + 2LP Super Deluxe Atlantic Records 2015)CD2 Companion AudioLed Zeppelin - Presence Deluxe CD2.wav

Peak level 97.9 %
Extraction speed 6.2 X
Range quality 100.0 %
Test CRC D15BD6A5
Copy CRC D15BD6A5
Copy OK

No errors occurred

AccurateRip summary

Track 1 not present in database
Track 2 not present in database
Track 3 not present in database
Track 4 not present in database
Track 5 not present in database

None of the tracks are present in the AccurateRip database

End of status report

---- CUETools DB Plugin V2.1.6

[CTDB TOCID: of7gTToqh37p_mJ1J7rvS3iBjC8-] found
Submit result: of7gTToqh37p_mJ1J7rvS3iBjC8- has been confirmed
Track | CTDB Status
1 | (80/80) Accurately ripped
2 | (80/80) Accurately ripped
3 | (80/80) Accurately ripped
4 | (80/80) Accurately ripped
5 | (80/80) Accurately ripped

==== Log checksum 3E4E625E1C0D1E7BF62187DE3E538137416065D7BEA5047174D1142A884F9693 ====
1979 In Through The Out Door (2CD) 01
Led Zeppelin - Albums Collection
CD -1 Original Album 00:42:37

1. In The Evening
2. South Bound Saurez
3. Fool In The Rain
4. Hot Dog
5. Carouselambra
6. All My Love
7. I'm Gonna Crawl


CD -2 Companion Audio 00:42:52

1. In The Evening (Rough Mix)
2. Southbound Piano (South Bound Saurez) (Rough Mix)
3. Fool In The Rain (Rough Mix)
4. Hot Dog (Rough Mix)
5. The Epic (Carouselambra) (Rough Mix)
6. The Hook (All My Love) (Rough Mix)
7. Blot (I'm Gonna Crawl) (Rough Mix)

eac CD 1
Exact Audio Copy V1.1 from 23. June 2015

EAC extraction logfile from 8. August 2015, 19:30

Led Zeppelin / In Through The Out Door Deluxe CD1

Used drive : PLEXTOR BD-R PX-B950SA Adapter: 1 ID: 1

Read mode : Secure
Utilize accurate stream : Yes
Defeat audio cache : Yes
Make use of C2 pointers : No

Read offset correction : 6
Overread into Lead-In and Lead-Out : No
Fill up missing offset samples with silence : Yes
Delete leading and trailing silent blocks : No
Null samples used in CRC calculations : Yes
Used interface : Native Win32 interface for Win NT & 2000

Used output format : Internal WAV Routines
Sample format : 44.100 Hz; 16 Bit; Stereo

TOC of the extracted CD

Track | Start | Length | Start sector | End sector
---------------------------------------------------------
1 | 0:00.00 | 6:53.68 | 0 | 31042
2 | 6:53.68 | 4:13.69 | 31043 | 50086
3 | 11:07.62 | 6:10.69 | 50087 | 77905
4 | 17:18.56 | 3:18.41 | 77906 | 92796
5 | 20:37.22 | 10:34.01 | 92797 | 140347
6 | 31:11.23 | 5:53.54 | 140348 | 166876
7 | 37:05.02 | 5:31.73 | 166877 | 191774

Range status and errors

Selected range

Filename C:UsersMeijinDesktopLossless Galaxy ALLexxessLed Zeppelin1979 In Through The Out Door (2CD + 2LP Super Deluxe Atlantic Records 2015)CD1 Original AlbumLed Zeppelin - In Through The Out Door Deluxe CD1.wav

Peak level 98.8 %
Extraction speed 6.6 X
Range quality 100.0 %
Test CRC 285A2EF3
Copy CRC 285A2EF3
Copy OK

No errors occurred

AccurateRip summary

Track 1 not present in database
Track 2 not present in database
Track 3 not present in database
Track 4 not present in database
Track 5 not present in database
Track 6 not present in database
Track 7 not present in database

None of the tracks are present in the AccurateRip database

End of status report

---- CUETools DB Plugin V2.1.6

[CTDB TOCID: ffqF4AqUEkh9DV05NxX67o2ClOg-] found
Submit result: ffqF4AqUEkh9DV05NxX67o2ClOg- has been confirmed
Track | CTDB Status
1 | (78/79) Accurately ripped
2 | (79/79) Accurately ripped
3 | (78/79) Accurately ripped
4 | (79/79) Accurately ripped
5 | (79/79) Accurately ripped
6 | (79/79) Accurately ripped
7 | (79/79) Accurately ripped

==== Log checksum 4A34FD98D1396C626000E9776C8FC084A376B18DE894D5EE62ABF8BA62DF0277 ====
eac CD 2
Exact Audio Copy V1.1 from 23. June 2015

EAC extraction logfile from 8. August 2015, 18:58

Led Zeppelin / In Through The Out Door Deluxe CD2

Used drive : PLEXTOR BD-R PX-B950SA Adapter: 1 ID: 1

Read mode : Secure
Utilize accurate stream : Yes
Defeat audio cache : Yes
Make use of C2 pointers : No

Read offset correction : 6
Overread into Lead-In and Lead-Out : No
Fill up missing offset samples with silence : Yes
Delete leading and trailing silent blocks : No
Null samples used in CRC calculations : Yes
Used interface : Native Win32 interface for Win NT & 2000

Used output format : Internal WAV Routines
Sample format : 44.100 Hz; 16 Bit; Stereo

TOC of the extracted CD

Track | Start | Length | Start sector | End sector
---------------------------------------------------------
1 | 0:00.00 | 6:54.33 | 0 | 31082
2 | 6:54.33 | 4:14.53 | 31083 | 50185
3 | 11:09.11 | 6:13.12 | 50186 | 78172
4 | 17:22.23 | 3:17.10 | 78173 | 92957
5 | 20:39.33 | 10:48.65 | 92958 | 141622
6 | 31:28.23 | 5:52.40 | 141623 | 168062
7 | 37:20.63 | 5:31.15 | 168063 | 192902

Range status and errors

Selected range

Filename C:UsersMeijinDesktopLossless Galaxy ALLexxessLed Zeppelin1979 In Through The Out Door (2CD + 2LP Super Deluxe Atlantic Records 2015)CD2 Companion AudioLed Zeppelin - In Through The Out Door Deluxe CD2.wav

Peak level 98.1 %
Extraction speed 6.7 X
Range quality 100.0 %
Test CRC 0755302F
Copy CRC 0755302F
Copy OK

No errors occurred

AccurateRip summary

Track 1 not present in database
Track 2 not present in database
Track 3 not present in database
Track 4 not present in database
Track 5 not present in database
Track 6 not present in database
Track 7 not present in database

None of the tracks are present in the AccurateRip database

End of status report

---- CUETools DB Plugin V2.1.6

[CTDB TOCID: s_PngelijvkY8KJScKftpf1y7EA-] found
Submit result: s_PngelijvkY8KJScKftpf1y7EA- has been confirmed
Track | CTDB Status
1 | (67/69) Accurately ripped
2 | (68/69) Accurately ripped
3 | (67/69) Accurately ripped
4 | (68/69) Accurately ripped
5 | (67/69) Accurately ripped
6 | (68/69) Accurately ripped
7 | (69/69) Accurately ripped

==== Log checksum BAFB5357D43AE01C1FB80529CD90317431F2D33AF1FDBD34B7C14A92ADB0ABB3 ====
1982 Coda (3CD) 01
Led Zeppelin - Albums Collection
CD -1 Original Album 00:33:05

1. We're Gonna Groove
2. Poor Tom
3. I Can't Quit You Baby
5. Ozone Baby
6. Darlene
7. Bonzo's Montreux
8. Wearing And Tearing


CD -2 Companion Audio 00:30:40

1. We're Gonna Groove (Alternate Mix)
2. If It Keeps On Raining (When The Levee Breaks) (Rough Mix)
3. Bonzo's Montreux (Mix Construction In Progress)
4. Baby Come On Home
5. Sugar Mama ( Mix) 02:50
6. Poor Tom (Instrumental Mix)
7. Travelling Riverside Blues (BBC Session)
8. Hey, Hey, What Can I Do


CD -3 Companion Audio 00:33:29

1. Four Hands (Four Sticks) (Bombay Orchestra)
2. Friends (Bombay Orchestra)
3. St. Tristan's Sword (Rough Mix)
4. Desire (The Wanton Song) Rough Mix)
5. Bring It On Home (Rough Mix)
6. Walter's Walk (Rough Mix)
7. Everybody Makes It Through (In The Light) (Rough Mix)

eac CD 1
Exact Audio Copy V1.1 from 23. June 2015

EAC extraction logfile from 8. August 2015, 18:26

Led Zeppelin / Coda Deluxe CD1

Used drive : PLEXTOR BD-R PX-B950SA Adapter: 1 ID: 1

Read mode : Secure
Utilize accurate stream : Yes
Defeat audio cache : Yes
Make use of C2 pointers : No

Read offset correction : 6
Overread into Lead-In and Lead-Out : No
Fill up missing offset samples with silence : Yes
Delete leading and trailing silent blocks : No
Null samples used in CRC calculations : Yes
Used interface : Native Win32 interface for Win NT & 2000

Used output format : Internal WAV Routines
Sample format : 44.100 Hz; 16 Bit; Stereo

TOC of the extracted CD

Track | Start | Length | Start sector | End sector
---------------------------------------------------------
1 | 0:00.00 | 2:38.31 | 0 | 11880
2 | 2:38.31 | 3:02.31 | 11881 | 25561
3 | 5:40.62 | 4:18.13 | 25562 | 44924
4 | 9:59.00 | 4:31.60 | 44925 | 65309
5 | 14:30.60 | 3:36.27 | 65310 | 81536
6 | 18:07.12 | 5:06.51 | 81537 | 104537
7 | 23:13.63 | 4:22.11 | 104538 | 124198
8 | 27:35.74 | 5:29.56 | 124199 | 148929

Range status and errors

Selected range

Filename C:UsersMeijinDesktopLossless Galaxy ALLexxessLed Zeppelin1982 Coda (3CD + 3LP Super Deluxe Atlantic Records 2015)CD1 Original AlbumLed Zeppelin - Coda Deluxe CD1.wav

Peak level 100.0 %
Extraction speed 6.1 X
Range quality 99.9 %
Test CRC 6CC4CF27
Copy CRC 6CC4CF27
Copy OK

No errors occurred

AccurateRip summary

Track 1 not present in database
Track 2 not present in database
Track 3 not present in database
Track 4 not present in database
Track 5 not present in database
Track 6 not present in database
Track 7 not present in database
Track 8 not present in database

None of the tracks are present in the AccurateRip database

End of status report

---- CUETools DB Plugin V2.1.6

[CTDB TOCID: N.ZtwRVFvzWZQ_j_IQPm6zvXteM-] found
Submit result: N.ZtwRVFvzWZQ_j_IQPm6zvXteM- has been confirmed
Track | CTDB Status
1 | (70/70) Accurately ripped
2 | (70/70) Accurately ripped
3 | (70/70) Accurately ripped
4 | (70/70) Accurately ripped
5 | (70/70) Accurately ripped
6 | (70/70) Accurately ripped
7 | (70/70) Accurately ripped
8 | (70/70) Accurately ripped

==== Log checksum 21CB43125E2B65ED11489EE65140EEFD343DA7E6D74C8402FA71303BB82F6D77 ====
eac CD 2
Exact Audio Copy V1.1 from 23. June 2015

EAC extraction logfile from 8. August 2015, 17:57

Led Zeppelin / Coda Deluxe CD2

Used drive : PLEXTOR BD-R PX-B950SA Adapter: 1 ID: 1

Read mode : Secure
Utilize accurate stream : Yes
Defeat audio cache : Yes
Make use of C2 pointers : No

Read offset correction : 6
Overread into Lead-In and Lead-Out : No
Fill up missing offset samples with silence : Yes
Delete leading and trailing silent blocks : No
Null samples used in CRC calculations : Yes
Used interface : Native Win32 interface for Win NT & 2000

Used output format : Internal WAV Routines
Sample format : 44.100 Hz; 16 Bit; Stereo

TOC of the extracted CD

Track | Start | Length | Start sector | End sector
---------------------------------------------------------
1 | 0:00.00 | 2:40.21 | 0 | 12020
2 | 2:40.21 | 4:14.20 | 12021 | 31090
3 | 6:54.41 | 4:59.45 | 31091 | 53560
4 | 11:54.11 | 4:29.72 | 53561 | 73807
5 | 16:24.08 | 2:50.44 | 73808 | 86601
6 | 19:14.52 | 2:17.05 | 86602 | 96881
7 | 21:31.57 | 5:11.48 | 96882 | 120254
8 | 26:43.30 | 3:56.57 | 120255 | 138011

Range status and errors

Selected range

Filename C:UsersMeijinDesktopLossless Galaxy ALLexxessLed Zeppelin1982 Coda (3CD + 3LP Super Deluxe Atlantic Records 2015)CD2 Companion AudioLed Zeppelin - Coda Deluxe CD2.wav

Peak level 99.9 %
Extraction speed 6.1 X
Range quality 100.0 %
Test CRC 2E0D56CB
Copy CRC 2E0D56CB
Copy OK

No errors occurred

AccurateRip summary

Track 1 not present in database
Track 2 not present in database
Track 3 not present in database
Track 4 not present in database
Track 5 not present in database
Track 6 not present in database
Track 7 not present in database
Track 8 not present in database

None of the tracks are present in the AccurateRip database

End of status report

---- CUETools DB Plugin V2.1.6

[CTDB TOCID: .P4d_QhWyPng91gyJ8AOXAd3YZM-] found
Submit result: .P4d_QhWyPng91gyJ8AOXAd3YZM- has been confirmed
Track | CTDB Status
1 | (66/67) Accurately ripped
2 | (66/67) Accurately ripped
3 | (66/67) Accurately ripped
4 | (66/67) Accurately ripped
5 | (66/67) Accurately ripped
6 | (66/67) Accurately ripped
7 | (66/67) Accurately ripped
8 | (67/67) Accurately ripped

==== Log checksum 58F69919478D50718151AA19D1F86AB7D27DB9CF9F05FEFD1E9BE678DEBD06A7 ====
eac CD 3
Exact Audio Copy V1.1 from 23. June 2015

EAC extraction logfile from 8. August 2015, 17:20

Led Zeppelin / Coda Deluxe CD3

Used drive : PLEXTOR BD-R PX-B950SA Adapter: 1 ID: 1

Read mode : Secure
Utilize accurate stream : Yes
Defeat audio cache : Yes
Make use of C2 pointers : No

Read offset correction : 6
Overread into Lead-In and Lead-Out : No
Fill up missing offset samples with silence : Yes
Delete leading and trailing silent blocks : No
Null samples used in CRC calculations : Yes
Used interface : Native Win32 interface for Win NT & 2000

Used output format : Internal WAV Routines
Sample format : 44.100 Hz; 16 Bit; Stereo

TOC of the extracted CD

Track | Start | Length | Start sector | End sector
---------------------------------------------------------
1 | 0:00.00 | 4:45.69 | 0 | 21443
2 | 4:45.69 | 4:27.18 | 21444 | 41486
3 | 9:13.12 | 5:41.39 | 41487 | 67100
4 | 14:54.51 | 4:09.66 | 67101 | 85841
5 | 19:04.42 | 2:32.00 | 85842 | 97241
6 | 21:36.42 | 3:19.48 | 97242 | 112214
7 | 24:56.15 | 8:33.46 | 112215 | 150735

Range status and errors

Selected range

Filename C:UsersMeijinDesktopLossless Galaxy ALLexxessLed Zeppelin1982 Coda (3CD + 3LP Super Deluxe Atlantic Records 2015)CD3 Companion AudioLed Zeppelin - Coda Deluxe CD3.wav

Peak level 99.1 %
Extraction speed 6.3 X
Range quality 100.0 %
Test CRC 19E60CC2
Copy CRC 19E60CC2
Copy OK

No errors occurred

AccurateRip summary

Track 1 not present in database
Track 2 not present in database
Track 3 not present in database
Track 4 not present in database
Track 5 not present in database
Track 6 not present in database
Track 7 not present in database

None of the tracks are present in the AccurateRip database

End of status report

---- CUETools DB Plugin V2.1.6

[CTDB TOCID: yPJwCVNMXtkNlnEtx.6NO.DcbS8-] found
Submit result: yPJwCVNMXtkNlnEtx.6NO.DcbS8- has been confirmed
Track | CTDB Status
1 | (68/69) Accurately ripped
2 | (68/69) Accurately ripped
3 | (68/69) Accurately ripped
4 | (68/69) Accurately ripped
5 | (68/69) Accurately ripped
6 | (68/69) Accurately ripped
7 | (67/69) Accurately ripped

==== Log checksum C4B423DDEE2920F547BF0D1377F0E1A6849394B255DDE7C6F6120BE281926EDC ====


Доп. информация:
Об издании
Catalog Box / Numbered: 8122795572 (№ 13633) / 8122795577 (№ 05261) / 8122795582 (№ 04050)
Catalog CDs:
8122795567 • 8122795565
8122795569 • 8122795568
8122795571 • 8122795570 (2CD)
Made in EU
Музыка / Lossless / Рок, Панк, Метал, Альтернатива.
СКАЧАТЬ БЕСПЛАТНО  [6.4 GB]


16
июн
2014

Led Zeppelin - Led Zeppelin I, II, III (6CD Super Deluxe Edition Box Sets Atlantic Records Remastered 2014) [1968 - 1970, Hard Rock, FLAC]

Формат: FLAC, (image+ .cue), lossless
Год выпуска: 1968 - 1970
Страна: UK
Жанр: Hard Rock
Продолжительность: 10:46:14
Треклист: 1968 - Led Zeppelin I (2CD) 01 Disc One - Original Album (0001. Good Times Bad Times 02:47 02. Babe I'm Gonna Leave You 06:42 03. You Shook Me 06:28 04. Dazed And Confused 06:28 05. Your Time Is Gonna Come 04:34 06. Black Mountain Side 02:12 07. Communication Breakdown 02:30 08. I Can't Quit You Baby 04:42 09. How Many More Times 08:29Log EACExact Audio Copy V1.0 beta 3 from 29. August 2011 EAC extraction logfile from 13. June 2014, 20:38 Led Zeppelin / Led Zeppel ...

23
окт
2014

Led Zeppelin - I, II, III, IV, Houses Of The Holy (10CD Super Deluxe Edition Atlantic Records Remastered) - Collection [2014, Hard Rock, FLAC]

Формат: FLAC, (image+ .cue, tracks+ .cue), lossless
Год выпуска: 2014
Страна: UK
Жанр: Hard Rock
Продолжительность: 07:16:45
Треклист: 1968 - Led Zeppelin I (2CD) 01 Disc One - Original Album (0001. Good Times Bad Times 02:47 02. Babe I'm Gonna Leave You 06:42 03. You Shook Me 06:28 04. Dazed And Confused 06:28 05. Your Time Is Gonna Come 04:34 06. Black Mountain Side 02:12 07. Communication Breakdown 02:30 08. I Can't Quit You Baby 04:42 09. How Many More Times 08:29Log EACExact Audio Copy V1.0 beta 3 from 29. August 2011 EAC extraction logfile from 13. June 2014, 20:38 Led Zeppelin / Led ...

17
окт
2014

Led Zeppelin - Led Zeppelin IV (Deluxe Edition 2CD) [2014, Hard Rock, MP3]

Формат: MP3, tracks, 320kbps
Год выпуска: 2014
Страна: UK
Жанр: Hard Rock
Продолжительность: 01:23:02
Описание: CD-1 001. Black Dog 2. Rock And Roll 3. The Battle of Evermore 4. Stairway To Heaven 5. Misty Mountain Hop 6. Four Sticks 7. Going To California 8. When The Levee Breaks CD-2 001. Black Dog (Basic Track With Guitar Overdubs) 2. Rock And Roll (Alternate Mix) 3. The Battle Of Evermore (Mandolin/Guitar Mix From Headley Grange) 4. Stairway To Heaven (Sunset Sound Mix) 5. Misty Mountain Hop (Alternate Mix) 6. Four Sticks (Alternate Mix) 7. Going To California (Mandolin/Guitar Mix) 8. When ...

17
окт
2009

Led Zeppelin - Discography (10 Albums Box Set Universal Music Japan) [1969-1982, Hard Rock, FLAC]

Формат: FLAC, (tracks + .cue), lossless
Год выпуска: 1969-1982
Страна: UK
Жанр: Hard Rock
Продолжительность: 09:29:08
Описание: 1969 - Led Zeppelin (Atlantic WPCR-13130) 00
Трэклист: 01. Good Times Bad Times (Bonham, Jones, Page) 02:47 02. Babe I'm Gonna Leave You (Page, Plant, Bredon) 06:41 03. You Shook Me (Dixon, Lenoir) 06:30 04. Dazed and Confused (Page) 06:27 05. Your Time Is Gonna Come (Jones, Page) 04:34 06. Black Mountain Side (Page) 02:13 07. Communication Breakdown (Bonham, Jones, Page) 02:30 08. I Can't Quit You Baby (Dixon) 04:43 09. How Many More Times (Bonham, Jones, Page) 08 ...

10
авг
2015

Led Zeppelin - Presence (Deluxe Edition 2CD) [2015, Hard Rock, FLAC]

Формат: FLAC, tracks, lossless
Год выпуска: 2015
Страна: England
Жанр: Hard Rock
Продолжительность: 01:16:21
Описание: 01. Achilles Last Stand 02. For Your Life 03. Royal Orleans 04. Nobody's Fault But Mine 05. Candy Store Rock 06. Hots On for Nowhere 07. Tea for One 08. Two Ones Are Won (Achilles Last Stand) (reference mix) 09. For Your Life (reference mix) 10. 10 Ribs & All Carrot Pod Pod (Pod) (reference mix) 11. Royal Orleans (reference mix) 12. Hots On for Nowhere (reference mix)
Доп. информация: Log ----------------------- DON'T MODIFY THIS FILE ----------------------- PERFORMER: a ...

10
авг
2015

Led Zeppelin - In Through the Out Door (Deluxe Edition 2CD) [2015, Hard Rock, FLAC]

Формат: FLAC, tracks, lossless
Год выпуска: 2015
Страна: UK
Жанр: Hard Rock
Продолжительность: 01:25:29
Описание: 01. In the Evening 02. South Bound Saurez 03. Fool In the Rain 04. Hot Dog 05. Carouselambra 06. All My Love 07. I'm Gonna Crawl 08. In the Evening (rough mix) 09. Southbound Piano (South Bound Saurez) (rough mix) 10. Fool In the Rain (rough mix) 11. Hot Dog (rough mix) 12. The Epic (Carouselambra) (rough mix) 13. The Hook (All My Love) (rough mix) 14. Blot (I'm Gonna Crawl) (rough mix)
Доп. информация: Log----------------------- DON'T MODIFY THIS FILE ----------------------- ...

25
июн
2011

Led Zeppelin - Mothership (Deluxe Edition 2CD) [2007, Hard Rock, FLAC]

Формат: FLAC, (tracks + .cue), lossless
Год выпуска: 2007
Страна: UK
Жанр: Hard Rock
Продолжительность: 02:15:36
Описание: Disc One 01
Трэклист: 01. Good Times Bad Times 02:47 02. Communication Breakdown 02:28 03. Dazed And Confused 06:28 04. Babe I'm Gonna Leave You 06:41 05. Whole Lotta Love 05:32 06. Ramble On 04:22 07. Heartbreaker 04:15 08. Immigrant Song 2:26 09. Since I've Been Loving You 07:23 10. Rock And Roll 03:41 11. Black Dog 04:54 12. When The Levee Breaks 07:10 13. Stairway To Heaven 08:02Disc Two 01
Трэклист: 01. The Song Remains The Same 05:32 02. Over The Hills And Far A ...

21
фев
2015

Led Zeppelin - Physical Graffiti (40th Anniversary Deluxe Edition) [1975, Hard Rock, WAVPack]

Формат: WAVPack, (image + .cue), lossless
Год выпуска: 1975
Страна: UK
Жанр: Hard Rock
Продолжительность: 02:04:20
Описание: CD1 00 1. Custard Pie 2. The Rover 3. In My Time Of Dying 4. Houses Of The Holy 5. Trampled Under Foot 6. Kashmir eacExact Audio Copy V1.0 beta 3 from 29. August 2011 EAC extraction logfile from 20. February 2015, 15:08 Led Zeppelin / Physical Graffiti 40th Anniversary Deluxe[CD1] Used drive : PIONEER DVD-RW DVR-111L Adapter: 4 ID: 0 Read mode : Secure Utilize accurate stream : Yes Defeat audio cache : Yes Make use of C2 pointers : No Read offset correction : 48 Ove ...

14
июн
2011

Jefferson Airplane - 2 Box Sets / 8 Albums Original (5CD + 3CD Box Set) [2008 - 2011, Psychedelic rock, FLAC]

Формат: FLAC, (image + .cue), lossless
Год выпуска: 2008 - 2011
Страна: USA
Жанр: Psychedelic rock, blues-rock
Продолжительность: 07:44:55
Описание:
Доп. информация: 2008 Original Album Classics (5CD Box Set) 1966 - Jefferson Airplane Takes Off 01 01. Blues From An Airplane 02. Let Me In 03. Bringing Me Down 04. It's No Secret 05. Tobacco Road 06. Come Up The Year 07. Run Around 08. Let's Get Together 09. Don't Slip Away 10. Chauffeur Blues 11. And I Like It Bonus Tracks 12. Runnin' Round This World 13. High Flying Bird 14. It's Alright 15. Go To Her (Early Version) 16. Let Me In (Original ...

02
мая
2017

Brent Havens Conducts The Music of Led Zeppelin - Led Zeppelin performed by Symphony Orchestra [2004, Symphonic Rock, FLAC]

Формат: FLAC, (tracks + .cue), lossless
Год выпуска: 2004
Страна: UK
Жанр: Symphonic Rock
Продолжительность: 01:03:12
Описание: 01. Immigrant Song (2:24) 02. Heartbreaker (4:23) 03. Kashmir (8:06) 04. The Rain Song (8:10) 05. Thank You (3:52) 06. In The Evening (6:11) 07. I'm Gonna Crawl (5:03) 08. Friends (3:44) 09. Going to California (3:44) 10. Stairway to Heaven (8:18 ) 11. Black Dog (4:54) 12. The Ocean (4:23)
Доп. информация: EAC Exact Audio Copy V1.1 from 23. June 2015 EAC extraction logfile from 28. August 2016, 3:53 Jacksonville Symphony Orchestra / Brent Havens Conducts The Music ...

28
фев
2014

Axxis - Kingdom of the Night II (Super Deluxe Box, Limited Edition 3CD) [2014, Melodic Metal, MP3]

Формат: MP3, tracks, 320kbps
Год выпуска: 2014
Страна: Germany
Жанр: Melodic Metal
Продолжительность: 01:36:41
Описание: CD 1 - Kingdom of the Night II - Black Edition - 00 01. Kingdom of the Night II 04:15 02. Venom 03:47 03. Beyond the Sky 04:21 04. The War 03:43 05. Never Again 03:50 06. Soulfire 04:14 07. More than for One Day 03:24 08. Lass Dich gehn 04:03 09. Lie After Lie 03:40 10. Mary Married a Monster (Our Version) 03:28 11. Bites Inside 03:55 CD 2 - Kingdom of the Night II - White Edition - 00 01. Hall of Fame 03:38 02. Heaven in Paradise 03:54 03. Living in a Dream 04:19 04. 21 ...

11
янв
2013

Pink Floyd - Why Pink Floyd...? (3 Box Sets, 3 Studio Albums, Immersion Edition, Remastered, 11CD) [1973-1979, Progressive Rock, FLAC]

Формат: FLAC, (image + .cue), lossless
Год выпуска: 1973-1979
Страна: UK
Жанр: Progressive Rock
Продолжительность: 09:52:07
Описание: 1973 The Dark Side Of The Moon (2011 Remaster, 3CD+2DVD+Blu-ray, Immersion Edition, 5099902943121) 02 Disc 1 The Original Albums, Remastered 2011 42 01. Speak To Me 02. Breathe (In The Air) 03. On The Run 04. Time 05. The Great Gig In The Sky 06. Money 07. Us & Them 08. Any Colour You Like 09. Brain Damage 10. Eclipse EAC Exact Audio Copy V1.0 beta 3 from 29. August 2011 EAC extraction logfile from 9. January 2013, 9:58 Pink Floyd / The Dark Side Of The Moon ( ...

27
фев
2011

Led Zeppelin - How The West Was Won (3CD Box Set) [2003, Hard Rock, FLAC]

Формат: FLAC, (image + .cue), lossless
Год выпуска: 2003
Страна: England
Жанр: Hard Rock
Продолжительность: 02:30:12
Описание: Треклист СD-1 56:10 01. LA Drone * 02. Immigrant Song * 03. Heartbreaker * 04. Black Dog ** 05. Over The Hills And Far Away ** 06. Since I've Been Loving You * 07. Stairway To Heaven * 08. Going To California * 09. That's The Way ** 10. Bron-Yr-Aur Stomp * * Long Beach Arena ** LA Forum СD-2 53:10 1. Dazed And Confused ** 2. What Is And What Should Never Be * 3. Dancing Days * 4. Moby Dick ** * Long Beach Arena ** LA Forum СD-3 40:52 1. Whole Lotta Love ** I. ...

21
июн
2012

Greg Koch - Collection (6 Albums-7CD) [2003-2012, Blues, Blues-Rock, Guitar Virtuoso, FLAC]

Формат: FLAC, (tracks, image+ .cue), lossless
Год выпуска: 2003-2012
Страна: USA
Жанр: Blues, Blues-Rock, Guitar Virtuoso
Продолжительность: 06:27:44
Описание: 2003 - 13 x 12 (2CD) 01Disc One 00
Трeклист: 01. Beg, Borrow & Steal 04:30 02. Dr. Jekyll 03:20 03. Ain't Got Problems 04:41 04. Smack Dab 03:51 05. Too Broke 05:01 06. Heed The Need 03:13 07. Forever At Last 04:02 08. Flyover Country 04:13 09. Red House 09:04 10. All The Same 04:19 11. Rain, Sleet Or Snow 04:48 12. Fall From Grace 03:01 13. Pink Toenails 03:23 Log EACExact Audio Copy V0.99 prebeta 5 from 4. May 2009 От ...

16
мая
2012

Cheap Trick - 2 Box Sets / 10 Albums (2008 Original Album Classics 5CD Box/2011 Original Album Classics (5CD Box Set) [2008 / 2011, Rock, Hard Rock

Формат: FLAC, (image + .cue), lossless
Год выпуска: 2008 / 2011
Страна: USA
Жанр: Rock, Hard Rock
Продолжительность: 08:12:46
Описание: 2008 Original Album Classics (5CD Box Set Legacy, Epic Records) 1977 Cheap Trick 0 01. ELO Kiddies 02. Daddy Should Have Stayed In High School 03. Taxman, Mr. Thief 04. Cry, Cry 05. Oh, Candy 06. Hot Love 07. Speak Now Or Forever Hold Your Peace 08. He's A Whore 09. Mandocello 10. The Ballad Of TV Violence (I'm Not The Only Boy) Bonus Tracks 11. Lovin' Money 12. I Want You To Want Me 13. Lookout 14. You're All Talk 15. I Dig Go-Go Girls EAC Exact Audio Cop ...