17
окт
2009

Led Zeppelin - Discography (10 Albums Box Set Universal Music Japan) [1969-1982, Hard Rock, FLAC]

Led Zeppelin - Discography (10 Albums Box Set Universal Music Japan)

Формат: FLAC, (tracks + .cue), lossless
Год выпуска: 1969-1982
Страна: UK
Жанр: Hard Rock
Продолжительность: 09:29:08
Описание:


Led Zeppelin - Discography
Трэклист:

01. Good Times Bad Times (Bonham, Jones, Page) 02:47
02. Babe I'm Gonna Leave You (Page, Plant, Bredon) 06:41
03. You Shook Me (Dixon, Lenoir) 06:30
04. Dazed and Confused (Page) 06:27
05. Your Time Is Gonna Come (Jones, Page) 04:34
06. Black Mountain Side (Page) 02:13
07. Communication Breakdown (Bonham, Jones, Page) 02:30
08. I Can't Quit You Baby (Dixon) 04:43
09. How Many More Times (Bonham, Jones, Page) 08:28

Led Zeppelin - Discography
Трэклист:

01. Whole Lotta Love (Bonham, Dixon, Jones, Page, Plant) 05:34
02. What Is and What Should Never Be (Page, Plant) 04:47
03. The Lemon Song (Bonham, Burnett, Jones, Page, Plant) 06:20
04. Thank You (Page, Plant) 04:47
05. Heartbreaker (Bonham, Jones, Page, Plant) 04:15
06. Living Loving Maid (She's Just a Woman) (Page, Plant) 02:40
07. Ramble On (Page, Plant) 04:35
08. Moby Dick (Bonham, Jones, Page) 04:25
09. Bring It On Home (Page, Plant, Dixon) 04:19

Led Zeppelin - Discography
Трэклист:

01. Immigrant Song (Page, Plant) 02:26
02. Friends (Page, Plant) 03:55
03. Celebration Day (Jones, Page, Plant) 03:29
04. Since I've Been Loving You (Jones, Page, Plant) 07:25
05. Out on the Tiles (Bonham, Page, Plant) 04:08
06. Gallows Pole (trad., arr. Page, Plant) 04:58
07. Tangerine (Page) 03:12
08. That's the Way (Page, Plant) 05:39
09. Bron-Y-Aur Stomp (Jones, Page, Plant) 04:20
10. Hats Off to (Roy) Harper (trad., arr. Charles Obscure) 03:42

Led Zeppelin - Discography
Трэклист:

01. Black Dog (Page, Plant, Jones) 04:57
02. Rock and Roll (Page, Plant, Jones, Bonham) 03:40
03. The Battle of Evermore (Page, Plant) 05:52
04. Stairway to Heaven (Page, Plant) 08:02
05. Misty Mountain Hop (Page, Plant, Jones) 04:38
06. Four Sticks (Page, Plant) 04:46
07. Going to California (Page, Plant) 03:31
08. When the Levee Breaks (Page, Plant, Jones, Bonham, Douglas) 07:07

Led Zeppelin - Discography
Трэклист:

01. The Song Remains the Same (Page, Plant ) 05:32
02. The Rain Song (Page, Plant) 07:39
03. Over the Hills and Far Away (Page, Plant) 04:50
04. The Crunge (Bonham, Jones, Page, Plant) 03:17
05. Dancing Days (Page, Plant) 03:43
06. D'yer Mak'er (Bonham, Jones, Page, Plant) 04:23
07. No Quarter (Jones, Page, Plant) 07:00
08. The Ocean (Bonham, Jones, Page, Plant) 04:31

Led Zeppelin - Discography
Disc 1
Трэклист:

01. Custard Pie (Page, Plant) 04:13
02. The Rover (Page, Plant) 05:37
03. In My Time of Dying" (Traditional, arr. Page, Plant, John Paul Jones, John Bonham) 11:05
04. Houses of the Holy (Page, Plant) 04:02
05. Trampled Under Foot (Page, Plant, Jones) 05:37
06. Kashmir (Page, Plant, Bonham) 08:32

Disc 2
Трэклист:

01. In the Light (Page, Plant, Jones) 08:46
02. Bron-Yr-Aur (Page) 02:06
03. Down by the Seaside (Page, Plant) 05:13
04. Ten Years Gone (Page, Plant) 06:32
05. Night Flight (Jones, Page, Plant) 03:36
06. The Wanton Song (Page, Plant) 04:07
07. Boogie with Stu (Bonham, Jones, Page, Plant, Ian Stewart, Mrs. Valens) 03:53
08. Black Country Woman (Page, Plant) 04:24
09. Sick Again (Page, Plant) 04:42

Led Zeppelin - Discography
Трэклист:

01. Achilles Last Stand (Page, Plant) 10:25
02. For Your Life (Page, Plant) 06:24
03. Royal Orleans (Bonham, Jones, Page, Plant) 02:58
04. Nobody's Fault but Mine (Page, Plant) 06:27
05. Candy Store Rock (Page, Plant) 04:11
06. Hots On for Nowhere (Page, Plant) 04:43
07. Tea for One (Page, Plant) 09:27

Led Zeppelin - Discography
Disc 1
Трэклист:

01. Rock and Roll (John Bonham, John Paul Jones, Jimmy Page, Robert Plant) 03:56
02. Celebration Day (Jones, Page, Plant) 03:37
03. Black Dog (with "Bring It On Home" intro) (Page, Plant, Jones) 03:46
04. Over the Hills and Far Away (Page, Plant) 06:11
05. Misty Mountain Hop (Page, Plant, Jones) 04:43
06. Since I've Been Loving You (Jones, Page, Plant) 08:23
07. No Quarter (Jones, Page, Plant) 10:38
08. The Song Remains the Same (Page, Plant) 05:39
09. Rain Song (Page, Plant) 08:20
10. The Ocean (Bonham, Jones, Page, Plant) 05:13

Disc 2
Трэклист:

01. Dazed and Confused (Page) 29:18
02. Stairway to Heaven (Page, Plant) 10:52
03. Moby Dick (Bonham, Jones, Page) 11:02
04. Heartbreaker (Bonham, Jones, Page, Plant) 06:19
05. Whole Lotta Love"/"Boogie Mama (Bonham, Willie Dixon, Jones, Page, Plant) 13:51

Led Zeppelin - Discography
Трэклист:

01. In the Evening (Jones, Page, Plant) 06:49
02. South Bound Saurez (Jones, Plant) 04:12
03. Fool in the Rain (Jones, Page, Plant) 06:12
04. Hot Dog (Page, Plant) 03:17
05. Carouselambra (Jones, Page, Plant) 10:32
06. All My Love (Jones, Plant) 05:51
07. I'm Gonna Crawl (Jones, Page, Plant) 05:30

Led Zeppelin - Discography
Трэклист:

01. We're Gonna Groove (Live) (King, Bethea) 02:42
02. Poor Tom (Page, Plant) 03:03
03. I Can't Quit You Baby (Live) (Dixon) 04:18
04. Walter's Walk (Page, Plant) 04:31
05. Ozone Baby (Page, Plant) 03:35
06. Darlene (Bonham, Jones, Page, Plant) 05:07
07. Bonzo's Montreux (Bonham) 04:19
08. Wearing and Tearing (Page, Plant) 05:32
Bonus tracks:
09. Baby Come On Home (recorded 1968, appeared on Boxed Set 2, 1993) (Berns, Page, Plant) 04:30
10. Travelling Riverside Blues (recorded 1969, appeared on Boxed Set, 1990) (Johnson, Page, Plant) 05:11
11. White Summer/Black Mountain Side (recorded live in June 1969, appeared on Boxed Set, 1990) (Page) 08:01
12. Hey Hey What Can I Do (recorded 1970, appeared on b-side to "Immigrant Song" single, 1970) (Bonham, Jones, Page, Plant) 03:55

Доп. информация:


Led Zeppelin - эта, без всяких сомнений, культовая группа основана в 1968 году. Лондон, Англия.
Состав: Роберт Плант (Robert Plant), Джимми Пейдж (Jimmy Page), Джон Бонам (John Bonham), Джон Пол Джонс (John Paul Jones). Критики не любили их, в Тор 40 на радио они появлялись нечасто, однако Led Zeppelin добились невероятного успеха в 70-х: как в смысле продажи пластинок, так и по количеству посещений своих концертов. После их распада в 1980 из-за смерти барабанщика Джона Бонама слава группы только выросла, благодаря тщательно продуманной серии переизданных альбомов и сотням хард-роковых и метал групп, до сих пор перерабатывающих старый материал знаменитой четверки.

Биография Led Zeppelin началась, когда гитарист Джимми Пейдж решил основать свою собственную команду после двухлетней работы в The Yardbirds. К тому времени за Пейджем закрепилась репутация профессионального сессионного гитариста (он успел поиграть с The Who, The Kinks, Donovan и многими другими), и его статус укреплялся тем, что его предшественниками в The Yardbirds были Эрик Клэптон (Eric Clapton) и Джеф Бэк (Jeff Beck). Пейдж познакомился с басистом Джоном Полом Джонсом, когда они вместе работали с Donovan над «Hurdy Gurdy Man» в апреле 1968. Тогда они и решили попробовать поиграть вместе. Тем же летом Пейдж отправился в Бирмингем, чтобы послушать и, возможно, пригласить молодого вокалиста по имени Роберт Плант, который имел тогда собственную группу Band Of Joy. Трио теперь недоставало только ударника, и Плант порекомендовал взять своего товарища по Band Of Joy - Джона Бонама.

В сентябре 1968 года четверка провела в Лондоне свои первые репетиции и, называясь еще «New Yardbirds», совершила короткое турне по Скандинавии. Название «Led Zeppelin» группа получила с легкой руки Джона Энтвистла из The Who (некоторые утверждают, что это был Кейт Мун), как-то пошутившего, что новый проект Пейджа «полетит как свинцовый воздушный шар». В январе 1969 группа получила от Atlantic Records необычайно крупный аванс в 200 000 долларов и выпустила свой первый одноименный альбом. Записанный всего за тридцать часов, Led Zeppelin I представлял из себя тяжелую смесь фолка, блюза и рока и не поднялся высоко в чартах, однако некоторые композиции с него, такие как «Good Times, Bad Times» или «Communication Breakdown» до сих пор можно услышать по радио, а «Dazed and Confused» превратилась в один из коронных концертных номеров «Led Zeppelin». Чтобы раскрутить альбом, группа много гастролировала. Благодаря известности Джимми Пейджа, поклонники появились у них практически с момента возникновения.

Led Zeppelin II вышел в свет, когда предприятие, которое Пейдж позже назвал «нелепым» - группа находилась в дороге - однако отдача оказалась огромной: «Whole Lotta Love» поднялась до четвертого места в чарте журнала Billboard. В октябре группа в четвертый раз за год отправилась в Америку, где выступала вместе с Сантаной (Santana) и James Gang.

Led Zeppelin III появился в октябре 1970. Необычайно контрастный по своему звучанию, альбом ознаменовал собой отход группы от ее блюзовых корней и погружение в новые музыкальные структуры. «Immigrant Song» представлял из себя настоящую хард-роковую машину, работающую на всех четырех цилиндрах: «рыдания» Планта, глухой ропот баса, чередование ритм- и соло-гитары и стаккато-бит. И вдруг деликатный «Tangerine» - нежный голос мандолины и совсем иное звучание гитары - спокойная и красивая музыка, которую Led Zeppelin, оказывается, тоже отлично умели исполнять. В результате - новые гастроли, и вот уже группа с легкостью распродает билеты, собирая 15 000 - 20 000 спортивные залы в Америке.

Следующий альбом, хотя и не блистал новыми звуковыми находками, стал вехой в истории рока. Официально не имея названия, четвертый альбом (для простоты обычно именовавшийся Led Zeppelin IV) включал в себя «Stairway to Heaven», которая надолго останется одной из самых известных песен рок-музыки. Четвертый альбом, вышедший в ноябре 1971, не только не имел названия - на нем не было даже имен музыкантов на конверте. Только на внутреннем развороте значились мистические символы каждого из его создателей. И снова начались гастроли. Во время одной из поездок группа впервые посетила Японию, где дала благотворительный концерт в Хиросиме.

Houses of the Holy (1973), следующая работа «Led Zeppelin», стала одной из самых интересных студийных записей группы. В «No Quarter» они снова вспомнили блюз, а «D’yer Mak’er» стал удачной прогулкой в реггей. Альбом поднялся до первого места в чарте Billboard, а группа открыла турне по Соединенным Штатам двумя грандиозными концертами в Тампе и Атланте, на каждом из которых присутствовало более 50 000 человек. Последнее шоу побило рекорд The Beatles, установленный в 1965 году, по количеству публики, пришедшей на сольное шоу какой-либо группы.

Следующие выступления в Madison Square Garden в Нью-Йорке в том же году были использованы для создания фильма и концертной пластинки The Song Remains the Same, выпущенных три года спустя. За Led Zeppelin прочно закрепилась репутация «концертной группы». Обладая взрывным темпераментом, они приносили на сцену свою необузданную энергию, обычно устраивая трехчасовые представления. Музыканты легко меняли направление, то растягивая на 45 минут «Dazed and Confused», то с удивительной грацией исполняя спокойные мелодичные песни типа «The Rain Song». В отличие от The Who или The Rolling Stones, группу окружал мистический ореол. Обложки пластинок, казалось, содержали тайные образы, полные скрытого смысла; они давали сравнительно мало интервью; и они никогда не выступали на телевидении - а это означало, что единственным способом увидеть группу было попасть на ее концерт.

В 1974 году группа основала свою собственную фирму звукозаписи Swan Song. Функцию дистрибьютера взял на себя Atlantic. Первый альбом «Led Zeppelin» с новой этикеткой носил название Physical Graffiti (1975), довольно неровный двойник, состоящий как из новых записей, так и из выдержек из старых пластинок. Кроме всего прочего, в него вошла композиция «Kashmir», возможно самая экзотическая песня из всего каталога Led Zeppelin. В то время как недоброжелатели постоянно обвиняли Пейджа в том, что он заимствует блюзовые рифы для своих композиций у других артистов, «Kashmir» представлял из себя совершенно оригинальное произведение. Тур 1975 года стал еще одним огромным успехом группы, кульминацией которого стали пять триумфальных вечеров в Earl’s Court в Лондоне, единственном в Англии закрытом зале, сравнимом по вместимости с аренами США. Впервые Zeppelin смогли в полной мере использовать свои световые эффекты и звуковые системы дома в Англии.

Led Zeppelin собирались вернуться на американские стадионы в конце лета 1975, но все концерты пришлось отменить, из-за того что Роберт Плант серьезно пострадал в автокатастрофе. Несчастный случай поверг музыкантов в состояние тревоги и беспокойства, и это не могло не отразиться в их следующем альбоме Presence. Он был записан во время 18-дневного студийного марафона в Мюнхене, с Плантом все еще не способным передвигаться без посторонней помощи, и увидел свет в марте 1976. Пока Presence неумолимо шел к первым местам в чартах, стали расползаться слухи, что группа не сможет больше гастролировать. К счастью, Плант начал поправляться, и хотя и с задержкой, Led Zeppelin все-таки начали свой, как оказалось, последний американский тур. Первый концерт состоялся 1 апреля в Далласе. Турне проходило очень успешно, но неожиданно было прервано - Плант узнал о том, что его сын Карак умер. Все выступления отменили, и Led Zeppelin погрузился в состояние затяжной депрессии, которое многие склонны были рассматривать как закат группы.

Три года прошло между Presence и следующим альбомом. За это время панк-рок ворвался в музыкальный мир Англии. Led Zeppelin, однако, остались верны себе. In Through the Out Door (1979), записанный на студии «ABBA Polar Studios» в Стокгольме - многоплановый альбом, в котором впервые группа широко применяла клавишные инструменты. Прекрасно проявил себя Джон Бонам, на долю которого приходилось поддерживать четкий ритмический рисунок во время этих экспериментов, в то время как клавишные и электрические струнные Джонса значительно расширили диапазон звуковых возможностей группы. «In the Evening» стала классической композицией позднего Led Zeppelin, «All My Love» - берущая за душу песня-посвящение безвременно умершему сыну Планта, а живая ритмичная «Hot Dog» свидетельствовала о том, что квартет, несмотря ни на что, не утратил чувство юмора.

В августе 1979 Led Zeppelin ознаменовал свое окончательное возвращение на прежние позиции в мире рок-музыки, став «гвоздем программы» Небуортского фестиваля в Англии, где группа дала два концерта для более чем 100 000 человек. В июне 80го, готовясь к первому за три года турне по США, Led Zeppelin совершает «разогревающую» гастрольную поездку в Европу с четырнадцатью остановками в разных городах. Казалось, все тревоги остались в прошлом, и «Свинцовый Дирижабль» стремительно влетает в новое десятилетие. Но 25 сентября 1980 года все надежды разом рухнули, и группа прекратила свое существование. Барабанщик Джон Бонам скоропостижно скончался от удушья, вызванного передозировкой спиртного. Ему было тридцать два. В декабре Swan Song сообщила, что группа распущена окончательно. Дело в том, что в своё время Пейдж заявил, что Led Zeppelin будет существовать до тех пор, пока «один из нас не откинет копыта».

«Coda», компиляция из старых неиздававшихся композиций, увидела свет в 1982 году. Сольная карьера у бывших членов Led Zeppelin развивалась по-разному. Наибольшего успеха добился, пожалуй, Плант, выпустивший серию сольных альбомов и принявший участие в The Honeydrippers. О Пейдже сначала ничего не было слышно, пока в 1984 году он не объединился в The Firm с бывшим вокалистом Bad Company Полом Роджерсом. Они выпустили совместно два альбома, но Джимми проявлял мало интереса к этому проекту, и спустя пару лет группа распалась. Затем он резко повернул в другую сторону и начал работать с бывшим вокалистом Deep Purple и фронтменом легендарной группы 80х Whitesnake Дэвидом Ковердейлом. Получившаяся пластинка до сих пор вызывает приятные воспоминания у обоих музыкантов, и они до сих пор поддерживают отношения. Плант и Ковердейл добились того, чтобы альбом получился своего рода «Whitesnake на движке Led Zeppelin» Проект просуществовал недолго - один альбом и одни гастроли в Японии, подкреплённые множеством синглов и, как выразился Ковердейл, «кучей бутлегов» - но он и не задумывался как долгий и прочный союз. Правда, до сих пор этот факт не даёт покоя многим фанатам LZ и даёт повод упрекать Ковердейла в подражательстве Планту, слабости его как музыканта, низкой оценки Плантом музыкальных способностей Ковердейла - на самом же деле оба музыканта остались довольны друг другом. Плант, хотя и подшучивал над странным увлечением своего бывшего гитариста Ковердейлом, должно быть, глубоко переживал в душе, потому что вскоре после того как Дэвид и Джимми расстались, тут же согласился снова работать с ним, более того - исполнял на концертах… песни, написанные Ковердейлом (в частности, Shake My Tree)! Как бы то ни было, первым результатом их воссоединения стал альбом Unledded (No Quarter) 1994 года, интересная работа, объединившая новые, с восточным оттенком концертные записи Пейджа и Планта и переработки песен из старого репертуара Led Zeppelin. Остается только догадываться, почему они не пригласили в свой проект Джонса. Тот тоже все это время не сидел сложа руки, очень успешно работая в качестве продюсера и оранжировщика с такими музыкантами как R.E.M. и Диаманда Галас (Diamanda Galas). Он, к тому же, не делал секрета из своего желания снова сотрудничать со старыми товарищами, но так или иначе, дуэт отправился в свои весьма удачные гастроли 1995 года без него. Можно пересчитать по пальцам те немногие случаи, когда Led Zeppelin собирались вместе: это было на благотворительном концерте в 1985 и трижды вместе с сыном Бонама, Джейсоном, включая 1995 год, когда группа была удостоена заслуженной чести занять свое место в Зале Славы рок’н’рола. Им шли мультимиллионные долларовые предложения, но полного воссоединения группы, судя по всему, пока не ожидается. Пейдж и Плант, по слухам, работают над новым альбомом (проект вышел в 1998 с участием Джона Пола Джонса, который в сольном творчестве отчетливо склонен к арт-року), а пока продолжают все так же хорошо продаваться старые записи Led Zeppelin.

10 декабря 2007 года состоялся самый последний концерт в истории Led Zeppelin. Три участника оригинального состава группы (Роберт Плант, Джимми Пейдж и Джон Пол Джонс) и Джейсон Бонэм (сын скончавшегося в 1980 году ударника Джона Бонэма) дали концерт, посвященный основателю Atlantic Records Ахмету Эртегуну. Шоу продолжалось более двух часов. За это время группа успела исполнить 16 песен, включая такие хиты, как Stairway to Heaven, Rock and Roll, Black Dog, Kashmir и Since I’ve Been Loving You.

(Воссоединения группы: 1985, 1988, 1995, 2007)

Дискография Led Zeppelin:

Студийные альбомы:

1969: Led Zeppelin I
1969: Led Zeppelin II
1970: Led Zeppelin III
1971: Led Zeppelin IV
1973: Houses of the Holy
1975: Physical Graffiti
1976: Presence
1979: In Through the Out Door
1982: Coda

Концертные альбомы:

1976: The Song Remains the Same
2003: How The West Was Won

Фильмография:

1976: The Song Remains the Same
2003: Led Zeppelin (DVD)
2007: Mothership (DVD)

Log EAC

EAC extraction logfile from 12. September 2008, 16:11 for CD
Led Zeppelin / Led Zeppelin

Used drive : LITE-ON DVD SOHD-16P9S Adapter: 0 ID: 1
Read mode : Secure with NO C2, accurate stream, disable cache
Read offset correction : 6
Overread into Lead-In and Lead-Out : No

Used output format : C:Program FilesFLACflac.exe (User Defined Encoder)
128 kBit/s
Additional command line options : -8 -V -T "ARTIST=%a" -T "TITLE=%t" -T "ALBUM=%g" -T "DATE=%y" -T "TRACKNUMBER=%n" -T "GENRE=%m" -T "COMMENT=EAC FLAC -8" %s

Other options :
Fill up missing offset samples with silence : Yes
Delete leading and trailing silent blocks : No
Installed external ASPI interface

Track 1
Filename C:Led Zeppelin1 - Good Times Bad Times.wav

Pre-gap length 0:00:02.00

Peak level 100.0 %
Track quality 100.0 %
Test CRC CA8CB2C0
Copy CRC CA8CB2C0
Copy OK

Track 2
Filename C:Led Zeppelin2 - Babe I'm Gonna Leave You.wav

Peak level 100.0 %
Track quality 99.9 %
Test CRC 20554EEB
Copy CRC 20554EEB
Copy OK

Track 3
Filename C:Led Zeppelin3 - You Shook Me.wav

Peak level 100.0 %
Track quality 100.0 %
Test CRC 2AE9C6AB
Copy CRC 2AE9C6AB
Copy OK

Track 4
Filename C:Led Zeppelin4 - Dazed And Confused.wav

Peak level 100.0 %
Track quality 100.0 %
Test CRC 9B500F4E
Copy CRC 9B500F4E
Copy OK

Track 5
Filename C:Led Zeppelin5 - Your Time Is Gonna Come.wav

Peak level 95.5 %
Track quality 100.0 %
Test CRC 9BF2045E
Copy CRC 9BF2045E
Copy OK

Track 6
Filename C:Led Zeppelin6 - Black Mountain Side.wav

Peak level 61.1 %
Track quality 100.0 %
Test CRC 6A9D5D1A
Copy CRC 6A9D5D1A
Copy OK

Track 7
Filename C:Led Zeppelin7 - Communication Breakdown.wav

Peak level 100.0 %
Track quality 100.0 %
Test CRC 3572FA84
Copy CRC 3572FA84
Copy OK

Track 8
Filename C:Led Zeppelin8 - I Can't Quit You Baby.wav

Pre-gap length 0:00:01.66

Peak level 100.0 %
Track quality 99.9 %
Test CRC F21A56DA
Copy CRC F21A56DA
Copy OK

Track 9
Filename C:Led Zeppelin9 - How Many More Times.wav

Peak level 100.0 %
Track quality 99.9 %
Test CRC 56897B32
Copy CRC 56897B32
Copy OK

No errors occured

End of status report
EAC extraction logfile from 13. September 2008, 0:49 for CD
Led Zeppelin / Led Zeppelin II

Used drive : TSSTcorpCD/DVDW SH-S182M Adapter: 2 ID: 1
Read mode : Secure with NO C2, accurate stream, disable cache
Read offset correction : 6
Overread into Lead-In and Lead-Out : No

Used output format : C:Program FilesFLACflac.exe (User Defined Encoder)
128 kBit/s
Additional command line options : -8 -V -T "ARTIST=%a" -T "TITLE=%t" -T "ALBUM=%g" -T "DATE=%y" -T "TRACKNUMBER=%n" -T "GENRE=%m" -T "COMMENT=EAC FLAC -8" %s

Other options :
Fill up missing offset samples with silence : Yes
Delete leading and trailing silent blocks : No
Installed external ASPI interface

Track 1
Filename C:Led Zeppelin - Led Zeppelin II (1969) [FLAC] {Japanese 2008 SHM-CD edition}1 - Whole Lotta Love.wav

Pre-gap length 0:00:02.00

Peak level 100.0 %
Track quality 100.0 %
Test CRC ED7BF107
Copy CRC ED7BF107
Copy OK

Track 2
Filename C:Led Zeppelin - Led Zeppelin II (1969) [FLAC] {Japanese 2008 SHM-CD edition}2 - What Is And What Should Never Be.wav

Peak level 100.0 %
Track quality 100.0 %
Test CRC 70257F79
Copy CRC 70257F79
Copy OK

Track 3
Filename C:Led Zeppelin - Led Zeppelin II (1969) [FLAC] {Japanese 2008 SHM-CD edition}3 - The Lemon Song.wav

Pre-gap length 0:00:01.53

Peak level 100.0 %
Track quality 100.0 %
Test CRC E9D56169
Copy CRC E9D56169
Copy OK

Track 4
Filename C:Led Zeppelin - Led Zeppelin II (1969) [FLAC] {Japanese 2008 SHM-CD edition}4 - Thank You.wav

Peak level 100.0 %
Track quality 100.0 %
Test CRC B2F44E43
Copy CRC B2F44E43
Copy OK

Track 5
Filename C:Led Zeppelin - Led Zeppelin II (1969) [FLAC] {Japanese 2008 SHM-CD edition}5 - Heartbreaker.wav

Peak level 100.0 %
Track quality 100.0 %
Test CRC BBC3131B
Copy CRC BBC3131B
Copy OK

Track 6
Filename C:Led Zeppelin - Led Zeppelin II (1969) [FLAC] {Japanese 2008 SHM-CD edition}6 - Living Loving Maid (She's Just A Woman).wav

Peak level 100.0 %
Track quality 100.0 %
Test CRC 03A0C9A0
Copy CRC 03A0C9A0
Copy OK

Track 7
Filename C:Led Zeppelin - Led Zeppelin II (1969) [FLAC] {Japanese 2008 SHM-CD edition}7 - Ramble On.wav

Peak level 100.0 %
Track quality 100.0 %
Test CRC 5A846432
Copy CRC 5A846432
Copy OK

Track 8
Filename C:Led Zeppelin - Led Zeppelin II (1969) [FLAC] {Japanese 2008 SHM-CD edition}8 - Moby Dick.wav

Pre-gap length 0:00:00.73

Peak level 100.0 %
Track quality 100.0 %
Test CRC 86B59694
Copy CRC 86B59694
Copy OK

Track 9
Filename C:Led Zeppelin - Led Zeppelin II (1969) [FLAC] {Japanese 2008 SHM-CD edition}9 - Bring It On Home.wav

Peak level 100.0 %
Track quality 100.0 %
Test CRC 71D5A0EF
Copy CRC 71D5A0EF
Copy OK

No errors occured

End of status report
EAC extraction logfile from 13. September 2008, 1:00 for CD
Led Zeppelin / Led Zeppelin III

Used drive : LITE-ON DVD SOHD-16P9S Adapter: 0 ID: 1
Read mode : Secure with NO C2, accurate stream, disable cache
Read offset correction : 6
Overread into Lead-In and Lead-Out : No

Used output format : C:Program FilesFLACflac.exe (User Defined Encoder)
128 kBit/s
Additional command line options : -8 -V -T "ARTIST=%a" -T "TITLE=%t" -T "ALBUM=%g" -T "DATE=%y" -T "TRACKNUMBER=%n" -T "GENRE=%m" -T "COMMENT=EAC FLAC -8" %s

Other options :
Fill up missing offset samples with silence : Yes
Delete leading and trailing silent blocks : No
Installed external ASPI interface

Track 1
Filename C:Led Zeppelin - Led Zeppelin III (1970) [FLAC] {Japanese 2008 SHM-CD edition}1 - Immigrant Song.wav

Pre-gap length 0:00:02.00

Peak level 100.0 %
Track quality 100.0 %
Test CRC 95F5455C
Copy CRC 95F5455C
Copy OK

Track 2
Filename C:Led Zeppelin - Led Zeppelin III (1970) [FLAC] {Japanese 2008 SHM-CD edition}2 - Friends.wav

Peak level 100.0 %
Track quality 99.9 %
Test CRC E1FD51A4
Copy CRC E1FD51A4
Copy OK

Track 3
Filename C:Led Zeppelin - Led Zeppelin III (1970) [FLAC] {Japanese 2008 SHM-CD edition}3 - Celebration Day.wav

Peak level 100.0 %
Track quality 100.0 %
Test CRC 51878AC6
Copy CRC 51878AC6
Copy OK

Track 4
Filename C:Led Zeppelin - Led Zeppelin III (1970) [FLAC] {Japanese 2008 SHM-CD edition}4 - Since I've Been Loving You.wav

Pre-gap length 0:00:00.93

Peak level 100.0 %
Track quality 100.0 %
Test CRC CB5F4160
Copy CRC CB5F4160
Copy OK

Track 5
Filename C:Led Zeppelin - Led Zeppelin III (1970) [FLAC] {Japanese 2008 SHM-CD edition}5 - Out On The Tiles.wav

Peak level 100.0 %
Track quality 100.0 %
Test CRC 50398345
Copy CRC 50398345
Copy OK

Track 6
Filename C:Led Zeppelin - Led Zeppelin III (1970) [FLAC] {Japanese 2008 SHM-CD edition}6 - Gallows Pole.wav

Pre-gap length 0:00:01.26

Peak level 100.0 %
Track quality 100.0 %
Test CRC 53C9CEFF
Copy CRC 53C9CEFF
Copy OK

Track 7
Filename C:Led Zeppelin - Led Zeppelin III (1970) [FLAC] {Japanese 2008 SHM-CD edition}7 - Tangerine.wav

Peak level 100.0 %
Track quality 100.0 %
Test CRC C899C75B
Copy CRC C899C75B
Copy OK

Track 8
Filename C:Led Zeppelin - Led Zeppelin III (1970) [FLAC] {Japanese 2008 SHM-CD edition}8 - That's The Way.wav

Peak level 100.0 %
Track quality 99.9 %
Test CRC C77BB563
Copy CRC C77BB563
Copy OK

Track 9
Filename C:Led Zeppelin - Led Zeppelin III (1970) [FLAC] {Japanese 2008 SHM-CD edition}9 - Bron-Y-Aur Stomp.wav

Peak level 100.0 %
Track quality 100.0 %
Test CRC 22A2A541
Copy CRC 22A2A541
Copy OK

Track 10
Filename C:Led Zeppelin - Led Zeppelin III (1970) [FLAC] {Japanese 2008 SHM-CD edition}10 - Hats Off To (Roy) Harper.wav

Peak level 97.6 %
Track quality 100.0 %
Test CRC FE113823
Copy CRC FE113823
Copy OK

No errors occured

End of status report
EAC extraction logfile from 13. September 2008, 1:09 for CD
Led Zeppelin / Led Zeppelin IV

Used drive : TSSTcorpCD/DVDW SH-S182M Adapter: 2 ID: 1
Read mode : Secure with NO C2, accurate stream, disable cache
Read offset correction : 6
Overread into Lead-In and Lead-Out : No

Used output format : C:Program FilesFLACflac.exe (User Defined Encoder)
128 kBit/s
Additional command line options : -8 -V -T "ARTIST=%a" -T "TITLE=%t" -T "ALBUM=%g" -T "DATE=%y" -T "TRACKNUMBER=%n" -T "GENRE=%m" -T "COMMENT=EAC FLAC -8" %s

Other options :
Fill up missing offset samples with silence : Yes
Delete leading and trailing silent blocks : No
Installed external ASPI interface

Track 1
Filename C:Led Zeppelin - Led Zeppelin IV (1971) [FLAC] {Japanese 2008 SHM-CD edition}1 - Black Dog.wav

Pre-gap length 0:00:02.00

Peak level 100.0 %
Track quality 99.9 %
Test CRC 15F0AFDE
Copy CRC 15F0AFDE
Copy OK

Track 2
Filename C:Led Zeppelin - Led Zeppelin IV (1971) [FLAC] {Japanese 2008 SHM-CD edition}2 - Rock And Roll.wav

Pre-gap length 0:00:02.53

Peak level 100.0 %
Track quality 100.0 %
Test CRC 0D6D1B54
Copy CRC 0D6D1B54
Copy OK

Track 3
Filename C:Led Zeppelin - Led Zeppelin IV (1971) [FLAC] {Japanese 2008 SHM-CD edition}3 - The Battle Of Evermore.wav

Pre-gap length 0:00:00.33

Peak level 84.3 %
Track quality 99.9 %
Test CRC 0E88BE5C
Copy CRC 0E88BE5C
Copy OK

Track 4
Filename C:Led Zeppelin - Led Zeppelin IV (1971) [FLAC] {Japanese 2008 SHM-CD edition}4 - Stairway To Heaven.wav

Peak level 100.0 %
Track quality 100.0 %
Test CRC F89C083F
Copy CRC F89C083F
Copy OK

Track 5
Filename C:Led Zeppelin - Led Zeppelin IV (1971) [FLAC] {Japanese 2008 SHM-CD edition}5 - Misty Mountain Hop.wav

Pre-gap length 0:00:02.50

Peak level 100.0 %
Track quality 100.0 %
Test CRC F282C14B
Copy CRC F282C14B
Copy OK

Track 6
Filename C:Led Zeppelin - Led Zeppelin IV (1971) [FLAC] {Japanese 2008 SHM-CD edition}6 - Four Sticks.wav

Peak level 100.0 %
Track quality 100.0 %
Test CRC 1707C8BE
Copy CRC 1707C8BE
Copy OK

Track 7
Filename C:Led Zeppelin - Led Zeppelin IV (1971) [FLAC] {Japanese 2008 SHM-CD edition}7 - Going To California.wav

Pre-gap length 0:00:00.64

Peak level 66.3 %
Track quality 100.0 %
Test CRC 42796B5F
Copy CRC 42796B5F
Copy OK

Track 8
Filename C:Led Zeppelin - Led Zeppelin IV (1971) [FLAC] {Japanese 2008 SHM-CD edition}8 - When The Levee Breaks.wav

Pre-gap length 0:00:00.49

Peak level 100.0 %
Track quality 99.9 %
Test CRC 45FB05B0
Copy CRC 45FB05B0
Copy OK

No errors occured

End of status report
EAC extraction logfile from 13. September 2008, 1:28 for CD
Led Zeppelin / Houses of the Holy

Used drive : LITE-ON DVD SOHD-16P9S Adapter: 0 ID: 1
Read mode : Secure with NO C2, accurate stream, disable cache
Read offset correction : 6
Overread into Lead-In and Lead-Out : No

Used output format : C:Program FilesFLACflac.exe (User Defined Encoder)
128 kBit/s
Additional command line options : -8 -V -T "ARTIST=%a" -T "TITLE=%t" -T "ALBUM=%g" -T "DATE=%y" -T "TRACKNUMBER=%n" -T "GENRE=%m" -T "COMMENT=EAC FLAC -8" %s

Other options :
Fill up missing offset samples with silence : Yes
Delete leading and trailing silent blocks : No
Installed external ASPI interface

Track 1
Filename C:Led Zeppelin - Houses of the Holy (1973) [FLAC] {Japanese 2008 SHM-CD edition}1 - The Song Remains the Same.wav

Pre-gap length 0:00:02.00

Peak level 100.0 %
Track quality 100.0 %
Test CRC EE5CF22E
Copy CRC EE5CF22E
Copy OK

Track 2
Filename C:Led Zeppelin - Houses of the Holy (1973) [FLAC] {Japanese 2008 SHM-CD edition}2 - The Rain Song.wav

Peak level 100.0 %
Track quality 99.9 %
Test CRC 3149E17E
Copy CRC 3149E17E
Copy OK

Track 3
Filename C:Led Zeppelin - Houses of the Holy (1973) [FLAC] {Japanese 2008 SHM-CD edition}3 - Over the Hills and Far Away.wav

Peak level 100.0 %
Track quality 100.0 %
Test CRC DC5BD74E
Copy CRC DC5BD74E
Copy OK

Track 4
Filename C:Led Zeppelin - Houses of the Holy (1973) [FLAC] {Japanese 2008 SHM-CD edition}4 - The Crunge.wav

Pre-gap length 0:00:00.36

Peak level 100.0 %
Track quality 100.0 %
Test CRC 976845A7
Copy CRC 976845A7
Copy OK

Track 5
Filename C:Led Zeppelin - Houses of the Holy (1973) [FLAC] {Japanese 2008 SHM-CD edition}5 - Dancing Days.wav

Pre-gap length 0:00:01.66

Peak level 100.0 %
Track quality 99.9 %
Test CRC C3311005
Copy CRC C3311005
Copy OK

Track 6
Filename C:Led Zeppelin - Houses of the Holy (1973) [FLAC] {Japanese 2008 SHM-CD edition}6 - D'yer Mak'er.wav

Pre-gap length 0:00:01.26

Peak level 100.0 %
Track quality 100.0 %
Test CRC 53588FB3
Copy CRC 53588FB3
Copy OK

Track 7
Filename C:Led Zeppelin - Houses of the Holy (1973) [FLAC] {Japanese 2008 SHM-CD edition}7 - No Quarter.wav

Pre-gap length 0:00:00.46

Peak level 100.0 %
Track quality 100.0 %
Test CRC FE63E7E1
Copy CRC FE63E7E1
Copy OK

Track 8
Filename C:Led Zeppelin - Houses of the Holy (1973) [FLAC] {Japanese 2008 SHM-CD edition}8 - The Ocean.wav

Pre-gap length 0:00:00.57

Peak level 100.0 %
Track quality 100.0 %
Test CRC 68B8DCB6
Copy CRC 68B8DCB6
Copy OK

No errors occured

End of status report
CD1
EAC extraction logfile from 13. September 2008, 1:27 for CD
Led Zeppelin / Physical Graffiti DISC 1

Used drive : TSSTcorpCD/DVDW SH-S182M Adapter: 2 ID: 1
Read mode : Secure with NO C2, accurate stream, disable cache
Read offset correction : 6
Overread into Lead-In and Lead-Out : No

Used output format : C:Program FilesFLACflac.exe (User Defined Encoder)
128 kBit/s
Additional command line options : -8 -V -T "ARTIST=%a" -T "TITLE=%t" -T "ALBUM=%g" -T "DATE=%y" -T "TRACKNUMBER=%n" -T "GENRE=%m" -T "COMMENT=EAC FLAC -8" %s

Other options :
Fill up missing offset samples with silence : Yes
Delete leading and trailing silent blocks : No
Installed external ASPI interface

Track 1
Filename C:Led Zeppelin - Physical Graffiti (1975) [FLAC] {Japanese 2008 SHM-CD edition}CD-11 - Custard Pie.wav

Pre-gap length 0:00:02.00

Peak level 100.0 %
Track quality 100.0 %
Test CRC B55A8834
Copy CRC B55A8834
Copy OK

Track 2
Filename C:Led Zeppelin - Physical Graffiti (1975) [FLAC] {Japanese 2008 SHM-CD edition}CD-12 - The Rover.wav

Pre-gap length 0:00:00.66

Peak level 100.0 %
Track quality 100.0 %
Test CRC 4412E7D7
Copy CRC 4412E7D7
Copy OK

Track 3
Filename C:Led Zeppelin - Physical Graffiti (1975) [FLAC] {Japanese 2008 SHM-CD edition}CD-13 - In My Time Of Dying.wav

Peak level 100.0 %
Track quality 100.0 %
Test CRC 10A88994
Copy CRC 10A88994
Copy OK

Track 4
Filename C:Led Zeppelin - Physical Graffiti (1975) [FLAC] {Japanese 2008 SHM-CD edition}CD-14 - Houses Of The Holy.wav

Pre-gap length 0:00:00.53

Peak level 100.0 %
Track quality 100.0 %
Test CRC BB0CC77C
Copy CRC BB0CC77C
Copy OK

Track 5
Filename C:Led Zeppelin - Physical Graffiti (1975) [FLAC] {Japanese 2008 SHM-CD edition}CD-15 - Trampled Under Foot.wav

Peak level 100.0 %
Track quality 100.0 %
Test CRC 3F626DD2
Copy CRC 3F626DD2
Copy OK

Track 6
Filename C:Led Zeppelin - Physical Graffiti (1975) [FLAC] {Japanese 2008 SHM-CD edition}CD-16 - Kashmir.wav

Pre-gap length 0:00:00.80

Peak level 100.0 %
Track quality 100.0 %
Test CRC 1CAB075D
Copy CRC 1CAB075D
Copy OK

No errors occured

End of status report

CD2
EAC extraction logfile from 13. September 2008, 1:47 for CD
Led Zeppelin / Physical Graffiti DISC 2

Used drive : TSSTcorpCD/DVDW SH-S182M Adapter: 2 ID: 1
Read mode : Secure with NO C2, accurate stream, disable cache
Read offset correction : 6
Overread into Lead-In and Lead-Out : No

Used output format : C:Program FilesFLACflac.exe (User Defined Encoder)
128 kBit/s
Additional command line options : -8 -V -T "ARTIST=%a" -T "TITLE=%t" -T "ALBUM=%g" -T "DATE=%y" -T "TRACKNUMBER=%n" -T "GENRE=%m" -T "COMMENT=EAC FLAC -8" %s

Other options :
Fill up missing offset samples with silence : Yes
Delete leading and trailing silent blocks : No
Installed external ASPI interface

Track 1
Filename C:Led Zeppelin - Physical Graffiti (1975) [FLAC] {Japanese 2008 SHM-CD edition}CD-21 - In The Light.wav

Pre-gap length 0:00:02.00

Peak level 100.0 %
Track quality 100.0 %
Test CRC E72E471D
Copy CRC E72E471D
Copy OK

Track 2
Filename C:Led Zeppelin - Physical Graffiti (1975) [FLAC] {Japanese 2008 SHM-CD edition}CD-22 - Bron-Yr-Aur.wav

Pre-gap length 0:00:01.22

Peak level 71.8 %
Track quality 100.0 %
Test CRC 64C173C6
Copy CRC 64C173C6
Copy OK

Track 3
Filename C:Led Zeppelin - Physical Graffiti (1975) [FLAC] {Japanese 2008 SHM-CD edition}CD-23 - Down By The Seaside.wav

Peak level 100.0 %
Track quality 100.0 %
Test CRC 79BB6741
Copy CRC 79BB6741
Copy OK

Track 4
Filename C:Led Zeppelin - Physical Graffiti (1975) [FLAC] {Japanese 2008 SHM-CD edition}CD-24 - Ten Years Gone.wav

Pre-gap length 0:00:01.93

Peak level 100.0 %
Track quality 100.0 %
Test CRC 3FEE9DA1
Copy CRC 3FEE9DA1
Copy OK

Track 5
Filename C:Led Zeppelin - Physical Graffiti (1975) [FLAC] {Japanese 2008 SHM-CD edition}CD-25 - Night Flight.wav

Pre-gap length 0:00:01.09

Peak level 100.0 %
Track quality 100.0 %
Test CRC CAC81F11
Copy CRC CAC81F11
Copy OK

Track 6
Filename C:Led Zeppelin - Physical Graffiti (1975) [FLAC] {Japanese 2008 SHM-CD edition}CD-26 - The Wanton Song.wav

Pre-gap length 0:00:00.93

Peak level 100.0 %
Track quality 100.0 %
Test CRC 5C921D8D
Copy CRC 5C921D8D
Copy OK

Track 7
Filename C:Led Zeppelin - Physical Graffiti (1975) [FLAC] {Japanese 2008 SHM-CD edition}CD-27 - Boogie With Stu.wav

Pre-gap length 0:00:01.76

Peak level 100.0 %
Track quality 100.0 %
Test CRC 29A0960C
Copy CRC 29A0960C
Copy OK

Track 8
Filename C:Led Zeppelin - Physical Graffiti (1975) [FLAC] {Japanese 2008 SHM-CD edition}CD-28 - Black Country Woman.wav

Pre-gap length 0:00:00.86

Peak level 100.0 %
Track quality 100.0 %
Test CRC 98C6BF58
Copy CRC 98C6BF58
Copy OK

Track 9
Filename C:Led Zeppelin - Physical Graffiti (1975) [FLAC] {Japanese 2008 SHM-CD edition}CD-29 - Sick Again.wav

Pre-gap length 0:00:08.22

Peak level 100.0 %
Track quality 100.0 %
Test CRC 14A306DD
Copy CRC 14A306DD
Copy OK

No errors occured

End of status report
EAC extraction logfile from 13. September 2008, 1:54 for CD
Led Zeppelin / Presence

Used drive : LITE-ON DVD SOHD-16P9S Adapter: 0 ID: 1
Read mode : Secure with NO C2, accurate stream, disable cache
Read offset correction : 6
Overread into Lead-In and Lead-Out : No

Used output format : C:Program FilesFLACflac.exe (User Defined Encoder)
128 kBit/s
Additional command line options : -8 -V -T "ARTIST=%a" -T "TITLE=%t" -T "ALBUM=%g" -T "DATE=%y" -T "TRACKNUMBER=%n" -T "GENRE=%m" -T "COMMENT=EAC FLAC -8" %s

Other options :
Fill up missing offset samples with silence : Yes
Delete leading and trailing silent blocks : No
Installed external ASPI interface

Track 1
Filename C:Led Zeppelin - Presence (1976) [FLAC] {Japanese 2008 SHM-CD edition}1 - Achilles Last Stand.wav

Pre-gap length 0:00:02.00

Peak level 100.0 %
Track quality 100.0 %
Test CRC 9D0C7A0F
Copy CRC 9D0C7A0F
Copy OK

Track 2
Filename C:Led Zeppelin - Presence (1976) [FLAC] {Japanese 2008 SHM-CD edition}2 - For Your Life.wav

Pre-gap length 0:00:02.62

Peak level 100.0 %
Track quality 100.0 %
Test CRC 332DFD55
Copy CRC 332DFD55
Copy OK

Track 3
Filename C:Led Zeppelin - Presence (1976) [FLAC] {Japanese 2008 SHM-CD edition}3 - Royal Orleans.wav

Pre-gap length 0:00:01.97

Peak level 100.0 %
Track quality 100.0 %
Test CRC 7DC7361E
Copy CRC 7DC7361E
Copy OK

Track 4
Filename C:Led Zeppelin - Presence (1976) [FLAC] {Japanese 2008 SHM-CD edition}4 - Nobody's Fault But Mine.wav

Pre-gap length 0:00:00.49

Peak level 100.0 %
Track quality 100.0 %
Test CRC 285AD241
Copy CRC 285AD241
Copy OK

Track 5
Filename C:Led Zeppelin - Presence (1976) [FLAC] {Japanese 2008 SHM-CD edition}5 - Candy Store Rock.wav

Peak level 100.0 %
Track quality 100.0 %
Test CRC 550D25FE
Copy CRC 550D25FE
Copy OK

Track 6
Filename C:Led Zeppelin - Presence (1976) [FLAC] {Japanese 2008 SHM-CD edition}6 - Hots On For Nowhere.wav

Pre-gap length 0:00:02.53

Peak level 100.0 %
Track quality 100.0 %
Test CRC 11BB9DC3
Copy CRC 11BB9DC3
Copy OK

Track 7
Filename C:Led Zeppelin - Presence (1976) [FLAC] {Japanese 2008 SHM-CD edition}7 - Tea For One.wav

Peak level 100.0 %
Track quality 100.0 %
Test CRC 47E1749A
Copy CRC 47E1749A
Copy OK

No errors occured

End of status report
CD1
EAC extraction logfile from 13. September 2008, 2:31 for CD
Led Zeppelin / The Song Remains The Same (Disc 1)

Used drive : LITE-ON DVD SOHD-16P9S Adapter: 0 ID: 1
Read mode : Secure with NO C2, accurate stream, disable cache
Read offset correction : 6
Overread into Lead-In and Lead-Out : No

Used output format : C:Program FilesFLACflac.exe (User Defined Encoder)
128 kBit/s
Additional command line options : -8 -V -T "ARTIST=%a" -T "TITLE=%t" -T "ALBUM=%g" -T "DATE=%y" -T "TRACKNUMBER=%n" -T "GENRE=%m" -T "COMMENT=EAC FLAC -8" %s

Other options :
Fill up missing offset samples with silence : Yes
Delete leading and trailing silent blocks : No
Installed external ASPI interface

Track 1
Filename C:Led Zeppelin - The Song Remains the Same (1976) [FLAC] {Japanese 2008 SHM-CD edition}CD-11 - Rock And Roll.wav

Pre-gap length 0:00:02.00

Peak level 100.0 %
Track quality 100.0 %
Test CRC 197E1FB6
Copy CRC 197E1FB6
Copy OK

Track 2
Filename C:Led Zeppelin - The Song Remains the Same (1976) [FLAC] {Japanese 2008 SHM-CD edition}CD-12 - Celebration Day.wav

Peak level 99.8 %
Track quality 100.0 %
Test CRC CE1B8078
Copy CRC CE1B8078
Copy OK

Track 3
Filename C:Led Zeppelin - The Song Remains the Same (1976) [FLAC] {Japanese 2008 SHM-CD edition}CD-13 - Black Dog.wav

Peak level 100.0 %
Track quality 100.0 %
Test CRC B793D786
Copy CRC B793D786
Copy OK

Track 4
Filename C:Led Zeppelin - The Song Remains the Same (1976) [FLAC] {Japanese 2008 SHM-CD edition}CD-14 - Over The Hills And Far Away.wav

Peak level 100.0 %
Track quality 100.0 %
Test CRC 1A8DC2EF
Copy CRC 1A8DC2EF
Copy OK

Track 5
Filename C:Led Zeppelin - The Song Remains the Same (1976) [FLAC] {Japanese 2008 SHM-CD edition}CD-15 - Misty Mountain Hop.wav

Peak level 100.0 %
Track quality 100.0 %
Test CRC 6540316A
Copy CRC 6540316A
Copy OK

Track 6
Filename C:Led Zeppelin - The Song Remains the Same (1976) [FLAC] {Japanese 2008 SHM-CD edition}CD-16 - Since I've Been Loving You.wav

Peak level 99.8 %
Track quality 100.0 %
Test CRC 36651E1C
Copy CRC 36651E1C
Copy OK

Track 7
Filename C:Led Zeppelin - The Song Remains the Same (1976) [FLAC] {Japanese 2008 SHM-CD edition}CD-17 - No Quarter.wav

Peak level 100.0 %
Track quality 100.0 %
Test CRC 8B9F0AEA
Copy CRC 8B9F0AEA
Copy OK

Track 8
Filename C:Led Zeppelin - The Song Remains the Same (1976) [FLAC] {Japanese 2008 SHM-CD edition}CD-18 - The Song Remains The Same.wav

Peak level 100.0 %
Track quality 100.0 %
Test CRC 12436913
Copy CRC 12436913
Copy OK

Track 9
Filename C:Led Zeppelin - The Song Remains the Same (1976) [FLAC] {Japanese 2008 SHM-CD edition}CD-19 - The Rain Song.wav

Peak level 99.6 %
Track quality 100.0 %
Test CRC 509764A2
Copy CRC 509764A2
Copy OK

Track 10
Filename C:Led Zeppelin - The Song Remains the Same (1976) [FLAC] {Japanese 2008 SHM-CD edition}CD-110 - The Ocean.wav

Peak level 100.0 %
Track quality 100.0 %
Test CRC EF573F1B
Copy CRC EF573F1B
Copy OK

No errors occured

End of status report

CD2
EAC extraction logfile from 13. September 2008, 2:31 for CD
Led Zeppelin / The Song Remains The Same (Disc 2)

Used drive : TSSTcorpCD/DVDW SH-S182M Adapter: 2 ID: 1
Read mode : Secure with NO C2, accurate stream, disable cache
Read offset correction : 6
Overread into Lead-In and Lead-Out : No

Used output format : C:Program FilesFLACflac.exe (User Defined Encoder)
128 kBit/s
Additional command line options : -8 -V -T "ARTIST=%a" -T "TITLE=%t" -T "ALBUM=%g" -T "DATE=%y" -T "TRACKNUMBER=%n" -T "GENRE=%m" -T "COMMENT=EAC FLAC -8" %s

Other options :
Fill up missing offset samples with silence : Yes
Delete leading and trailing silent blocks : No
Installed external ASPI interface

Track 1
Filename C:Led Zeppelin - The Song Remains the Same (1976) [FLAC] {Japanese 2008 SHM-CD edition}CD-21 - Dazed And Confused.wav

Pre-gap length 0:00:02.00

Peak level 100.0 %
Track quality 100.0 %
Test CRC 18FED572
Copy CRC 18FED572
Copy OK

Track 2
Filename C:Led Zeppelin - The Song Remains the Same (1976) [FLAC] {Japanese 2008 SHM-CD edition}CD-22 - Stairway To Heaven.wav

Peak level 100.0 %
Track quality 100.0 %
Test CRC 44B4819C
Copy CRC 44B4819C
Copy OK

Track 3
Filename C:Led Zeppelin - The Song Remains the Same (1976) [FLAC] {Japanese 2008 SHM-CD edition}CD-23 - Moby Dick.wav

Peak level 100.0 %
Track quality 100.0 %
Test CRC EF53FE7A
Copy CRC EF53FE7A
Copy OK

Track 4
Filename C:Led Zeppelin - The Song Remains the Same (1976) [FLAC] {Japanese 2008 SHM-CD edition}CD-24 - Heartbreaker.wav

Peak level 100.0 %
Track quality 100.0 %
Test CRC 99D89921
Copy CRC 99D89921
Copy OK

Track 5
Filename C:Led Zeppelin - The Song Remains the Same (1976) [FLAC] {Japanese 2008 SHM-CD edition}CD-25 - Whole Lotta Love.wav

Peak level 100.0 %
Track quality 100.0 %
Test CRC B4E3DD91
Copy CRC B4E3DD91
Copy OK

No errors occured

End of status report
EAC extraction logfile from 13. September 2008, 3:27 for CD
Led Zeppelin / In Through The Out Door

Used drive : TSSTcorpCD/DVDW SH-S182M Adapter: 2 ID: 1
Read mode : Secure with NO C2, accurate stream, disable cache
Read offset correction : 6
Overread into Lead-In and Lead-Out : No

Used output format : C:Program FilesFLACflac.exe (User Defined Encoder)
128 kBit/s
Additional command line options : -8 -V -T "ARTIST=%a" -T "TITLE=%t" -T "ALBUM=%g" -T "DATE=%y" -T "TRACKNUMBER=%n" -T "GENRE=%m" -T "COMMENT=EAC FLAC -8" %s

Other options :
Fill up missing offset samples with silence : Yes
Delete leading and trailing silent blocks : No
Installed external ASPI interface

Track 1
Filename C:Led Zeppelin - In Through the Out Door (1979) [FLAC] {Japanese 2008 SHM-CD edition}1 - In The Evening.wav

Pre-gap length 0:00:02.00

Peak level 100.0 %
Track quality 100.0 %
Test CRC 39A36AEE
Copy CRC 39A36AEE
Copy OK

Track 2
Filename C:Led Zeppelin - In Through the Out Door (1979) [FLAC] {Japanese 2008 SHM-CD edition}2 - South Bound Saurez.wav

Pre-gap length 0:00:01.02

Peak level 98.9 %
Track quality 99.9 %
Test CRC F951DBD0
Copy CRC F951DBD0
Copy OK

Track 3
Filename C:Led Zeppelin - In Through the Out Door (1979) [FLAC] {Japanese 2008 SHM-CD edition}3 - Fool In The Rain.wav

Pre-gap length 0:00:01.20

Peak level 100.0 %
Track quality 99.9 %
Test CRC B1A5B74B
Copy CRC B1A5B74B
Copy OK

Track 4
Filename C:Led Zeppelin - In Through the Out Door (1979) [FLAC] {Japanese 2008 SHM-CD edition}4 - Hot Dog.wav

Peak level 100.0 %
Track quality 100.0 %
Test CRC 455BA510
Copy CRC 455BA510
Copy OK

Track 5
Filename C:Led Zeppelin - In Through the Out Door (1979) [FLAC] {Japanese 2008 SHM-CD edition}5 - Carouselambra.wav

Pre-gap length 0:00:00.33

Peak level 100.0 %
Track quality 100.0 %
Test CRC 21EB5ADE
Copy CRC 21EB5ADE
Copy OK

Track 6
Filename C:Led Zeppelin - In Through the Out Door (1979) [FLAC] {Japanese 2008 SHM-CD edition}6 - All My Love.wav

Pre-gap length 0:00:01.86

Peak level 100.0 %
Track quality 100.0 %
Test CRC 2E01A638
Copy CRC 2E01A638
Copy OK

Track 7
Filename C:Led Zeppelin - In Through the Out Door (1979) [FLAC] {Japanese 2008 SHM-CD edition}7 - I'm Gonna Crawl.wav

Pre-gap length 0:00:04.26

Peak level 100.0 %
Track quality 100.0 %
Test CRC E6A71377
Copy CRC E6A71377
Copy OK

No errors occured

End of status report
EAC extraction logfile from 13. September 2008, 3:27 for CD
Led Zeppelin / Coda

Used drive : LITE-ON DVD SOHD-16P9S Adapter: 0 ID: 1
Read mode : Secure with NO C2, accurate stream, disable cache
Read offset correction : 6
Overread into Lead-In and Lead-Out : No

Used output format : C:Program FilesFLACflac.exe (User Defined Encoder)
128 kBit/s
Additional command line options : -8 -V -T "ARTIST=%a" -T "TITLE=%t" -T "ALBUM=%g" -T "DATE=%y" -T "TRACKNUMBER=%n" -T "GENRE=%m" -T "COMMENT=EAC FLAC -8" %s

Other options :
Fill up missing offset samples with silence : Yes
Delete leading and trailing silent blocks : No
Installed external ASPI interface

Track 1
Filename C:Led Zeppelin - Coda (1982) [FLAC] {Japanese 2008 SHM-CD edition}1 - We're Gonna Groove.wav

Pre-gap length 0:00:02.42

Peak level 99.9 %
Track quality 100.0 %
Test CRC A0492C12
Copy CRC A0492C12
Copy OK

Track 2
Filename C:Led Zeppelin - Coda (1982) [FLAC] {Japanese 2008 SHM-CD edition}2 - Poor Tom.wav

Peak level 99.9 %
Track quality 99.9 %
Test CRC 009924F0
Copy CRC 009924F0
Copy OK

Track 3
Filename C:Led Zeppelin - Coda (1982) [FLAC] {Japanese 2008 SHM-CD edition}3 - I Can't Quit You Baby.wav

Pre-gap length 0:00:00.17

Peak level 100.0 %
Track quality 100.0 %
Test CRC BBA91CD1
Copy CRC BBA91CD1
Copy OK

Track 4
Filename C:Led Zeppelin - Coda (1982) [FLAC] {Japanese 2008 SHM-CD edition}4 - Walter's Walk.wav

Peak level 100.0 %
Track quality 100.0 %
Test CRC 1FCAAA1B
Copy CRC 1FCAAA1B
Copy OK

Track 5
Filename C:Led Zeppelin - Coda (1982) [FLAC] {Japanese 2008 SHM-CD edition}5 - Ozone Baby.wav

Peak level 100.0 %
Track quality 100.0 %
Test CRC 710095C9
Copy CRC 710095C9
Copy OK

Track 6
Filename C:Led Zeppelin - Coda (1982) [FLAC] {Japanese 2008 SHM-CD edition}6 - Darlene.wav

Peak level 100.0 %
Track quality 100.0 %
Test CRC D5559FF7
Copy CRC D5559FF7
Copy OK

Track 7
Filename C:Led Zeppelin - Coda (1982) [FLAC] {Japanese 2008 SHM-CD edition}7 - Bonzo's Montreux.wav

Peak level 97.4 %
Track quality 99.9 %
Test CRC 66116389
Copy CRC 66116389
Copy OK

Track 8
Filename C:Led Zeppelin - Coda (1982) [FLAC] {Japanese 2008 SHM-CD edition}8 - Wearing And Tearing.wav

Pre-gap length 0:00:00.33

Peak level 100.0 %
Track quality 99.9 %
Test CRC 9BEE56A3
Copy CRC 9BEE56A3
Copy OK

Track 9
Filename C:Led Zeppelin - Coda (1982) [FLAC] {Japanese 2008 SHM-CD edition}9 - Baby Come On Home.wav

Pre-gap length 0:00:01.90

Peak level 100.0 %
Track quality 99.9 %
Test CRC 8F43A1F7
Copy CRC 8F43A1F7
Copy OK

Track 10
Filename C:Led Zeppelin - Coda (1982) [FLAC] {Japanese 2008 SHM-CD edition}10 - Travelling Riverside Blues.wav

Pre-gap length 0:00:00.40

Peak level 80.6 %
Track quality 100.0 %
Test CRC E85C9428
Copy CRC E85C9428
Copy OK

Track 11
Filename C:Led Zeppelin - Coda (1982) [FLAC] {Japanese 2008 SHM-CD edition}11 - White Summer_Black Mountain Side.wav

Pre-gap length 0:00:01.89

Peak level 99.9 %
Track quality 100.0 %
Test CRC 1821D011
Copy CRC 1821D011
Copy OK

Track 12
Filename C:Led Zeppelin - Coda (1982) [FLAC] {Japanese 2008 SHM-CD edition}12 - Hey Hey What Can I Do.wav

Pre-gap length 0:00:01.40

Peak level 100.0 %
Track quality 100.0 %
Test CRC 75F08BC8
Copy CRC 75F08BC8
Copy OK

No errors occured

End of status report

Музыка / Lossless / Дискографии (Рок, Панк, Метал, Альтернатив)
СКАЧАТЬ БЕСПЛАТНО  [3.9 GB]


27
фев
2011

Led Zeppelin - How The West Was Won (3CD Box Set) [2003, Hard Rock, FLAC]

Формат: FLAC, (image + .cue), lossless
Год выпуска: 2003
Страна: England
Жанр: Hard Rock
Продолжительность: 02:30:12
Описание: Треклист СD-1 56:10 01. LA Drone * 02. Immigrant Song * 03. Heartbreaker * 04. Black Dog ** 05. Over The Hills And Far Away ** 06. Since I've Been Loving You * 07. Stairway To Heaven * 08. Going To California * 09. That's The Way ** 10. Bron-Yr-Aur Stomp * * Long Beach Arena ** LA Forum СD-2 53:10 1. Dazed And Confused ** 2. What Is And What Should Never Be * 3. Dancing Days * 4. Moby Dick ** * Long Beach Arena ** LA Forum СD-3 40:52 1. Whole Lotta Love ** I. ...

14
авг
2015

Led Zeppelin - Albums Collection (Super Deluxe Edition 7CD Box Sets) [2015, Hard Rock, Blues Rock, FLAC]

Формат: FLAC, (image + .cue), lossless
Год выпуска: 2015
Страна: UK
Жанр: Hard Rock, Blues Rock
Продолжительность: 04:17:05
Описание: 1976 Presence (2CD) 01 CD -1 Original Album 00:44:48 1. Achilles Last Stand 2. For Your Life 3. Royal Orleans 4. Nobody's Fault But Mine 5. Candy Store Rock 6. Hots On For Nowhere 7. Tea For One CD -2 Companion Audio 00:31:34 1. Two Ones Are Won (Achilles Last Stand) (Reference Mix) 2. For Your Life (Reference Mix) 3. 10 Ribs & All / Carrot Pod Pod (Pod) (Reference Mix) 4. Royal Orleans (Reference Mix) 5. Hots On For Nowhere (Reference Mix) eac CD 1Exact Audi ...

16
июн
2014

Led Zeppelin - Led Zeppelin I, II, III (6CD Super Deluxe Edition Box Sets Atlantic Records Remastered 2014) [1968 - 1970, Hard Rock, FLAC]

Формат: FLAC, (image+ .cue), lossless
Год выпуска: 1968 - 1970
Страна: UK
Жанр: Hard Rock
Продолжительность: 10:46:14
Треклист: 1968 - Led Zeppelin I (2CD) 01 Disc One - Original Album (0001. Good Times Bad Times 02:47 02. Babe I'm Gonna Leave You 06:42 03. You Shook Me 06:28 04. Dazed And Confused 06:28 05. Your Time Is Gonna Come 04:34 06. Black Mountain Side 02:12 07. Communication Breakdown 02:30 08. I Can't Quit You Baby 04:42 09. How Many More Times 08:29Log EACExact Audio Copy V1.0 beta 3 from 29. August 2011 EAC extraction logfile from 13. June 2014, 20:38 Led Zeppelin / Led Zeppel ...

05
дек
2013

Led Zeppelin - Throwing The Wild Seeds (Nassau Coliseum 1975 Complete Tapes, 6CD Box Set) [2013, Hard Rock, Heavy Metal, Blues Rock, Folk Rock, MP3]

Формат: MP3, tracks, 320kbps
Год выпуска: 2013
Страна: UK
Жанр: Hard Rock, Heavy Metal, Blues Rock, Folk Rock
Продолжительность: 06:33:17
Описание: Throwing The Wild Seeds CD1 01:16:06 320kbps 01. Band Announcements (01:43) 02. Rock And Roll (03:50) 03. Sick Again (06:22) 04. Over The Hills And Far Away (08:35) 05. In My Time Of Dying (11:39) 06. The Song Remains The Same (05:33) 07. The Rain Song (09:06) 08. Kashmir (09:58) 09. No Quarter (19:17) CD2 01:17:11 320kbps 01. Trampled Underfoot (09:10) 02. Moby Dick (26:36) 03. Dazed And Confused (41:28) CD3 00:38:10 320kbps 01. Stairway To Hea ...

02
мая
2017

Brent Havens Conducts The Music of Led Zeppelin - Led Zeppelin performed by Symphony Orchestra [2004, Symphonic Rock, FLAC]

Формат: FLAC, (tracks + .cue), lossless
Год выпуска: 2004
Страна: UK
Жанр: Symphonic Rock
Продолжительность: 01:03:12
Описание: 01. Immigrant Song (2:24) 02. Heartbreaker (4:23) 03. Kashmir (8:06) 04. The Rain Song (8:10) 05. Thank You (3:52) 06. In The Evening (6:11) 07. I'm Gonna Crawl (5:03) 08. Friends (3:44) 09. Going to California (3:44) 10. Stairway to Heaven (8:18 ) 11. Black Dog (4:54) 12. The Ocean (4:23)
Доп. информация: EAC Exact Audio Copy V1.1 from 23. June 2015 EAC extraction logfile from 28. August 2016, 3:53 Jacksonville Symphony Orchestra / Brent Havens Conducts The Music ...

27
дек
2012

Led Zeppelin - Celebration Day (10 Limited Version CD Set) [1969-2007, Hard Rock, FLAC]

Формат: FLAC, (image + .cue), lossless
Год выпуска: 1969-2007
Страна: UK
Жанр: Hard Rock
Продолжительность: 07:26:53
Описание: 1969 Led Zeppelin (WPCR 14843) 00 1. Good Times Bad Times 2. Babe I'm Gonna Leave You 3. You Shook Me 4. Dazed And Confused 5. Your Time Is Gonna Come 6. Black Mountain Side 7. Communication Breakdown 8. I Can't Quit You Baby 9. How Many More Times EACExact Audio Copy V1.0 beta 3 from 29. August 2011 EAC extraction logfile from 15. December 2012, 10:43 Led Zeppelin / Led Zeppelin Used drive : MATSHITADVD-RAM UJ-850S Adapter: 1 ID: 0 Read mode : Secure Utilize accur ...

03
июл
2015

VA - Universal Music - No Limits [Box Set] [2015, Eurodance, Rave, Breakbeat, Euro House, UK Garage, MP3]

Формат: MP3, tracks, 320kbps
Год выпуска: 2015
Страна: All World
Жанр: Eurodance, Rave, Breakbeat, Euro House, UK Garage
Продолжительность: 03:52:34
Описание: CD1 0101. 2 Unlimited - No Limit 02. Corona - The Rhythm Of The Night 03. Haddaway - What Is Love 04. Culture Beat - Mr. Vain 05. Dr. Alban - It's My Life 06. Cappella - U Got 2 Let The Music 07. Felix - Don't You Want Me 08. JX - Son Of A Gun 09. Urban Cookie Collective - The Key, The Secret 10. Berri - Sunshine After The Rain 11. The Original - I Luv U Baby (2004) 12. Scatman John - Scatman 13. N-Trance - Set You Free 14. Alex Party - ...

11
июн
2011

Eric Clapton - In The West Of Japan (10 CD Box Set + Bonus) [1997, Blues, Rock, FLAC]

Формат: FLAC, (image + .cue), lossless
Год выпуска: 1997
Страна: England
Жанр: Blues, Rock
Продолжительность: 09:37:16
Описание: CD 1 - 20th Oct 1997, (Marine Messe, Fukuoka) (part I) 00 01. Layla 02. Change The World 03. Nobody Knows You When You're Down & Out 04. Tears In Heaven 05. Going Down Slow 06. Broken Hearted 07. Pilgrim 08. Before You Accuse Me 09. I Shot The Sheriff 10. Wonderful Tonight CD 2 - 20th Oct 1997, (Marine Messe, Fukuoka) (part II) 00 1. Tore Down 2. Have You Ever Loved A Woman 3. Cocaine 4. Tearing Us Apart 5. Old Love 6. Sunshine Of Your Love 7. Everyday I ...

18
фев
2012

Electric Light Orchestra - The Classic Albums Collection (11CD Box Set Sony Music) - 2011 [1971-1986, Rock, Progressive Rock, Symphonic Rock, FLAC]

Формат: FLAC, (image + .cue), lossless
Год выпуска: 1971-1986
Страна: UK
Жанр: Rock, Progressive Rock, Symphonic Rock
Продолжительность: 10:26:55
Описание: 1971 - No Answer (The Electric Light Orchestra) (00
Трeклист: 01. 10538 Overture 05:30 02. Look At Me Now 03:17 03. Nellie Takes Her Bow 05:59 04. The Battle Of Marston Moor (July 2nd 1644) 06:03 05. First Movement (Jumping Biz) 03:00 06. Mr. Radio 05:04 07. Manhattan Rumble (49th Street Massacre) 04:22 08. Queen Of The Hours 03:22 09. Whisper In The Night 04:50 Bonus Tracks: 10. The Battle Of Marston Moor (Take 1 / Alternate Mi ...

08
мар
2011

Deep Purple: Beyond The Purple (10CD Box Set Warner Music Japan) [1970-1976, Hard Rock, FLAC]

Формат: FLAC, (image + .cue), lossless
Год выпуска: 1970-1976
Страна: UK
Жанр: Hard Rock
Продолжительность: 07:27:04
Описание: Disc 1
Трэклист: 01. First Movement 19:11 a) Modarato b) Allegro c) Vivace 02. Second Movement: Part One-Andante 06:33 03. Second Movement: Part Two 12:29 04. Third Movement 15:31 Ritchie Blackmore - guitar Ian Gillan - vocals Jon Lord - keyboards Ian Paice - drums Roger Glover - bass guitar Royal Philharmonic Orchestra / Malcolm Arnold - conductor Recorded September 24th 1969 at Royal Albert Hall, London Disc 2
Трэклист: 01. Speed King 04:24 02. Bloodsucker 04: ...

14
сен
2007

Led Zeppelin - Discography [mp3, 192]

Страна: США
Жанр: Rock
Формат: MP3
Общая продолжительность:9:52:47
Битрейт аудио: 192
Трэклист: Led Zeppelin - BBC Sessions 1997 Led Zeppelin - House Of The Holy 1973 Led Zeppelin - Led Zeppelin I 1969 Led Zeppelin - Led Zeppelin III 1970 Led Zeppelin - Physical Graffiti I 1975 Led Zeppelin - Physical Graffiti II 1975 Led Zeppelin - Presence 1976 Led Zeppelin - Coda 1982 Led Zeppelin - In Through the Outdoor 1979 Led Zeppelin - Led Zeppelin IV 1971 Led Zeppelin - Led Zeppelin II 1969
Дополнительная информация: Биография Этот величайший квартет (Led zeppelin) был основан ...

17
окт
2014

Led Zeppelin - Led Zeppelin IV (Deluxe Edition 2CD) [2014, Hard Rock, MP3]

Формат: MP3, tracks, 320kbps
Год выпуска: 2014
Страна: UK
Жанр: Hard Rock
Продолжительность: 01:23:02
Описание: CD-1 001. Black Dog 2. Rock And Roll 3. The Battle of Evermore 4. Stairway To Heaven 5. Misty Mountain Hop 6. Four Sticks 7. Going To California 8. When The Levee Breaks CD-2 001. Black Dog (Basic Track With Guitar Overdubs) 2. Rock And Roll (Alternate Mix) 3. The Battle Of Evermore (Mandolin/Guitar Mix From Headley Grange) 4. Stairway To Heaven (Sunset Sound Mix) 5. Misty Mountain Hop (Alternate Mix) 6. Four Sticks (Alternate Mix) 7. Going To California (Mandolin/Guitar Mix) 8. When ...

16
мая
2012

Cheap Trick - 2 Box Sets / 10 Albums (2008 Original Album Classics 5CD Box/2011 Original Album Classics (5CD Box Set) [2008 / 2011, Rock, Hard Rock

Формат: FLAC, (image + .cue), lossless
Год выпуска: 2008 / 2011
Страна: USA
Жанр: Rock, Hard Rock
Продолжительность: 08:12:46
Описание: 2008 Original Album Classics (5CD Box Set Legacy, Epic Records) 1977 Cheap Trick 0 01. ELO Kiddies 02. Daddy Should Have Stayed In High School 03. Taxman, Mr. Thief 04. Cry, Cry 05. Oh, Candy 06. Hot Love 07. Speak Now Or Forever Hold Your Peace 08. He's A Whore 09. Mandocello 10. The Ballad Of TV Violence (I'm Not The Only Boy) Bonus Tracks 11. Lovin' Money 12. I Want You To Want Me 13. Lookout 14. You're All Talk 15. I Dig Go-Go Girls EAC Exact Audio Cop ...

30
июл
2011

Jeff Beck 2 Box Sets / 10 Albums (2008 Original Album Classics 5CD Box/2010 Original Album Classics (5CD Box Set) [2008 / 2010, Blues rock, Hard Rock, Progressive Rock, FLAC]

Формат: FLAC, (image + .cue), lossless
Год выпуска: 2008 / 2010
Страна: England
Жанр: Blues rock, Jazz fusion, Instrumental Rock, Hard Rock, Progressive Rock
Продолжительность: 06:58:48
Описание: 2008 Original Album Classics (5CD Box Set Epic Records) 1971 Jeff Beck Group (Rough & Ready) 00 1. Got The Feeling 2. Situation 3. Short Business 4. Max's Tune 5. I've Been Used 6. New Ways / Train Train 7. Jody EACExact Audio Copy V1.0 beta 2 from 29. April 2011 EAC extraction logfile from 24. July 2011, 13:44 Jeff Beck Group / Rough And Ready Used drive : HL-DT-STDVDRAM GSA-H60N Adapter: 2 ID: ...

03
дек
2016

Lou Reed - The Sire Years: The Complete Albums Box (10CD Box Set) [2015, Rock, Art Rock, FLAC]

Формат: FLAC, (image + .cue), lossless
Год выпуска: 2015
Страна: EU
Жанр: Rock, Art Rock
Продолжительность: 08:13:14
Описание: 1989 New York 0001. Romeo Had Juliette 02. Halloween Parade 03. Dirty Blvd. 04. Endless Cycle 05. There Is No Time 06. Last Great American Whale 07. Beginning Of A Great Adventure 08. Busload Of Faith 09. Sick Of You 10. Hold On 11. Good Evening Mr. Waldheim 12. Xmas In February 13. Strawman 14. Dime Store Mystery eacExact Audio Copy V1.1 from 23. June 2015 EAC extraction logfile from 2. December 2016, 18:25 Lou Reed / New York Used drive : PLEXTOR BD-R PX-B950SA Ad ...