16
июн
2014

Led Zeppelin - Led Zeppelin I, II, III (6CD Super Deluxe Edition Box Sets Atlantic Records Remastered 2014) [1968 - 1970, Hard Rock, FLAC]

Led Zeppelin - Led Zeppelin I, II, III (6CD Super Deluxe Edition Box Sets Atlantic Records Remastered 2014)

Формат: FLAC, (image+ .cue), lossless
Год выпуска: 1968 - 1970
Страна: UK
Жанр: Hard Rock
Продолжительность: 10:46:14
Треклист:

1968 - Led Zeppelin I (2CD) 01

Led Zeppelin - Led Zeppelin I, II, III
Disc One - Original Album (00
Led Zeppelin - Led Zeppelin I, II, III 01. Good Times Bad Times 02:47
02. Babe I'm Gonna Leave You 06:42
03. You Shook Me 06:28
04. Dazed And Confused 06:28
05. Your Time Is Gonna Come 04:34
06. Black Mountain Side 02:12
07. Communication Breakdown 02:30
08. I Can't Quit You Baby 04:42
09. How Many More Times 08:29
Log EAC
Exact Audio Copy V1.0 beta 3 from 29. August 2011

EAC extraction logfile from 13. June 2014, 20:38

Led Zeppelin / Led Zeppelin I CD1 Album

Used drive : PLEXTOR BD-R PX-B950SA Adapter: 6 ID: 0

Read mode : Secure
Utilize accurate stream : Yes
Defeat audio cache : Yes
Make use of C2 pointers : No

Read offset correction : 6
Overread into Lead-In and Lead-Out : No
Fill up missing offset samples with silence : Yes
Delete leading and trailing silent blocks : No
Null samples used in CRC calculations : Yes
Used interface : Native Win32 interface for Win NT & 2000

Used output format : Internal WAV Routines
Sample format : 44.100 Hz; 16 Bit; Stereo

TOC of the extracted CD

Track | Start | Length | Start sector | End sector
---------------------------------------------------------
1 | 0:00.00 | 2:47.08 | 0 | 12532
2 | 2:47.08 | 6:42.57 | 12533 | 42739
3 | 9:29.65 | 6:28.35 | 42740 | 71874
4 | 15:58.25 | 6:28.50 | 71875 | 101024
5 | 22:27.00 | 4:34.52 | 101025 | 121626
6 | 27:01.52 | 2:12.44 | 121627 | 131570
7 | 29:14.21 | 2:30.15 | 131571 | 142835
8 | 31:44.36 | 4:42.54 | 142836 | 164039
9 | 36:27.15 | 8:29.57 | 164040 | 202271

Range status and errors

Selected range

Filename C:UsersMeijinDesktopLossless Galaxy ALLexxessLed Zeppelin1968 Led Zeppelin I (2CD + 3LP Super Deluxe Box Set Atlantic Records 2014)CD1Led Zeppelin - Led Zeppelin I CD1 Album.wav

Peak level 96.8 %
Extraction speed 7.3 X
Range quality 100.0 %
Test CRC E70F2207
Copy CRC E70F2207
Copy OK

No errors occurred

AccurateRip summary

Track 1 not present in database
Track 2 not present in database
Track 3 not present in database
Track 4 not present in database
Track 5 not present in database
Track 6 not present in database
Track 7 not present in database
Track 8 not present in database
Track 9 not present in database

None of the tracks are present in the AccurateRip database

End of status report

==== Log checksum EDD1A1727700D6C938A92A5B1C1E98A825081981FA4A4F139EF05B2C26645AC0 ====
Disc Two - Companion Audio
Led Zeppelin - Led Zeppelin I, II, III 01. Good Times, Bad Times / Communication Breakdown 03:52
02. I Can't Quit You Baby 06:41
03. Heartbreaker 03:49
04. Dazed And Confused 15:01
05. White Summer / Black Mountain Side 09:19
06. You Shook Me 11:55
07. Moby Dick 09:21
08. How Many More Times 11:14
Log EAC
Exact Audio Copy V1.0 beta 3 from 29. August 2011

EAC extraction logfile from 13. June 2014, 20:10

Led Zeppelin / Led Zeppelin I CD1 Live At The Olympia

Used drive : PLEXTOR BD-R PX-B950SA Adapter: 6 ID: 0

Read mode : Secure
Utilize accurate stream : Yes
Defeat audio cache : Yes
Make use of C2 pointers : No

Read offset correction : 6
Overread into Lead-In and Lead-Out : No
Fill up missing offset samples with silence : Yes
Delete leading and trailing silent blocks : No
Null samples used in CRC calculations : Yes
Used interface : Native Win32 interface for Win NT & 2000

Used output format : Internal WAV Routines
Sample format : 44.100 Hz; 16 Bit; Stereo

TOC of the extracted CD

Track | Start | Length | Start sector | End sector
---------------------------------------------------------
1 | 0:00.00 | 3:52.70 | 0 | 17469
2 | 3:52.70 | 6:41.24 | 17470 | 47568
3 | 10:34.19 | 3:49.37 | 47569 | 64780
4 | 14:23.56 | 15:01.48 | 64781 | 132403
5 | 29:25.29 | 9:19.09 | 132404 | 174337
6 | 38:44.38 | 11:55.66 | 174338 | 228028
7 | 50:40.29 | 9:21.47 | 228029 | 270150
8 | 60:02.01 | 11:14.43 | 270151 | 320743

Range status and errors

Selected range

Filename C:UsersMeijinDesktopLossless Galaxy ALLexxessLed Zeppelin1968 Led Zeppelin I (2CD + 3LP Super Deluxe Box Set Atlantic Records 2014)CD2 Live At The OlympiaLed Zeppelin - Led Zeppelin I CD1 Live At The Olympia.wav

Peak level 97.2 %
Extraction speed 8.5 X
Range quality 100.0 %
Test CRC 86A59DBA
Copy CRC 86A59DBA
Copy OK

No errors occurred

AccurateRip summary

Track 1 not present in database
Track 2 not present in database
Track 3 not present in database
Track 4 not present in database
Track 5 not present in database
Track 6 not present in database
Track 7 not present in database
Track 8 not present in database

None of the tracks are present in the AccurateRip database

End of status report

==== Log checksum 83F6D9C155BBACB638E54ACE9B2DECEDBCA84FDA84956CABD8F60C2B50B5B380 ====
1969 - Led Zeppelin II (2CD) 01
Led Zeppelin - Led Zeppelin I, II, III
Disc One - Original Album (00
Led Zeppelin - Led Zeppelin I, II, III 01. Whole Lotta Love 05:35
02. What Is And What Should Never Be 04:46
03. The Lemon Song 06:19
04. Thank You 04:49
05. Heartbreaker 04:14
06. Living Loving Maid (She's Just A Woman) 02:39
07. Ramble On 04:34
08. Moby Dick 04:21
09. Bring It On Home 04:21
Log EAC
Exact Audio Copy V1.0 beta 3 from 29. August 2011

EAC extraction logfile from 13. June 2014, 19:33

Led Zeppelin / Led Zeppelin II CD1 Album

Used drive : PLEXTOR BD-R PX-B950SA Adapter: 6 ID: 0

Read mode : Secure
Utilize accurate stream : Yes
Defeat audio cache : Yes
Make use of C2 pointers : No

Read offset correction : 6
Overread into Lead-In and Lead-Out : No
Fill up missing offset samples with silence : Yes
Delete leading and trailing silent blocks : No
Null samples used in CRC calculations : Yes
Used interface : Native Win32 interface for Win NT & 2000

Used output format : Internal WAV Routines
Sample format : 44.100 Hz; 16 Bit; Stereo

TOC of the extracted CD

Track | Start | Length | Start sector | End sector
---------------------------------------------------------
1 | 0:00.00 | 5:35.30 | 0 | 25154
2 | 5:35.30 | 4:46.17 | 25155 | 46621
3 | 10:21.47 | 6:19.41 | 46622 | 75087
4 | 16:41.13 | 4:49.24 | 75088 | 96786
5 | 21:30.37 | 4:14.18 | 96787 | 115854
6 | 25:44.55 | 2:39.09 | 115855 | 127788
7 | 28:23.64 | 4:34.02 | 127789 | 148340
8 | 32:57.66 | 4:21.05 | 148341 | 167920
9 | 37:18.71 | 4:21.56 | 167921 | 187551

Range status and errors

Selected range

Filename C:UsersMeijinDesktopLossless Galaxy ALLexxessLed Zeppelin1969 Led Zeppelin II (2CD + 2LP Super Deluxe Box Set Atlantic Records 2014)CD1Led Zeppelin - Led Zeppelin II CD1 Album.wav

Peak level 100.0 %
Extraction speed 7.2 X
Range quality 100.0 %
Test CRC E21E9F5E
Copy CRC E21E9F5E
Copy OK

No errors occurred

AccurateRip summary

Track 1 not present in database
Track 2 not present in database
Track 3 not present in database
Track 4 not present in database
Track 5 not present in database
Track 6 not present in database
Track 7 not present in database
Track 8 not present in database
Track 9 not present in database

None of the tracks are present in the AccurateRip database

End of status report

==== Log checksum 4C9E765F220FEAE1F403A53D483017CC0FF283C99CC7569DE20BD81130C47B98 ====
Disc Two - Companion Audio (00
Led Zeppelin - Led Zeppelin I, II, III 01. Whole Lotta Love (Rough Mix With Vocal) 05:39
02. What Is And What Should Never Be (Rough Mix With Vocal) 04:33
03. Thank You (Backing Track) 04:20
04. Heartbreaker (Rough Mix With Vocal) 04:25
05. Living Loving Maid (She's Just A Woman) (Backing Track) 03:11
06. Ramble On (Rough Mix With Vocal) 04:44
07. Moby Dick (Backing Track) 01:38
08. La La (Intro/Outro Rough Mix) 04:09
Log EAC
Exact Audio Copy V1.0 beta 3 from 29. August 2011

EAC extraction logfile from 13. June 2014, 19:07

Led Zeppelin / Led Zeppelin II CD2 Companion Audio

Used drive : PLEXTOR BD-R PX-B950SA Adapter: 6 ID: 0

Read mode : Secure
Utilize accurate stream : Yes
Defeat audio cache : Yes
Make use of C2 pointers : No

Read offset correction : 6
Overread into Lead-In and Lead-Out : No
Fill up missing offset samples with silence : Yes
Delete leading and trailing silent blocks : No
Null samples used in CRC calculations : Yes
Used interface : Native Win32 interface for Win NT & 2000

Used output format : Internal WAV Routines
Sample format : 44.100 Hz; 16 Bit; Stereo

TOC of the extracted CD

Track | Start | Length | Start sector | End sector
---------------------------------------------------------
1 | 0:00.00 | 5:39.65 | 0 | 25489
2 | 5:39.65 | 4:33.67 | 25490 | 46031
3 | 10:13.57 | 4:20.50 | 46032 | 65581
4 | 14:34.32 | 4:25.24 | 65582 | 85480
5 | 18:59.56 | 3:11.10 | 85481 | 99815
6 | 22:10.66 | 4:44.62 | 99816 | 121177
7 | 26:55.53 | 1:38.28 | 121178 | 128555
8 | 28:34.06 | 4:09.69 | 128556 | 147299

Range status and errors

Selected range

Filename C:UsersMeijinDesktopLossless Galaxy ALLexxessLed Zeppelin1969 Led Zeppelin II (2CD + 2LP Super Deluxe Box Set Atlantic Records 2014)CD2Led Zeppelin - Led Zeppelin II CD2 Companion Audio.wav

Peak level 96.7 %
Extraction speed 6.8 X
Range quality 100.0 %
Test CRC 7C753A4F
Copy CRC 7C753A4F
Copy OK

No errors occurred

AccurateRip summary

Track 1 not present in database
Track 2 not present in database
Track 3 not present in database
Track 4 not present in database
Track 5 not present in database
Track 6 not present in database
Track 7 not present in database
Track 8 not present in database

None of the tracks are present in the AccurateRip database

End of status report

==== Log checksum B941C1AFF4403837AB0689FDCDD84C3FA9B6D2A553572999F6C5DA199BE3AD48 ====
1970 - Led Zeppelin III (2CD) 01

Led Zeppelin - Led Zeppelin I, II, III
Disc One - Original Album (00
Led Zeppelin - Led Zeppelin I, II, III 01. Immigrant Song 02:27
02. Friends 03:54
03. Celebration Day 03:30
04. Since I've Been Loving You 07:24
05. Out On The Tiles 04:07
06. Gallows Pole 04:57
07. Tangerine 03:11
08. That's The Way 05:37
09. Bron-Y-Aur Stomp 04:17
10. Hats Off To (Roy) Harper 03:44
Log EAC
Exact Audio Copy V1.0 beta 3 from 29. August 2011

EAC extraction logfile from 13. June 2014, 18:07

Led Zeppelin / Led Zeppelin III CD1 Album

Used drive : PLEXTOR BD-R PX-B950SA Adapter: 6 ID: 0

Read mode : Secure
Utilize accurate stream : Yes
Defeat audio cache : Yes
Make use of C2 pointers : No

Read offset correction : 6
Overread into Lead-In and Lead-Out : No
Fill up missing offset samples with silence : Yes
Delete leading and trailing silent blocks : No
Null samples used in CRC calculations : Yes
Used interface : Native Win32 interface for Win NT & 2000

Used output format : Internal WAV Routines
Sample format : 44.100 Hz; 16 Bit; Stereo

TOC of the extracted CD

Track | Start | Length | Start sector | End sector
---------------------------------------------------------
1 | 0:00.00 | 2:27.07 | 0 | 11031
2 | 2:27.07 | 3:54.04 | 11032 | 28585
3 | 6:21.11 | 3:30.05 | 28586 | 44340
4 | 9:51.16 | 7:24.11 | 44341 | 77651
5 | 17:15.27 | 4:07.26 | 77652 | 96202
6 | 21:22.53 | 4:57.70 | 96203 | 118547
7 | 26:20.48 | 3:11.62 | 118548 | 132934
8 | 29:32.35 | 5:37.08 | 132935 | 158217
9 | 35:09.43 | 4:17.33 | 158218 | 177525
10 | 39:27.01 | 3:44.32 | 177526 | 194357

Range status and errors

Selected range

Filename C:UsersMeijinDesktopLossless Galaxy ALLexxessLed Zeppelin1970 Led Zeppelin III (2CD + 2LP Super Deluxe Box Set Atlantic Records 2014)CD1Led Zeppelin - Led Zeppelin III CD1 Album.wav

Peak level 97.7 %
Extraction speed 6.8 X
Range quality 100.0 %
Test CRC 694B307F
Copy CRC 694B307F
Copy OK

No errors occurred

AccurateRip summary

Track 1 not present in database
Track 2 not present in database
Track 3 not present in database
Track 4 not present in database
Track 5 not present in database
Track 6 not present in database
Track 7 not present in database
Track 8 not present in database
Track 9 not present in database
Track 10 not present in database

None of the tracks are present in the AccurateRip database

End of status report

==== Log checksum 598EC388B7D5143BA71DF31B8BE3EF90FFCCDD6BC5A5BD4D7A1F5B4894505F21 ====
Disc Two - Companion Audio (00
Led Zeppelin - Led Zeppelin I, II, III 01. Immigrant Song (Alternate Mix) 02:25
02. Friends (Track - No Vocal) 03:43
03. Celebration Day (Alternate Mix) 03:19
04. Since I've Been Loving You (Rough Mix Of First Recording) 07:17
05. Bathroom Sound (Track - No Vocal) 04:10
06. Gallows Pole (Rough Mix) 05:20
07. That's The Way (Rough Mix With Dulcimer & Backwards Echo) 05:23
08. Jennings Farm Blues (Rough Mix Of All Guitar Overdubs That Day) 05:54
09. Key To The Highway / Trouble In Mind (Rough Mix) 04:07
Log EAC
Exact Audio Copy V1.0 beta 3 from 29. August 2011

EAC extraction logfile from 13. June 2014, 18:36

Led Zeppelin / Led Zeppelin III CD2 Companion Audio

Used drive : PLEXTOR BD-R PX-B950SA Adapter: 6 ID: 0

Read mode : Secure
Utilize accurate stream : Yes
Defeat audio cache : Yes
Make use of C2 pointers : No

Read offset correction : 6
Overread into Lead-In and Lead-Out : No
Fill up missing offset samples with silence : Yes
Delete leading and trailing silent blocks : No
Null samples used in CRC calculations : Yes
Used interface : Native Win32 interface for Win NT & 2000

Used output format : Internal WAV Routines
Sample format : 44.100 Hz; 16 Bit; Stereo

TOC of the extracted CD

Track | Start | Length | Start sector | End sector
---------------------------------------------------------
1 | 0:00.00 | 2:25.68 | 0 | 10942
2 | 2:25.68 | 3:43.11 | 10943 | 27678
3 | 6:09.04 | 3:19.26 | 27679 | 42629
4 | 9:28.30 | 7:17.63 | 42630 | 75467
5 | 16:46.18 | 4:01.02 | 75468 | 93544
6 | 20:47.20 | 5:20.46 | 93545 | 117590
7 | 26:07.66 | 5:23.26 | 117591 | 141841
8 | 31:31.17 | 5:54.48 | 141842 | 168439
9 | 37:25.65 | 4:07.56 | 168440 | 187020

Range status and errors

Selected range

Filename C:UsersMeijinDesktopLossless Galaxy ALLexxessLed Zeppelin1970 Led Zeppelin III (2CD + 2LP Super Deluxe Box Set Atlantic Records 2014)CD2Led Zeppelin - Led Zeppelin III CD2 Companion Audio.wav

Peak level 96.6 %
Extraction speed 6.8 X
Range quality 100.0 %
Test CRC 6DFFD5BE
Copy CRC 6DFFD5BE
Copy OK

No errors occurred

AccurateRip summary

Track 1 not present in database
Track 2 not present in database
Track 3 not present in database
Track 4 not present in database
Track 5 not present in database
Track 6 not present in database
Track 7 not present in database
Track 8 not present in database
Track 9 not present in database

None of the tracks are present in the AccurateRip database

End of status report

==== Log checksum D0D75C10B8E554EED422479F3CDE5A1C3069F44E031D04369997AC10A6A995FF ====
Доп. информация:
Об издании
Performer:
Led Zeppelin
Box / Albums:
1968 Led Zeppelin I ● 1969 Led Zeppelin II ● 1970 Led Zeppelin III
(2CD + 2 or 3 LP Super Deluxe Edition
Box Set Atlantic Records 2014)
Info:
Atlantic Recordings / Warner Music
Super Deluxe / Box / CD / LP / Remaster 2014
Catalog Box: R2-536179 / R2-536181 / 8122796435
Catalog CDs:
R2 536126 • R2 536179 / R2 536129 • R2 536181 / 8122796450 • 8122795913
Card Numbered: 23594 / 26305 / 03626
Made in US / Made in EU
Dynamic Range: 9 • 9 / 10 • 10 / 10 • 9
Released Year: 2014


http://www.superdeluxeedition.com/news/led-zeppelin-box-sets-and-deluxe-cd-and-vinyl-reissues-in-june/
P.S. Благодарности ALLexxess / Galaxy за предоставленную информацию
Музыка / Lossless / Рок, Панк, Метал, Альтернатива.
СКАЧАТЬ БЕСПЛАТНО  [5.5 GB]


23
окт
2014

Led Zeppelin - I, II, III, IV, Houses Of The Holy (10CD Super Deluxe Edition Atlantic Records Remastered) - Collection [2014, Hard Rock, FLAC]

Формат: FLAC, (image+ .cue, tracks+ .cue), lossless
Год выпуска: 2014
Страна: UK
Жанр: Hard Rock
Продолжительность: 07:16:45
Треклист: 1968 - Led Zeppelin I (2CD) 01 Disc One - Original Album (0001. Good Times Bad Times 02:47 02. Babe I'm Gonna Leave You 06:42 03. You Shook Me 06:28 04. Dazed And Confused 06:28 05. Your Time Is Gonna Come 04:34 06. Black Mountain Side 02:12 07. Communication Breakdown 02:30 08. I Can't Quit You Baby 04:42 09. How Many More Times 08:29Log EACExact Audio Copy V1.0 beta 3 from 29. August 2011 EAC extraction logfile from 13. June 2014, 20:38 Led Zeppelin / Led ...

14
авг
2015

Led Zeppelin - Albums Collection (Super Deluxe Edition 7CD Box Sets) [2015, Hard Rock, Blues Rock, FLAC]

Формат: FLAC, (image + .cue), lossless
Год выпуска: 2015
Страна: UK
Жанр: Hard Rock, Blues Rock
Продолжительность: 04:17:05
Описание: 1976 Presence (2CD) 01 CD -1 Original Album 00:44:48 1. Achilles Last Stand 2. For Your Life 3. Royal Orleans 4. Nobody's Fault But Mine 5. Candy Store Rock 6. Hots On For Nowhere 7. Tea For One CD -2 Companion Audio 00:31:34 1. Two Ones Are Won (Achilles Last Stand) (Reference Mix) 2. For Your Life (Reference Mix) 3. 10 Ribs & All / Carrot Pod Pod (Pod) (Reference Mix) 4. Royal Orleans (Reference Mix) 5. Hots On For Nowhere (Reference Mix) eac CD 1Exact Audi ...

17
окт
2014

Led Zeppelin - Led Zeppelin IV (Deluxe Edition 2CD) [2014, Hard Rock, MP3]

Формат: MP3, tracks, 320kbps
Год выпуска: 2014
Страна: UK
Жанр: Hard Rock
Продолжительность: 01:23:02
Описание: CD-1 001. Black Dog 2. Rock And Roll 3. The Battle of Evermore 4. Stairway To Heaven 5. Misty Mountain Hop 6. Four Sticks 7. Going To California 8. When The Levee Breaks CD-2 001. Black Dog (Basic Track With Guitar Overdubs) 2. Rock And Roll (Alternate Mix) 3. The Battle Of Evermore (Mandolin/Guitar Mix From Headley Grange) 4. Stairway To Heaven (Sunset Sound Mix) 5. Misty Mountain Hop (Alternate Mix) 6. Four Sticks (Alternate Mix) 7. Going To California (Mandolin/Guitar Mix) 8. When ...

02
мая
2017

Brent Havens Conducts The Music of Led Zeppelin - Led Zeppelin performed by Symphony Orchestra [2004, Symphonic Rock, FLAC]

Формат: FLAC, (tracks + .cue), lossless
Год выпуска: 2004
Страна: UK
Жанр: Symphonic Rock
Продолжительность: 01:03:12
Описание: 01. Immigrant Song (2:24) 02. Heartbreaker (4:23) 03. Kashmir (8:06) 04. The Rain Song (8:10) 05. Thank You (3:52) 06. In The Evening (6:11) 07. I'm Gonna Crawl (5:03) 08. Friends (3:44) 09. Going to California (3:44) 10. Stairway to Heaven (8:18 ) 11. Black Dog (4:54) 12. The Ocean (4:23)
Доп. информация: EAC Exact Audio Copy V1.1 from 23. June 2015 EAC extraction logfile from 28. August 2016, 3:53 Jacksonville Symphony Orchestra / Brent Havens Conducts The Music ...

05
дек
2013

Led Zeppelin - Throwing The Wild Seeds (Nassau Coliseum 1975 Complete Tapes, 6CD Box Set) [2013, Hard Rock, Heavy Metal, Blues Rock, Folk Rock, MP3]

Формат: MP3, tracks, 320kbps
Год выпуска: 2013
Страна: UK
Жанр: Hard Rock, Heavy Metal, Blues Rock, Folk Rock
Продолжительность: 06:33:17
Описание: Throwing The Wild Seeds CD1 01:16:06 320kbps 01. Band Announcements (01:43) 02. Rock And Roll (03:50) 03. Sick Again (06:22) 04. Over The Hills And Far Away (08:35) 05. In My Time Of Dying (11:39) 06. The Song Remains The Same (05:33) 07. The Rain Song (09:06) 08. Kashmir (09:58) 09. No Quarter (19:17) CD2 01:17:11 320kbps 01. Trampled Underfoot (09:10) 02. Moby Dick (26:36) 03. Dazed And Confused (41:28) CD3 00:38:10 320kbps 01. Stairway To Hea ...

10
авг
2015

Led Zeppelin - Presence (Deluxe Edition 2CD) [2015, Hard Rock, FLAC]

Формат: FLAC, tracks, lossless
Год выпуска: 2015
Страна: England
Жанр: Hard Rock
Продолжительность: 01:16:21
Описание: 01. Achilles Last Stand 02. For Your Life 03. Royal Orleans 04. Nobody's Fault But Mine 05. Candy Store Rock 06. Hots On for Nowhere 07. Tea for One 08. Two Ones Are Won (Achilles Last Stand) (reference mix) 09. For Your Life (reference mix) 10. 10 Ribs & All Carrot Pod Pod (Pod) (reference mix) 11. Royal Orleans (reference mix) 12. Hots On for Nowhere (reference mix)
Доп. информация: Log ----------------------- DON'T MODIFY THIS FILE ----------------------- PERFORMER: a ...

10
авг
2015

Led Zeppelin - In Through the Out Door (Deluxe Edition 2CD) [2015, Hard Rock, FLAC]

Формат: FLAC, tracks, lossless
Год выпуска: 2015
Страна: UK
Жанр: Hard Rock
Продолжительность: 01:25:29
Описание: 01. In the Evening 02. South Bound Saurez 03. Fool In the Rain 04. Hot Dog 05. Carouselambra 06. All My Love 07. I'm Gonna Crawl 08. In the Evening (rough mix) 09. Southbound Piano (South Bound Saurez) (rough mix) 10. Fool In the Rain (rough mix) 11. Hot Dog (rough mix) 12. The Epic (Carouselambra) (rough mix) 13. The Hook (All My Love) (rough mix) 14. Blot (I'm Gonna Crawl) (rough mix)
Доп. информация: Log----------------------- DON'T MODIFY THIS FILE ----------------------- ...

25
июн
2011

Led Zeppelin - Mothership (Deluxe Edition 2CD) [2007, Hard Rock, FLAC]

Формат: FLAC, (tracks + .cue), lossless
Год выпуска: 2007
Страна: UK
Жанр: Hard Rock
Продолжительность: 02:15:36
Описание: Disc One 01
Трэклист: 01. Good Times Bad Times 02:47 02. Communication Breakdown 02:28 03. Dazed And Confused 06:28 04. Babe I'm Gonna Leave You 06:41 05. Whole Lotta Love 05:32 06. Ramble On 04:22 07. Heartbreaker 04:15 08. Immigrant Song 2:26 09. Since I've Been Loving You 07:23 10. Rock And Roll 03:41 11. Black Dog 04:54 12. When The Levee Breaks 07:10 13. Stairway To Heaven 08:02Disc Two 01
Трэклист: 01. The Song Remains The Same 05:32 02. Over The Hills And Far A ...

13
ноя
2018

Led Zeppelin x Led Zeppelin [24bit 96khz] [2018, Hard Rock, FLAC]

Формат: FLAC, tracks, lossless
Год выпуска: 2018
Страна: England
Жанр: Hard Rock
Продолжительность: 02:36:14
Описание: Tracklist01. Immigrant Song 02. Rock And Roll (Sunset Sound Mix) 03. Whole Lotta Love 04. Black Dog 05. Stairway To Heaven 06. Good Times Bad Times 07. Going To California 08. Ramble On 09. Kashmir 10. Over The Hills And Far Away 11. Hey, Hey, What Can I Do 12. D'yer Mak'er 13. When The Levee Breaks 14. All My Love 15. Babe I'm Gonna Leave You 16. Heartbreaker 17. Dazed And Confused 18. The Song Remains The Same 19. Fool In The Rain 20. The Ocean 21. What Is And What Should ...

27
мар
2018

Led Zeppelin / Led Zeppelin III (Deluxe Edition) [2014, Hard Rock, MP3]

Формат: MP3, tracks, 320kbps
Год выпуска: 2014
Страна: UK
Жанр: Hard Rock
Продолжительность: 01:24:45
Описание: Треклистcd 1 01. Immigrant Song 02. Friends 03. Celebration Day 04. Since I’ve Been Loving You 05. Out of the Tiles 06. Gallows Pole 07. Tangerine 08. That’s The Way 09. Bron-Y-Aur Stomp 10. Hats Off To (Roy) Harper cd 2 01. The Immigrant Song (Alternate Mix) 02. Friends (Track – No Vocal) 03. Celebration Day (Alternate Mix) 04. Since I’ve Been Loving You (Rough Mix Of First Recording) 05. Bathroom Sound (Track – No Vocal) 06. Gallows Pole (Rough Mix) 07. That’s The Way (Rough Mix W ...

21
фев
2015

Led Zeppelin - Physical Graffiti (40th Anniversary Deluxe Edition) [1975, Hard Rock, WAVPack]

Формат: WAVPack, (image + .cue), lossless
Год выпуска: 1975
Страна: UK
Жанр: Hard Rock
Продолжительность: 02:04:20
Описание: CD1 00 1. Custard Pie 2. The Rover 3. In My Time Of Dying 4. Houses Of The Holy 5. Trampled Under Foot 6. Kashmir eacExact Audio Copy V1.0 beta 3 from 29. August 2011 EAC extraction logfile from 20. February 2015, 15:08 Led Zeppelin / Physical Graffiti 40th Anniversary Deluxe[CD1] Used drive : PIONEER DVD-RW DVR-111L Adapter: 4 ID: 0 Read mode : Secure Utilize accurate stream : Yes Defeat audio cache : Yes Make use of C2 pointers : No Read offset correction : 48 Ove ...

24
мая
2014

Led Blimpie - A Tribute To Led Zeppelin From Hell s Kitchen [2014, Hard Rock, MP3]

Формат: MP3, tracks, 320kbps
Год выпуска: 2014
Страна: USA
Жанр: Hard Rock
Продолжительность: 00:41:19
Описание: 01. Black Dog 02. The Battle Of Evermore (feat.Julie Reyburn) 03. Heartbreaker 04. Out On the Tiles 05. Bron- Yr -Aur 06. Communication Breakdown 07. The Rover 08. Going to California 09. When the Levee Breaks

23
авг
2012

Led Zeppelin - Studio Discography-USL VT Remastered Series [1969-1982, Classic Rock & Hard Rock, FLAC]

Формат: FLAC, (tracks+.cue), lossless
Год выпуска: 1969-1982
Страна: UK
Жанр: Classic Rock & Hard Rock
Продолжительность: 07:52:49
Описание: 1969 - Led Zeppelin (Vol.I) 00
Трeклист: 01. Good Times Bad Times 02:46 02. Babe I'm Gonna Leave You 06:43 03. You Shook Me 06:28 04. Dazed And Confused 06:28 05. Your Time Is Gonna Come 04:34 06. Black Mountain Side 02:13 07. Communication Breakdown 02:28 08. I Can't Quit You Baby 04:43 09. How Many More Times 08:30Состав Jimmy Page - acoustic, electric and pedal steel guitar, backing vocals Robert Plant - vocals, harmonica John Paul Jones ...

04
ноя
2008

Led Zeppelin - The Song Remains The Same (2007) BLU-RAY / Led Zeppelin - The Song Remains The Same (Peter Clifon, Joe Ma

Перевод: Не требуется, cубтитры: есть
Формат: BD, MPEG-4 AVC, AC3
Страна: England
Режиссер: Peter Clifon, Joe Massot
Жанр: Hard Rock
Продолжительность: 02:17:42
Год выпуска: 2007
В ролях: Джон Бонем, Джон Пол Джонс, Джимми Пейдж, Роберт Плант, Питер Грант, Дерек Скилтон, Колин Райгдон, Джейсон Бонем, Патриция Бонем, Ричард Коул, Рой Харпер, Кармен Плант, Кэйрэк Плант, Морин Плант.
Описание: В коротком анонсе к релизу Джимми Пейдж подчеркивает, что фильм и альбом не просто переработаны и отделаны заново: «Мы переосмыслили «The Song Remains The Same» и предлагаем полный сет с концерта на Мэдис ...

02
июл
2016

Train - Does Led Zeppelin II [2016, Hard Rock, Classic Rock, MP3]

Формат: MP3, tracks, 320kbps
Год выпуска: 2016
Страна: USA
Жанр: Hard Rock, Classic Rock
Продолжительность: 00:41:55
Описание: 01. Whole Lotta Love 05:31 02. What Is And What Should Never Be 04:50 03. The Lemon Song 06:24 04. Thank You 05:00 05. Heartbreaker 04:15 06. Living Loving Maid (She’s Just A Woman) 02:41 07. Ramble On 04:22 08. Moby Dick 04:23 09. Bring It On Home 04:25