12

2017

Elvis Presley - A Boy from Tupelo (3CD) [2017, Rock, Pop, Folk, World, Country, Rockabilly, FLAC]

Elvis Presley - A Boy from Tupelo (3CD)
: FLAC, (image + .cue), lossless
: 2017
: USA
: Rock, Pop, Folk, World, & Country, Rockabilly
: 03:41:27
:
CD 1 01
Elvis Presley - A Boy from Tupelo
Memphis Recording Service Acetates

01. My Happiness Recorded July, 1953 at Sun Studio, Memphis Album 2227-1-R THE GREAT PERFORMANCES August, 1990
02. Thats When Your Heartaches Begin Recorded July, 1953 at Sun Studio, Memphis. 5 album set 07863-66050 THE KING OF ROCK AND ROLL June 23, 1992
03. Ill Never Stand in Your Way Recorded January 4, 1954 at Sun Studio 4 CD set 07863-67469-2 PLATINUM A LIFE IN MUSIC July 15, 1997
04. It Wouldnt Be the Same (Without You) Recorded January 4, 1954 at Sun Studio 4 CD set 07863-67469-2 PLATINUM A LIFE IN MUSIC July 15, 1997

Sun Masters
05. Harbor Lights Possibly recorded July 5, 1954 at Sun Studio, Memphis. Album CPL1349 A LEGENDARY PERFORMER VOL. 2 January 1976
06. I Love You Because (unprocessed master edit) Recorded July 5, 1954 at Sun Studio, Memphis. Previously unreleased prior to A Boy From Tupelo
07. Thats All Right (45 rpm master) Recorded July 5, 1954 at Sun Studio, Memphis. Single SUN 209 July 1954
08. Blue Moon of Kentucky (45 rpm master) Recorded July 7, 1954 at Sun Studio, Memphis. Single SUN 209 July 1954
09. Blue Moon Likely Recorded between August 15 and 19, 1954 at Sun Studio, Memphis. Album LPM 1254 ELVIS PRESLEY March 23, 1956
10. Tomorrow Night Recorded between September 12-16, 1954 at Sun Studio, Memphis. 5 album set 07863-66050 THE KING OF ROCK AND ROLL June 23, 1992
11. Ill Never Let You Go (Little Darlin) Recorded between September 12-16, 1954 at Sun Studio, Memphis. Album LPM 1254 ELVIS PRESLEY March 23, 1956
12. I Dont Care if the Sun Dont Shine Recorded between September 12-16, 1954 at Sun Studio, Memphis. Single SUN 210 September 1954
13. Just Because Recorded between September 12-16, 1954 at Sun Studio, Memphis. Album LPM 1254 ELVIS PRESLEY March 23, 1956
14. Good Rockin Tonight Recorded between September 12-16, 1954 at Sun Studio, Memphis. Single SUN 210 September 1954
15. Milkcow Blues Boogie Recorded either mid-November or mid-December 1954 at Sun Studio, Memphis. Single SUN 215 January 1955
16. Youre a Heartbreaker Recorded either mid-November or mid-December 1954 at Sun Studio, Memphis. Single SUN 215 January 1955
17. Im Left, Youre Right, Shes Gone (slow version) Recorded between mid-November 1954 and mid-April 1955 at Sun Studio, Memphis. 6 album set CPM6 5172 A GOLDEN CELEBRATION October 1984
18. Baby Lets Play House Likely recorded between January 30 and February 4, 1955 at Sun Studio, Memphis. Single SUN 217 April 10, 1955
19. Im Left, Youre Right, Shes Gone Likely recorded mid-April 1955 at Sun Studio, Memphis. Single SUN 215 January 1955
20. I Forgot to Remember to Forget Recorded mid-July, 1955 at Sun Studio, Memphis. Single SUN 223 August 1955
21. Mystery Train Recorded mid-July, 1955 at Sun Studio, Memphis. Single SUN 223 August 1955
22. Tryin to Get To You Recorded mid-July, 1955 at Sun Studio, Memphis. Album LPM 1254 ELVIS PRESLEY March 23, 1956
23. When It Rains It Pours Recorded November 1-4, 1955 at Sun Studio, Memphis. Album CPL1 4848 ELVIS A LEGENDARY PERFORMER VOL. 4 November 1983
RCA MASTERS
24. Thats All Right (RCA single version) Recorded July 5, 1954 at Sun Studio, Memphis. Single 20/47 6380 December 20, 1954
25. Blue Moon of Kentucky (RCA single version) Recorded July 7, 1954 at Sun Studio, Memphis. Single 20/47 6380 December 20, 1954
26. I Love You Because (RCA LP version) Recorded July 5, 1954 at Sun Studio, Memphis. Album LPM 1254 ELVIS PRESLEY March 23, 1956
27. Tomorrow Night (RCA LP version) Recorded between September 12-16, 1954 at Sun Studio, Memphis. Album LSP/LPM 3450 ELVIS FOR EVERYONE July 19, 1965
eac
Exact Audio Copy V1.3 from 2. September 2016

EAC extraction logfile from 30. July 2017, 14:20

Elvis Presley / A Boy from Tupelo [DISC 1]

Used drive : ATAPI iHAS122 C Adapter: 1 ID: 0

Read mode : Secure
Utilize accurate stream : Yes
Defeat audio cache : Yes
Make use of C2 pointers : No

Read offset correction : 6
Overread into Lead-In and Lead-Out : No
Fill up missing offset samples with silence : Yes
Delete leading and trailing silent blocks : No
Null samples used in CRC calculations : Yes
Used interface : Native Win32 interface for Win NT & 2000

Used output format : Internal WAV Routines
Sample format : 44.100 Hz; 16 Bit; Stereo

TOC of the extracted CD

Track | Start | Length | Start sector | End sector
---------------------------------------------------------
1 | 0:00.00 | 2:33.20 | 0 | 11494
2 | 2:33.20 | 2:52.06 | 11495 | 24400
3 | 5:25.26 | 2:03.69 | 24401 | 33694
4 | 7:29.20 | 2:05.51 | 33695 | 43120
5 | 9:34.71 | 2:38.20 | 43121 | 54990
6 | 12:13.16 | 2:42.54 | 54991 | 67194
7 | 14:55.70 | 1:59.49 | 67195 | 76168
8 | 16:55.44 | 2:06.74 | 76169 | 85692
9 | 19:02.43 | 2:43.72 | 85693 | 97989
10 | 21:46.40 | 3:01.24 | 97990 | 111588
11 | 24:47.64 | 2:27.23 | 111589 | 122636
12 | 27:15.12 | 2:32.02 | 122637 | 134038
13 | 29:47.14 | 2:34.27 | 134039 | 145615
14 | 32:21.41 | 2:15.04 | 145616 | 155744
15 | 34:36.45 | 2:38.64 | 155745 | 167658
16 | 37:15.34 | 2:12.45 | 167659 | 177603
17 | 39:28.04 | 2:42.63 | 177604 | 189816
18 | 42:10.67 | 2:19.03 | 189817 | 200244
19 | 44:29.70 | 2:38.34 | 200245 | 212128
20 | 47:08.29 | 2:31.30 | 212129 | 223483
21 | 49:39.59 | 2:30.29 | 223484 | 234762
22 | 52:10.13 | 2:35.46 | 234763 | 246433
23 | 54:45.59 | 2:06.35 | 246434 | 255918
24 | 56:52.19 | 1:58.55 | 255919 | 264823
25 | 58:50.74 | 2:05.22 | 264824 | 274220
26 | 60:56.21 | 2:45.12 | 274221 | 286607
27 | 63:41.33 | 2:52.70 | 286608 | 299577

Range status and errors

Selected range

Filename C:UsersLondonDesktopElvis Presley - A Boy from Tupelo [DISC 1].wav

Peak level 98.8 %
Extraction speed 9.0 X
Range quality 100.0 %
Test CRC FBEF377A
Copy CRC FBEF377A
Copy OK

No errors occurred

AccurateRip summary

Track 1 not present in database
Track 2 not present in database
Track 3 not present in database
Track 4 not present in database
Track 5 not present in database
Track 6 not present in database
Track 7 not present in database
Track 8 not present in database
Track 9 not present in database
Track 10 not present in database
Track 11 not present in database
Track 12 not present in database
Track 13 not present in database
Track 14 not present in database
Track 15 not present in database
Track 16 not present in database
Track 17 not present in database
Track 18 not present in database
Track 19 not present in database
Track 20 not present in database
Track 21 not present in database
Track 22 not present in database
Track 23 not present in database
Track 24 not present in database
Track 25 not present in database
Track 26 not present in database
Track 27 not present in database

None of the tracks are present in the AccurateRip database

End of status report

---- CUETools DB Plugin V2.1.6

[CTDB TOCID: qJeCyAsWY9oNhI.tusS2eZ_RHGo-] found
Submit result: qJeCyAsWY9oNhI.tusS2eZ_RHGo- has been confirmed
Track | CTDB Status
1 | (4/4) Accurately ripped
2 | (4/4) Accurately ripped
3 | (4/4) Accurately ripped
4 | (4/4) Accurately ripped
5 | (4/4) Accurately ripped
6 | (4/4) Accurately ripped
7 | (4/4) Accurately ripped
8 | (4/4) Accurately ripped
9 | (4/4) Accurately ripped
10 | (4/4) Accurately ripped
11 | (4/4) Accurately ripped
12 | (4/4) Accurately ripped
13 | (4/4) Accurately ripped
14 | (4/4) Accurately ripped
15 | (4/4) Accurately ripped
16 | (4/4) Accurately ripped
17 | (4/4) Accurately ripped
18 | (4/4) Accurately ripped
19 | (4/4) Accurately ripped
20 | (4/4) Accurately ripped
21 | (4/4) Accurately ripped
22 | (4/4) Accurately ripped
23 | (4/4) Accurately ripped
24 | (4/4) Accurately ripped
25 | (4/4) Accurately ripped
26 | (4/4) Accurately ripped
27 | (4/4) Accurately ripped

==== Log checksum CC8C9D3790924B5A5EFBF32B2E1F964A8A3D26D79CE4B6014E9DD34947E5688D ====
CD 2 01
Elvis Presley - A Boy from Tupelo
Sun Studio Sessions

01. Harbor Lights (takes 1-2, 3/M) Possibly recorded July 5, 1954 at Sun Studio, Memphis Takes 1-2: Previously unreleased prior to A Boy From Tupelo Take 3: album CPL1349 A LEGENDARY PERFORMER VOL. 2 January 1976 02. Harbor Lights (take 4) Possibly recorded July 5, 1954 at Sun Studio, Memphis 4 CD set 0768-66115 ELVIS: TODAY, TOMORROW & FOREVER June 25, 2002
03. Harbor Lights (takes 5-8 ) Possibly recorded July 5, 1954 at Sun Studio, Memphis Previously unreleased prior to A Boy From Tupelo
04. I Love You Because (takes 1-2) Recorded July 5, 1954 at Sun Studio, Memphis. Take 1: album set 6414-1-R THE COMPLETE SUN SESSIONS June 30, 1987Take 2: album CPL1 0341 A LEGENDARY PERFORMER VOL.1 January 15, 1974
05. I Love You Because (take 3) Recorded July 5, 1954 at Sun Studio, Memphis. 2 album set 6414-1-R THE COMPLETE SUN SESSIONS June 30, 1987
06. I Love You Because (takes 4-5) Recorded July 5, 1954 at Sun Studio, Memphis. 2 album set 6414-1-R THE COMPLETE SUN SESSIONS June 30, 1987
07. Thats All Right (takes 1-3) Recorded July 5, 1954 at Sun Studio, Memphis. 6 album Set CPM6 5172 A GOLDEN CELEBRATION October 198408. Blue Moon of Kentucky (slow tempo outtake) Recorded July 7, 1954 at Sun Studio, Memphis. 6 album Set CPM6 5172 A GOLDEN CELEBRATION October 1984
09. Blue Moon (takes 1-4) Likely recorded between August 15 and 19, 1954 at Sun Studio, Memphis. Takes 1-3: Previously unreleased prior to A Boy From Tupelo Take 4: 5 album Set 07863-66050 THE KING OF ROCK AND ROLL June 23, 1992
10. Blue Moon (take 5) Likely recorded between August 15 and 19, 1954 at Sun Studio, Memphis. 4 CD set 07863-67469-2 PLATINUM A LIFE IN MUSIC July 15, 1997
11. Blue Moon (takes 6-8 ) Likely recorded between August 15 and 19, 1954 at Sun Studio, Memphis. 2 CD set 07863-67676 SUNRISE February 9, 1999
12. Blue Moon (take 9/M) Likely recorded between August 15 and 19, 1954 at Sun Studio, Memphis. Album LPM 1254 ELVIS PRESLEY March 23, 1956
13. Dialogue (fragment before Tomorrow Night) Previously unreleased prior to A Boy From Tupelo
14. Ill Never Let You Go (Little Darlin) (incomplete take) Recorded between September 12-16, 1954 at Sun Studio, Memphis. 6 album set CPM6 5172 A GOLDEN CELEBRATION October 1984
15. Good Rockin Tonight (fragment from vocal slapback tape) Recorded between September 12-16, 1954 at Sun Studio, Memphis. Previously unreleased prior to A Boy From Tupelo
16. I Dont Care if the Sun Dont Shine (takes 1-3/M) Recorded between September 12-16, 1954 at Sun Studio, Memphis. 6 album set CPM6 5172 A GOLDEN CELEBRATION October 1984
17. Im Left, Youre Right, Shes Gone (slow version, take 1) Recorded between mid-November 1954 and mid-April 1955 at Sun Studio, Memphis. 2 album set 6414-1-R THE COMPLETE SUN SESSIONS June 30, 1987
18. Im Left, Youre Right, Shes Gone (slow version, take 2) Recorded between mid-November 1954 and mid-April 1955 at Sun Studio, Memphis. 2 album set 6414-1-R THE COMPLETE SUN SESSIONS June 30, 1987
19. Im Left, Youre Right, Shes Gone (slow version, take 3) Recorded between mid-November 1954 and mid-April 1955 at Sun Studio, Memphis. 2 album set 6414-1-R THE COMPLETE SUN SESSIONS June 30, 1987
20. Im Left, Youre Right, Shes Gone (slow version, take 4-5) Recorded between mid-November 1954 and mid-April 1955 at Sun Studio, Memphis. Take 4: 2 album set 6414-1-R THE COMPLETE SUN SESSIONS June 30, 1987 Take 5: 6 album set CPM6 5172 A GOLDEN CELEBRATION October 1984
21. Im Left, Youre Right, Shes Gone (slow version, takes 6-7) Recorded between mid-November 1954 and mid-April 1955 at Sun Studio, Memphis. 2 album set 6414-1-R THE COMPLETE SUN SESSIONS June 30, 1987
22. How Do You Think I Feel (guitar slapback tape, rehearsals + take 1) Recorded between mid-November 1954 and mid-April 1955 at Sun Studio, Memphis. Previously unreleased prior to A Boy From Tupelo
23. When It Rains It Pours (vocal slapback tape, take 1) Recorded November 1-4, 1955 at Sun Studio, Memphis. Previously unreleased prior to A Boy From Tupelo
24. When It Rains It Pours (vocal slapback tape, take 2 rehearsal 1 takes 3-4) Recorded November 1-4, 1955 at Sun Studio, Memphis. Previously unreleased prior to A Boy From Tupelo
25. When It Rains It Pours (vocal slapback tape, take 5/M) Recorded November 1-4, 1955 at Sun Studio, Memphis. Album CPL1 4848 ELVIS A LEGENDARY PERFORMER VOL. 4 November 1983
26. When It Rains It Pours (vocal slapback tape, take 6-8 ) Recorded November 1-4, 1955 at Sun Studio, Memphis. Previously unreleased prior to A Boy From Tupelo
eac
Exact Audio Copy V1.3 from 2. September 2016

EAC extraction logfile from 30. July 2017, 14:55

Elvis Presley / A Boy from Tupelo [DISC 2]

Used drive : ATAPI iHAS122 C Adapter: 1 ID: 0

Read mode : Secure
Utilize accurate stream : Yes
Defeat audio cache : Yes
Make use of C2 pointers : No

Read offset correction : 6
Overread into Lead-In and Lead-Out : No
Fill up missing offset samples with silence : Yes
Delete leading and trailing silent blocks : No
Null samples used in CRC calculations : Yes
Used interface : Native Win32 interface for Win NT & 2000

Used output format : Internal WAV Routines
Sample format : 44.100 Hz; 16 Bit; Stereo

TOC of the extracted CD

Track | Start | Length | Start sector | End sector
---------------------------------------------------------
1 | 0:00.00 | 3:26.50 | 0 | 15499
2 | 3:26.50 | 2:37.47 | 15500 | 27321
3 | 6:04.22 | 4:13.52 | 27322 | 46348
4 | 10:17.74 | 3:51.63 | 46349 | 63736
5 | 14:09.62 | 3:36.21 | 63737 | 79957
6 | 17:46.08 | 4:08.10 | 79958 | 98567
7 | 21:54.18 | 2:17.49 | 98568 | 108891
8 | 24:11.67 | 1:08.21 | 108892 | 114012
9 | 25:20.13 | 3:36.26 | 114013 | 130238
10 | 28:56.39 | 3:24.56 | 130239 | 145594
11 | 32:21.20 | 3:53.26 | 145595 | 163095
12 | 36:14.46 | 2:44.34 | 163096 | 175429
13 | 38:59.05 | 0:10.38 | 175430 | 176217
14 | 39:09.43 | 0:49.15 | 176218 | 179907
15 | 39:58.58 | 0:09.54 | 179908 | 180636
16 | 40:08.37 | 3:47.31 | 180637 | 197692
17 | 43:55.68 | 2:59.60 | 197693 | 211177
18 | 46:55.53 | 2:50.61 | 211178 | 223988
19 | 49:46.39 | 2:51.26 | 223989 | 236839
20 | 52:37.65 | 2:49.71 | 236840 | 249585
21 | 55:27.61 | 4:15.56 | 249586 | 268766
22 | 59:43.42 | 4:30.21 | 268767 | 289037
23 | 64:13.63 | 1:36.46 | 289038 | 296283
24 | 65:50.34 | 4:26.11 | 296284 | 316244
25 | 70:16.45 | 2:02.15 | 316245 | 325409
26 | 72:18.60 | 3:20.04 | 325410 | 340413

Range status and errors

Selected range

Filename C:UsersLondonDesktopElvis Presley - A Boy from Tupelo [DISC 2].wav

Peak level 98.7 %
Extraction speed 9.7 X
Range quality 100.0 %
Test CRC 08EFAD27
Copy CRC 08EFAD27
Copy OK

No errors occurred

AccurateRip summary

Track 1 not present in database
Track 2 not present in database
Track 3 not present in database
Track 4 not present in database
Track 5 not present in database
Track 6 not present in database
Track 7 not present in database
Track 8 not present in database
Track 9 not present in database
Track 10 not present in database
Track 11 not present in database
Track 12 not present in database
Track 13 not present in database
Track 14 not present in database
Track 15 not present in database
Track 16 not present in database
Track 17 not present in database
Track 18 not present in database
Track 19 not present in database
Track 20 not present in database
Track 21 not present in database
Track 22 not present in database
Track 23 not present in database
Track 24 not present in database
Track 25 not present in database
Track 26 not present in database

None of the tracks are present in the AccurateRip database

End of status report

---- CUETools DB Plugin V2.1.6

[CTDB TOCID: SmrZ_DdJH8W8xBApy2KRkIpPQA4-] found
Submit result: SmrZ_DdJH8W8xBApy2KRkIpPQA4- has been confirmed
Track | CTDB Status
1 | (3/3) Accurately ripped
2 | (3/3) Accurately ripped
3 | (3/3) Accurately ripped
4 | (3/3) Accurately ripped
5 | (3/3) Accurately ripped
6 | (3/3) Accurately ripped
7 | (3/3) Accurately ripped
8 | (3/3) Accurately ripped
9 | (3/3) Accurately ripped
10 | (3/3) Accurately ripped
11 | (3/3) Accurately ripped
12 | (3/3) Accurately ripped
13 | (3/3) Accurately ripped
14 | (3/3) Accurately ripped
15 | (3/3) Accurately ripped
16 | (3/3) Accurately ripped
17 | (3/3) Accurately ripped
18 | (3/3) Accurately ripped
19 | (3/3) Accurately ripped
20 | (3/3) Accurately ripped
21 | (3/3) Accurately ripped
22 | (3/3) Accurately ripped
23 | (3/3) Accurately ripped
24 | (3/3) Accurately ripped
25 | (3/3) Accurately ripped
26 | (3/3) Accurately ripped

==== Log checksum 5457282B6A6ADE1CB2DF8374BE09B606832181A642AD8911C3D72647FDBE1C8C ====
CD 1 01
Elvis Presley - A Boy from Tupelo
Live And Radio Performances

01. Thats All Right Recorded at the Louisiana Hayride, Shreveport, Louisiana, October 16, 1954. Album PB 3602 ELVIS: THE HILLBILLY CAT July 1984
02. Blue Moon of Kentucky Recorded at the Louisiana Hayride, Shreveport, Louisiana, October 16, 1954. Album PB 3602 ELVIS: THE HILLBILLY CAT July 1984
03. Shake, Rattle and Roll Recorded at KDAV Radio, Lubbock, Texas, January 6, 1955 5 album set 07863-66050 THE KING OF ROCK AND ROLL June 23, 1992
04. Fool, Fool, Fool Recorded at KDAV Radio, Lubbock, Texas, January 6, 1955 5 album set 07863-66050 THE KING OF ROCK AND ROLL June 23, 1992
05. Hearts of Stone Likely recorded at the Louisiana Hayride, Shreveport, Louisiana, January 15, 1955. 2 CD set 07863-67676 SUNRISE February 9, 1999
06. Thats All Right Likely recorded at the Louisiana Hayride, Shreveport, Louisiana, January 15, 1955. Previously unreleased prior to A Boy From Tupelo
07. Tweedlee Dee Likely recorded at the Louisiana Hayride, Shreveport, Louisiana, January 15, 1955. 2 CD set 07863-67676 SUNRISE February 9, 1999
08. Shake, Rattle and Roll Recorded at WJOI Radio, Florence, Alabama January 19, 1955. Previously unreleased prior to A Boy From Tupelo
09. KSIJ Radio commercial with DJ Tom Perryman Recorded at KSIJ Radio, Gladewater, Texas, 1955. Previously unreleased prior to A Boy From Tupelo
10. Money Honey Likely recorded at the Louisiana Hayride, Shreveport, Louisiana, January 22, 1955 2 CD set 07863- 67676 SUNRISE February 9, 1999
11. Blue Moon of Kentucky Likely recorded at the Louisiana Hayride, Shreveport, Louisiana, January 22, 1955. Previously unreleased prior to A Boy From Tupelo
12. I Dont Care if the Sun Dont Shine Likely recorded at the Louisiana Hayride, Shreveport, Louisiana, January 22, 1955. 2 CD set 07863-67676 SUNRISE February 9, 1999
13. Thats All Right Likely recorded at the Louisiana Hayride, Shreveport, Louisiana, January 22, 1955. 2 CD set 07863-67676 SUNRISE February 9, 1999
14. Tweedlee Dee Likely recorded at the Louisiana Hayride, Shreveport, Louisiana, March 5, 1955 Previously unreleased prior to A Boy From Tupelo
15. Money Honey Likely recorded at the Louisiana Hayride, Shreveport, Louisiana, March 5, 1955 Previously unreleased prior to A Boy From Tupelo
16. Hearts of Stone Likely recorded at the Louisiana Hayride, Shreveport, Louisiana, March 5, 1955 Previously unreleased prior to A Boy From Tupelo
17. Shake, Rattle and Roll Likely recorded at the Louisiana Hayride, Shreveport, Louisiana, March 5, 1955 Previously unreleased prior to A Boy From Tupelo
18. Little Mama Likely recorded at the Louisiana Hayride, Shreveport, Louisiana, March 5, 1955 Previously unreleased prior to A Boy From Tupelo
19. Youre a Heartbreaker Likely recorded at the Louisiana Hayride, Shreveport, Louisiana, March 5, 1955 Previously unreleased prior to A Boy From Tupelo
20. Good Rockin Tonight Likely recorded at the Eagles Hall, Houston, Texas, March 19, 1955 Album PB 3602 ELVIS: THE HILLBILLY CAT July 1984
21. Baby Lets Play House Likely recorded at the Eagles Hall, Houston, Texas, March 19, 1955 Previously unreleased prior to A Boy From Tupelo
22. Blue Moon of Kentucky Likely recorded at the Eagles Hall, Houston, Texas, March 19, 1955 Previously unreleased prior to A Boy From Tupelo
23. I Got a Woman Album PB 3602 ELVIS: THE HILLBILLY CAT July 1984
24. Thats All Right Likely recorded at the Eagles Hall, Houston, Texas, March 19, 1955 Previously unreleased prior to A Boy From Tupelo
25. Tweedlee Dee Recorded at Gladewater High School, Gladewater, Texas, April 30, 1955 Album PB 3601 ELVIS-THE BEGINNING YEARS February 1984
26. Thats All Right Recorded at the Jimmie Rodgers Memorial Festival, Meridian, Mississippi, May 26, 1955 Previously unreleased prior to A Boy From Tupelo
27. Im Left, Youre Right, Shes Gone Recorded at the Louisiana Hayride, Shreveport, Louisiana, July 2, 1955 Previously unreleased prior to A Boy From Tupelo
28. Baby Lets Play House Recorded at the Louisiana Hayride, Shreveport, Louisiana, August 20, 1955 Album PB 3601 ELVIS-THE BEGINNING YEARS February 1984
29. Maybellene Recorded at the Louisiana Hayride, Shreveport, Louisiana, August 20, 1955. Album PB 3601 ELVIS-THE BEGINNING YEARS February 1984
30. Thats All Right Recorded at the Louisiana Hayride, Shreveport, Louisiana, August 20, 1955. Album PB 3601 ELVIS-THE BEGINNING YEARS February 1984
31. Interview with Bob Neal Recorded at WMPS Radio, Memphis Tennessee, between August 29-31, 1955.
32. I Forgot To Remember To Forget Recorded at the Louisiana Hayride, Shreveport, Louisiana, October 29, 1955 Previously unreleased prior to A Boy From Tupelo
eac
Exact Audio Copy V1.3 from 2. September 2016

EAC extraction logfile from 30. July 2017, 15:13

Elvis Presley / A Boy from Tupelo [DISC 3]

Used drive : ATAPI iHAS122 C Adapter: 1 ID: 0

Read mode : Secure
Utilize accurate stream : Yes
Defeat audio cache : Yes
Make use of C2 pointers : No

Read offset correction : 6
Overread into Lead-In and Lead-Out : No
Fill up missing offset samples with silence : Yes
Delete leading and trailing silent blocks : No
Null samples used in CRC calculations : Yes
Used interface : Native Win32 interface for Win NT & 2000

Used output format : Internal WAV Routines
Sample format : 44.100 Hz; 16 Bit; Stereo

TOC of the extracted CD

Track | Start | Length | Start sector | End sector
---------------------------------------------------------
1 | 0:00.00 | 2:52.21 | 0 | 12920
2 | 2:52.21 | 2:22.72 | 12921 | 23642
3 | 5:15.18 | 2:23.69 | 23643 | 34436
4 | 7:39.12 | 1:59.00 | 34437 | 43361
5 | 9:38.12 | 2:01.62 | 43362 | 52498
6 | 11:39.74 | 1:52.29 | 52499 | 60927
7 | 13:32.28 | 2:50.61 | 60928 | 73738
8 | 16:23.14 | 2:22.51 | 73739 | 84439
9 | 18:45.65 | 0:15.41 | 84440 | 85605
10 | 19:01.31 | 2:42.65 | 85606 | 97820
11 | 21:44.21 | 2:03.58 | 97821 | 107103
12 | 23:48.04 | 2:32.39 | 107104 | 118542
13 | 26:20.43 | 1:53.45 | 118543 | 127062
14 | 28:14.13 | 2:15.21 | 127063 | 137208
15 | 30:29.34 | 2:17.17 | 137209 | 147500
16 | 32:46.51 | 1:36.74 | 147501 | 154774
17 | 34:23.50 | 1:38.43 | 154775 | 162167
18 | 36:02.18 | 2:03.19 | 162168 | 171411
19 | 38:05.37 | 2:06.05 | 171412 | 180866
20 | 40:11.42 | 2:35.45 | 180867 | 192536
21 | 42:47.12 | 2:22.25 | 192537 | 203211
22 | 45:09.37 | 1:47.09 | 203212 | 211245
23 | 46:56.46 | 3:03.07 | 211246 | 224977
24 | 49:59.53 | 2:17.21 | 224978 | 235273
25 | 52:16.74 | 2:47.11 | 235274 | 247809
26 | 55:04.10 | 2:37.27 | 247810 | 259611
27 | 57:41.37 | 3:16.06 | 259612 | 274317
28 | 60:57.43 | 3:18.42 | 274318 | 289209
29 | 64:16.10 | 3:09.04 | 289210 | 303388
30 | 67:25.14 | 2:49.29 | 303389 | 316092
31 | 70:14.43 | 5:31.03 | 316093 | 340920
32 | 75:45.46 | 3:30.03 | 340921 | 356673

Range status and errors

Selected range

Filename C:UsersLondonDesktopElvis Presley - A Boy from Tupelo [DISC 3].wav

Peak level 97.6 %
Extraction speed 9.7 X
Range quality 100.0 %
Test CRC 0E2344C5
Copy CRC 0E2344C5
Copy OK

No errors occurred

AccurateRip summary

Track 1 not present in database
Track 2 not present in database
Track 3 not present in database
Track 4 not present in database
Track 5 not present in database
Track 6 not present in database
Track 7 not present in database
Track 8 not present in database
Track 9 not present in database
Track 10 not present in database
Track 11 not present in database
Track 12 not present in database
Track 13 not present in database
Track 14 not present in database
Track 15 not present in database
Track 16 not present in database
Track 17 not present in database
Track 18 not present in database
Track 19 not present in database
Track 20 not present in database
Track 21 not present in database
Track 22 not present in database
Track 23 not present in database
Track 24 not present in database
Track 25 not present in database
Track 26 not present in database
Track 27 not present in database
Track 28 not present in database
Track 29 not present in database
Track 30 not present in database
Track 31 not present in database
Track 32 not present in database

None of the tracks are present in the AccurateRip database

End of status report

---- CUETools DB Plugin V2.1.6

[CTDB TOCID: Zw74jpAGgFf6arVT1pmKoJC04e8-] found
Submit result: Zw74jpAGgFf6arVT1pmKoJC04e8- has been confirmed
Track | CTDB Status
1 | (3/3) Accurately ripped
2 | (3/3) Accurately ripped
3 | (3/3) Accurately ripped
4 | (3/3) Accurately ripped
5 | (3/3) Accurately ripped
6 | (3/3) Accurately ripped
7 | (3/3) Accurately ripped
8 | (3/3) Accurately ripped
9 | (3/3) Accurately ripped
10 | (3/3) Accurately ripped
11 | (3/3) Accurately ripped
12 | (3/3) Accurately ripped
13 | (3/3) Accurately ripped
14 | (3/3) Accurately ripped
15 | (3/3) Accurately ripped
16 | (3/3) Accurately ripped
17 | (3/3) Accurately ripped
18 | (3/3) Accurately ripped
19 | (3/3) Accurately ripped
20 | (3/3) Accurately ripped
21 | (3/3) Accurately ripped
22 | (3/3) Accurately ripped
23 | (3/3) Accurately ripped
24 | (3/3) Accurately ripped
25 | (3/3) Accurately ripped
26 | (3/3) Accurately ripped
27 | (3/3) Accurately ripped
28 | (3/3) Accurately ripped
29 | (3/3) Accurately ripped
30 | (3/3) Accurately ripped
31 | (3/3) Accurately ripped
32 | (3/3) Accurately ripped

==== Log checksum BA878A877FC1E7BFE5AF9D72C75CB68673DF9677EAD05735FAD2D2DBEB13D0E9 ====
/ Lossless / , , , .
 [740.1 MB]


23

2016

VA - The Many Faces Of Elvis: A Journey Through The Inner World Of Elvis Presley (3CD) [2015, Rock Roll, Country, Honky Tonk, Soul, Gospel, R B, FLAC]

: FLAC, (image + .cue), lossless
: 2015
: USA
: Rock & Roll, Country, Honky Tonk, Soul, Gospel, R&B
: 01:51:01
: CD 1 A Small Circle Of Friends 00 01. Bill Black's Combo - Work With Me, Anne 02. The Blue Moon Boys (Elvis, Scotty & Bill) - Maybellene 03. Scotty Moore - Have Guitar, Will Travel 04. The Jordanaires - Dig A Little Deeper 05. The Blue Moon Boys (Elvis, Scotty & Bill) - Blue Moon Of Kentucky 06. Bill Black's Combo - Smokie (Part 2) 07. The Million Dollar Quartet Feat. Elvis, Carl Perkins, Jerry Lee & Johnny Cash - Don't Be Cruel 0 ...

22

2013

Elvis Presley - Elvis At Stax (3CD) [2013, Rock'n'Roll, MP3]

: MP3, tracks, 320kbps
: 2013
:
: Rock'n'Roll
: 02:53:53
: CD1 (00 01. I Got a Feelin in My Body 02. Find Out What s Happening 03. Promised Land 04. For Ol Times Sake 05. I ve Got a Thing About You Baby 06. It s Midnight 07. If You Talk in Your Sleep 08. Loving Arms 09. You Asked Me To 10. Good Time Charlie s Got the Blues 11. Talk About the Good Times 12. There s a Honky Tonk Angel 13. She Wears My Ring 14. Three Corn Patches 15. I Got a Feelin in My Body 16. If You Don t Come Back 17. Promised Land CD2 (01 01. Mr. Songman 02. Your Love ...

20

2010

Elvis Presley - Elvis75 (3CD) [2010, Rock'n'Roll, MP3]

: MP3, tracks, 320kbps
: 2010
: USA
: Rock'n'Roll
: 03:20:38
: CD1 1. Heartbreak Hotel 2. Blue Suede Shoes 3. I Want You I Need You I Love You 4. Hound Dog 5. Blue Moon 6. Love Me Tender 7. Too Much 8. All Shook Up 9. (Let Me Be Your) Teddy Bear 10. Paralysed 11. Party 12. Got A Lot O' Livin' To Do 13. Lawdy Miss Clawdy 14. Trying To Get To You 15. Jailhouse Rock 16. Don' 17. Wear My Ring Around Your Neck 18. Hard Headed Woman 19. King Creole 20. One Night 21. A Fool Such As I 22. A Big Hunk O' Love 23. Stuck On You 24 ...

17

2011

Elvis Presley - The Original Elvis Presley Collection (Box-Set 50CD) Part One (CD1-25)[1956-1995, Rock Roll, APE]

: APE, (image + .cue), lossless
: 1956-1995
: USA
: Rock & Roll
: BMG Music Nederland BV
: 1996
: 14:28:54
: 1956 - Elvis Presley 00
: 01. Blue Suede Shoes 02:01 02. I'm Counting on You 02:24 03. I Got a Woman 02:26 04. One-Sided Love Affair 02:11 05. I Love You Because 02:44 06. Just Because 02:34 07. Tutti Frutti 01:59 08. Tryin' to Get to You 02:34 09. I'm Gonna Sit Right Down and Cry (Over You) 02:01 10. I'll Never Let You Go (Little Darlin') 02:24 11. Blue Moon 02:41 12. Money Honey 02:33 1956 - Elvis 00 ...

17

2011

Elvis Presley - The Original Elvis Presley Collection (Box-Set 50CD) Part Two (CD26-50)[1966-1996, Rock Roll, APE]

: APE, (image + .cue), lossless
: 1966-1996
: USA
: Rock & Roll
: BMG Music Nederland BV
: 1996
: 14:12:16
: 1996 - Elvis Double Features (Easy Come, Easy Go + Speedway) 00
: 01. Easy Come, Easy Go 02:20 02. The Love Machine 02:50 03. Yoga Is As Yoga Does 02:10 04. You Gotta Stop 02:18 05. Sing You Children 02:14 06. I'll Take Love 02:15 07. She's A Machine 01:38 08. The Love Machine (Alternate Take 11) 02:29 09. Sing You Children (Alternate Take 1) 02:29 10. She's A Machine (Alternate Take 13) 01:41 11. Suppose ...

11

2013

Elvis Presley - The Greatest (Remastered, 3CD) [2013, Rock'n'Roll, Pop, Rock, MP3]

: MP3, tracks, 320kbps
: 2013
:
: Rock'n'Roll, Pop, Rock
: 02:57:26
: CD 1 (00 01. Jailhouse Rock (02:28) 02. All Shook Up (01:58) 03. Blue Suede Shoes (02:01) 04. Hound Dog (02:17) 05. Heartbreak Hotel (02:10) 06. Don't Be Cruel (02:03) 07. Return To Sender (02:10) 08. The Girl Of My Best Friend (02:23) 09. Little Sister (02:32) 10. Love Me Tender (02:43) 11. Treat Me Nice (02:11) 12. (You're So Square) Baby I Don't Care (01:53) 13. Good Luck Charm (02:26) 14. I Got Stung (01:51) 15. Are You Lonesome Tonight (03:08) 16. (Marie's The Name ...

17

2012

Elvis Presley - The Real... Elvis. The Ultimate Elvis Presley Collection [2011, Rock, Rockabilly, MP3]

: MP3, tracks, 320kbps
: 2011
: USA
: Rock, Rockabilly
: 03:35:54
: CD1 01 - Jailhouse Rock 02 - All Shook Up 03 - Hound Dog 04 - Blue Suede Shoes 05 - A Big Hunk O' Love 06 - That's All Right 07 - Don't Be Cruel 08 - Tutti Frutti 09 - Long Tall Sally 10 - Shake, Rattle And Roll 11 - Got A Lot O' Livin' To Do 12 - Rip It Up 13 - I Got Stung 14 - Wear My Ring Around Your Neck 15 - Mean Woman Blues 16 - King Creole 17 - Too Much 18 - (You're So Square) Baby I Don't Care 19 - Hard Headed Woman 20 - Mystery Train 21 - I Don't Care If The Sun Don ...

24

2018

Elvis Presley - The Searcher (The Original Soundtrack) (3CD Deluxe Edition) [2018, Rock, Blues, Pop, Rock Roll, FLAC]

: FLAC, (image + .cue), lossless
: 2018
: USA
: Rock, Blues, Pop, Rock & Roll
: 03:27:37
: CD1 01 01. Trouble / Guitar Man (3:26) From the album Elvis (NBC TV Special) LPM-4088, released November 22, 1968 02. My Baby Left Me (2:12) Single 20/47-6540, released May 4, 1956, From the album For LP Fans Only LPM-1990, released January 23, 1959 03. Baby, What You Want Me To Do (3:03) From the 2 CD set Memories 07863 67612-2, released October 13, 1998 04. Old Shep (4:09) From the album ELVIS LPM-1382, released October 19, 1956 05. That's When Your H ...

22

2016

Elvis Presley - The Wonder Of You: Elvis Presley With The Royal Philharmonic Orchestra [2016, Rock Roll, Gospel , Rockabilly, MP3]

: MP3, tracks, 320kbps
: 2016
: USA
: Rock & Roll, Gospel, Rockabilly
: 00:51:15
: 01. A Big Hunk o' Love [02:21] 02. I've Got a Thing About You Baby [02:34] 03. Suspicious Minds [03:44] 04. Don't [03:09] 05. I Just Can't Help Believin' [04:33] 06. Just Pretend [04:05] 07. Love Letters [02:54] 08. Amazing Grace [03:45] 09. Starting Today [03:09] 10. Kentucky Rain [04:02] 11. Memories [03:14] 12. Let It Be Me [03:24] 13. Always on My Mind [03:37] 14. The Wonder of You [02:31] 15. Just Pretend [04:05]
. : http://www.elvisthemusic ...

02

2007

Elvis Presley - The Essential Elvis Presley (2007) [mp3, 166]

: usa
: 2007
: Rock & Roll
: 01:52:33
: MP3
: 166 kbps
: CD 1 01. That's All Right 1:57 02. Baby, Let's Play House 2:17 03. Mystery Train 2:29 04. Heartbreak Hotel 2:09 05. I Was The One 2:33 06. Blue Suede Shoes 2:00 07. Hound Dog 2:17 08. Don't Be Cruel 2:03 09. Love Me Tender 2:42 10. All Shook Up 1:59 11. (There'll Be) Peace In The Valley (For Me) 3:22 12. Jailhouse Rock 2:36 13. Trouble 2:18 14. Fever 3:33 15. It's Now Or Never 3:16 16. Reconsider Baby 3:44 17. Are You Lonesome Tonight 3:08 18. Little Sister 2:32 19. Follow ...

10

2007

Elvis Presley vs. JXL - A Little Less Conversation [mpeg audio, 192]

: USA
: 2:39
: MPEG Audio
: 192kbit
: A Little Less Conversation

30

2017

Elvis Presley - Elvis Singing Flaming Star And Others [24 bit 96 khz] [1968, Rock Roll, Rhythm Blues, Ballad, FLAC]

: FLAC, tracks, lossless
: 1968
: USA
: Rock & Roll, Rhythm & Blues, Ballad
: 00:20:46
: 01. Flaming Star (2:30) 02. Wonderful World (2:15) 03. Night Life (1:54) 04. All I Needed Was The Rain (1:50) 05. Too Much Monkey Business (2:33) 06. The Yellow Rose Of Texas / The Eyes Of Texas (2:58 ) 07. She's A Machine (1:40) 08. Do The Vega (2:25) 09. Tiger Man (Live) (2:40)
. : Logfoobar2000 1.3.9 / Dynamic Range Meter 1.1.1 log date: 2017-09-30 21:03:50 -------------------------------------------------------------------------------- ...

17

2013

Elvis Presley - The Nation's Favourite Elvis Songs [Deluxe Edition] [2013, Rock Roll, MP3]

: MP3, tracks, 320kbps
: 2013
:
: Rock & Roll
: 02:02:59
: CD1 (00 01. Suspicious Minds 02. Always On My Mind 03. Love Me Tender 04. In the Ghetto 05. Viva Las Vegas 06. Jailhouse Rock 07. Hound Dog 08. Blue Suede Shoes 09. All Shook Up 10. Are You Lonesome Tonight? 11. The Wonder Of You 12. It's Now Or Never 13. Don't Be Cruel 14. Heartbreak Hotel 15. If I Can Dream 16. An American Trilogy 17. King Creole 18. Return To Sender 19. A Little Less Conversation (JXL Remix) 20. Can't Help Falling In Love CD2 (01 01. (Let Me Be Your) Teddy Be ...

07

2017

Elvis Presley - Christmas with Elvis and The Royal Philharmonic Orchestra [24 bit 96 khz] [2017, Pop, Rock, Rock 'n' Roll, Christmas, FLAC]

: FLAC, tracks, lossless
: 2017
: USA
: Pop, Rock, Rock 'n' Roll, Christmas
: 00:36:13
: 01. Santa Claus Is Back In Town (02:29) 02. White Christmas (02:42) 03. Here Comes Santa Claus (Right Down Santa Claus Lane) (02:03) 04. Merry Christmas Baby (04:51) 05. Blue Christmas (02:10) 06. I'll Be Home for Christmas (03:18 ) 07. Winter Wonderland (02:21) 08. Santa Bring My Baby Back (To Me) (01:53) 09. Silver Bells (02:56) 10. Oh Little Town of Bethlehem (02:50) 11. O Come All Ye Faithful (03:04) 12. The First Noel (02:54) 13. Silent Night (02:41 ...

07

2007

Elvis Presley :BLUE HAWAII, Elvis is back, G.I. BLUES, How great thou art...

: USA
: Rock & Roll
: MP3
:
: BLUE HAWAII (46:39)
: 192 / 1. Blue Hawaii 2. Almost Always True 3. Aloha Oe 4. No More 5. Can't Help Falling In Love 6. Rock-A-Hula Baby 7. Moonlight Swim 8. Ku-U-I-Po 9. Ito Eats 10. Slicin' Sand 11. Hawaiian Sunset 12. Beach Boy Blues 13. Island Of Love 14. Hawaiian Wedding Song 15. Steppin' Out Of Line 16. Can't Help Falling In Love 17. Slicin' Sand (Alternate take 4) 18. No More (Alternate take 7) 19. Rock-A-Hula Baby (Alternate take 1) 20. Beach Boy Blues (Movie version) 21. Steppin' Out Of Line (Movie ver ...