12
фев
2017

Royal Philharmonic Roqueville Orchestras - Soft Rock Hits (3CD Box-Set) [2008, Symphonic Rock, Modern Classical, FLAC]

Royal Philharmonic Roqueville Orchestras - Soft Rock Hits (3CD Box-Set)
Формат: FLAC, (image + .cue), lossless
Год выпуска: 2008
Страна: UK
Жанр: Symphonic Rock, Modern Classical
Продолжительность: 02:33:52
Описание:
CD 1 The Royal Philharmonic Orchestra Performs Hits Of U2 00
Royal Philharmonic Roqueville Orchestras - Soft Rock Hits
01. Pride (In The Name Of Love)
02. Even Better Than The Real Thing
03. Desire
04. Sunday Bloody Sunday
05. I Still Haven't Found What I'm Looking For
06. One
07. Angel of Harlem
08. When Love Comes To Town
09. New Year's Day
10. Two Hearts Beat As One
11. Who's Gonna Ride Your Wild Horses
12. All I Want Is You

eac
Exact Audio Copy V1.0 beta 3 from 29. August 2011

EAC extraction logfile from 6. February 2017, 22:29

The Royal Philharmonic Orchestra / The Royal Philharmonic Performs: The Hits of U2

Used drive : PIONEER BD-RW BDR-TD03 Adapter: 0 ID: 1

Read mode : Secure
Utilize accurate stream : Yes
Defeat audio cache : Yes
Make use of C2 pointers : No

Read offset correction : 667
Overread into Lead-In and Lead-Out : No
Fill up missing offset samples with silence : Yes
Delete leading and trailing silent blocks : No
Null samples used in CRC calculations : Yes
Used interface : Native Win32 interface for Win NT & 2000

Used output format : User Defined Encoder
Selected bitrate : 768 kBit/s
Quality : High
Add ID3 tag : No
Command line compressor : C:Program Files (x86)Exact Audio CopyFLACFLAC.EXE
Additional command line options : -6 -V -T "ARTIST=%artist%" -T "TITLE=%title%" -T "ALBUM=%albumtitle%" -T "DATE=%year%" -T "TRACKNUMBER=%tracknr%" -T "GENRE=%genre%" -T "COMMENT=%comment%" -T "BAND=%albuminterpret%" -T "ALBUMARTIST=%albuminterpret%" -T "COMPOSER=%composer%" %haslyrics%--tag-from-file=LYRICS="%lyricsfile%"%haslyrics% -T "DISCNUMBER=%cdnumber%" -T "TOTALDISCS=%totalcds%" -T "TOTALTRACKS=%numtracks%" %hascover%--picture="%coverfile%"%hascover% %source% -o %dest%

TOC of the extracted CD

Track | Start | Length | Start sector | End sector
---------------------------------------------------------
1 | 0:00.00 | 4:50.63 | 0 | 21812
2 | 4:50.63 | 4:58.20 | 21813 | 44182
3 | 9:49.08 | 4:05.25 | 44183 | 62582
4 | 13:54.33 | 4:58.34 | 62583 | 84966
5 | 18:52.67 | 4:59.50 | 84967 | 107441
6 | 23:52.42 | 5:06.40 | 107442 | 130431
7 | 28:59.07 | 4:19.32 | 130432 | 149888
8 | 33:18.39 | 4:32.40 | 149889 | 170328
9 | 37:51.04 | 4:58.58 | 170329 | 192736
10 | 42:49.62 | 4:56.32 | 192737 | 214968
11 | 47:46.19 | 4:46.70 | 214969 | 236488
12 | 52:33.14 | 4:51.70 | 236489 | 258383

Range status and errors

Selected range

Filename C:UsersDerisDesktopkpnemo.euRoySofCD1The Royal Philharmonic Orchestra - The Royal Philharmonic Performs- The Hits of U2.wav

Peak level 97.4 %
Extraction speed 1.7 X
Range quality 100.0 %
Test CRC 7E9C924B
Copy CRC 7E9C924B
Copy OK

No errors occurred

AccurateRip summary

Track 1 cannot be verified as accurate (confidence 3) [5CA58D09], AccurateRip returned [51158C18] (AR v2)
Track 2 cannot be verified as accurate (confidence 3) [C0F2624E], AccurateRip returned [5C080CA6] (AR v2)
Track 3 cannot be verified as accurate (confidence 3) [88A183EC], AccurateRip returned [8252FCA8] (AR v2)
Track 4 cannot be verified as accurate (confidence 3) [81BB154E], AccurateRip returned [62729628] (AR v2)
Track 5 cannot be verified as accurate (confidence 3) [FEBC4C3D], AccurateRip returned [18BD076F] (AR v2)
Track 6 cannot be verified as accurate (confidence 3) [EF88C3A6], AccurateRip returned [D2C0FD1C] (AR v2)
Track 7 cannot be verified as accurate (confidence 3) [1C141058], AccurateRip returned [184B1858] (AR v2)
Track 8 cannot be verified as accurate (confidence 3) [6A26AEC2], AccurateRip returned [A4516079] (AR v2)
Track 9 cannot be verified as accurate (confidence 3) [6538DBDE], AccurateRip returned [D9EFC45D] (AR v2)
Track 10 cannot be verified as accurate (confidence 3) [0CCA1F57], AccurateRip returned [855F7B8A] (AR v2)
Track 11 cannot be verified as accurate (confidence 3) [51538F69], AccurateRip returned [695B508E] (AR v2)
Track 12 cannot be verified as accurate (confidence 3) [160CC91C], AccurateRip returned [95A7CB49] (AR v2)

No tracks could be verified as accurate
You may have a different pressing from the one(s) in the database

End of status report

---- CUETools DB Plugin V2.1.3

[CTDB TOCID: bFn1T2cv97bIlJRwK2M8B_IKOGk-] found, Submit result: bFn1T2cv97bIlJRwK2M8B_IKOGk- has been confirmed
[171a0aba] (2/2) Accurately ripped

==== Log checksum 5ADC4B5E78CB920679FCC91DB53BE13AA214CD5ABBAE103A8A7F67BFAB71A5DE ====
CD 2 The Royal Philharmonic Orchestra Performs Hits Of R.E.M. 00
Royal Philharmonic Roqueville Orchestras - Soft Rock Hits
01. The One I Love
02. Losing My Religion
03. Stand
04. Man On The Moon
05. Nightswimming
06. Everybody Hurts
07. Strange Circumstances
08. Near Wild Heaven
09. Drive
10. The Sidewinder Sleeps Tonight
11. What's The Frequency, Kenneth?
12. Shiny Happy People

eac
Exact Audio Copy V1.0 beta 3 from 29. August 2011

EAC extraction logfile from 6. February 2017, 23:42

The Royal Philharmonic Orchestra / The Royal Philharmonic Orchestra Performs: The Hits of R.E.M.

Used drive : PIONEER BD-RW BDR-TD03 Adapter: 0 ID: 1

Read mode : Secure
Utilize accurate stream : Yes
Defeat audio cache : Yes
Make use of C2 pointers : No

Read offset correction : 667
Overread into Lead-In and Lead-Out : No
Fill up missing offset samples with silence : Yes
Delete leading and trailing silent blocks : No
Null samples used in CRC calculations : Yes
Used interface : Native Win32 interface for Win NT & 2000

Used output format : User Defined Encoder
Selected bitrate : 768 kBit/s
Quality : High
Add ID3 tag : No
Command line compressor : C:Program Files (x86)Exact Audio CopyFLACFLAC.EXE
Additional command line options : -6 -V -T "ARTIST=%artist%" -T "TITLE=%title%" -T "ALBUM=%albumtitle%" -T "DATE=%year%" -T "TRACKNUMBER=%tracknr%" -T "GENRE=%genre%" -T "COMMENT=%comment%" -T "BAND=%albuminterpret%" -T "ALBUMARTIST=%albuminterpret%" -T "COMPOSER=%composer%" %haslyrics%--tag-from-file=LYRICS="%lyricsfile%"%haslyrics% -T "DISCNUMBER=%cdnumber%" -T "TOTALDISCS=%totalcds%" -T "TOTALTRACKS=%numtracks%" %hascover%--picture="%coverfile%"%hascover% %source% -o %dest%

TOC of the extracted CD

Track | Start | Length | Start sector | End sector
---------------------------------------------------------
1 | 0:00.00 | 4:36.15 | 0 | 20714
2 | 4:36.15 | 4:35.43 | 20715 | 41382
3 | 9:11.58 | 4:09.19 | 41383 | 60076
4 | 13:21.02 | 4:42.58 | 60077 | 81284
5 | 18:03.60 | 4:22.68 | 81285 | 101002
6 | 22:26.53 | 5:31.63 | 101003 | 125890
7 | 27:58.41 | 4:51.45 | 125891 | 147760
8 | 32:50.11 | 4:12.50 | 147761 | 166710
9 | 37:02.61 | 4:26.47 | 166711 | 186707
10 | 41:29.33 | 4:49.56 | 186708 | 208438
11 | 46:19.14 | 4:38.65 | 208439 | 229353
12 | 50:58.04 | 4:43.15 | 229354 | 250593

Range status and errors

Selected range

Filename C:UsersDerisDesktopkpnemo.euRoySofCD2The Royal Philharmonic Orchestra - The Royal Philharmonic Orchestra Performs- The Hits of R.E.M..wav

Peak level 97.4 %
Extraction speed 4.6 X
Range quality 99.9 %
Test CRC 3BF9E2D7
Copy CRC 3BF9E2D7
Copy OK

No errors occurred

AccurateRip summary

Track 1 cannot be verified as accurate (confidence 4) [68BE1DA3], AccurateRip returned [12824C8F] (AR v2)
Track 2 cannot be verified as accurate (confidence 4) [D9D01D33], AccurateRip returned [525C8EEE] (AR v2)
Track 3 cannot be verified as accurate (confidence 4) [02E123FF], AccurateRip returned [E1130102] (AR v2)
Track 4 cannot be verified as accurate (confidence 4) [49C4DB2E], AccurateRip returned [81262C43] (AR v2)
Track 5 cannot be verified as accurate (confidence 4) [FC6FE8D6], AccurateRip returned [FB480DB2] (AR v2)
Track 6 cannot be verified as accurate (confidence 4) [3E7DB029], AccurateRip returned [F2A08E38] (AR v2)
Track 7 cannot be verified as accurate (confidence 4) [695135AD], AccurateRip returned [CF9102DA] (AR v2)
Track 8 cannot be verified as accurate (confidence 4) [CAD42229], AccurateRip returned [4EF80D13] (AR v2)
Track 9 cannot be verified as accurate (confidence 4) [51C71EA9], AccurateRip returned [6346E5D0] (AR v2)
Track 10 cannot be verified as accurate (confidence 4) [D5A9B5B7], AccurateRip returned [74B8CA89] (AR v2)
Track 11 cannot be verified as accurate (confidence 4) [17A2D1EA], AccurateRip returned [5F91F563] (AR v2)
Track 12 cannot be verified as accurate (confidence 4) [1B8EB692], AccurateRip returned [7F42FC68] (AR v2)

No tracks could be verified as accurate
You may have a different pressing from the one(s) in the database

End of status report

---- CUETools DB Plugin V2.1.3

[CTDB TOCID: IyJX899998aRTF5zeM1T1N37wBY-] found, Submit result: IyJX899998aRTF5zeM1T1N37wBY- has been confirmed
[6ce84d99] (1/1) Accurately ripped

==== Log checksum 5AA841D138A4FDE8D2CEF6392015DD0562568051E6EAE40C7E70DAF54F3A5B0A ====
CD 3 The Roqueville Orchestra Performs Hits Of The Rolling Stones 00
Royal Philharmonic Roqueville Orchestras - Soft Rock Hits
01. Sympathy For The Devil
02. Satisfaction
03. Get Off My Cloud
04. Angie
05. Ruby Tuesday
06. Gimme Shelter
07. 19th Nervous Breakdown
08. Paint It Black
09. Jumping Jack Flash
10. Let's Spend The Night Together
11. Honky Tonk Woman
12. You Can't Always Get What You Want

eac
Exact Audio Copy V1.0 beta 3 from 29. August 2011

EAC extraction logfile from 7. February 2017, 12:47

The Roqueville Orchestra / The Roqueville Orchestra Performs: The Hits of The Rolling Stones

Used drive : PIONEER BD-RW BDR-TD03 Adapter: 0 ID: 1

Read mode : Secure
Utilize accurate stream : Yes
Defeat audio cache : Yes
Make use of C2 pointers : No

Read offset correction : 667
Overread into Lead-In and Lead-Out : No
Fill up missing offset samples with silence : Yes
Delete leading and trailing silent blocks : No
Null samples used in CRC calculations : Yes
Used interface : Native Win32 interface for Win NT & 2000

Used output format : User Defined Encoder
Selected bitrate : 768 kBit/s
Quality : High
Add ID3 tag : No
Command line compressor : C:Program Files (x86)Exact Audio CopyFLACFLAC.EXE
Additional command line options : -6 -V -T "ARTIST=%artist%" -T "TITLE=%title%" -T "ALBUM=%albumtitle%" -T "DATE=%year%" -T "TRACKNUMBER=%tracknr%" -T "GENRE=%genre%" -T "COMMENT=%comment%" -T "BAND=%albuminterpret%" -T "ALBUMARTIST=%albuminterpret%" -T "COMPOSER=%composer%" %haslyrics%--tag-from-file=LYRICS="%lyricsfile%"%haslyrics% -T "DISCNUMBER=%cdnumber%" -T "TOTALDISCS=%totalcds%" -T "TOTALTRACKS=%numtracks%" %hascover%--picture="%coverfile%"%hascover% %source% -o %dest%

TOC of the extracted CD

Track | Start | Length | Start sector | End sector
---------------------------------------------------------
1 | 0:00.00 | 4:37.43 | 0 | 20817
2 | 4:37.43 | 3:59.20 | 20818 | 38762
3 | 8:36.63 | 3:53.66 | 38763 | 56303
4 | 12:30.54 | 4:44.15 | 56304 | 77618
5 | 17:14.69 | 3:24.47 | 77619 | 92965
6 | 20:39.41 | 4:41.55 | 92966 | 114095
7 | 25:21.21 | 3:41.17 | 114096 | 130687
8 | 29:02.38 | 3:03.19 | 130688 | 144431
9 | 32:05.57 | 3:42.57 | 144432 | 161138
10 | 35:48.39 | 3:48.37 | 161139 | 178275
11 | 39:37.01 | 3:08.71 | 178276 | 192446
12 | 42:45.72 | 4:20.66 | 192447 | 212012

Range status and errors

Selected range

Filename C:UsersDerisDesktopkpnemo.euRoySofCD3The Roqueville Orchestra - The Roqueville Orchestra Performs- The Hits of The Rolling Stones.wav

Peak level 99.9 %
Extraction speed 4.5 X
Range quality 100.0 %
Test CRC 87EC6F85
Copy CRC 87EC6F85
Copy OK

No errors occurred

AccurateRip summary

Track 1 not present in database
Track 2 not present in database
Track 3 not present in database
Track 4 not present in database
Track 5 not present in database
Track 6 not present in database
Track 7 not present in database
Track 8 not present in database
Track 9 not present in database
Track 10 not present in database
Track 11 not present in database
Track 12 not present in database

None of the tracks are present in the AccurateRip database

End of status report

---- CUETools DB Plugin V2.1.3

[CTDB TOCID: xD.LAgGbqJDdRYW3.ZTNdeC_32Y-] found, Submit result: xD.LAgGbqJDdRYW3.ZTNdeC_32Y- has been confirmed
[bb8963e1] (1/1) Accurately ripped

==== Log checksum AC1800EA0309439A088F4F50137ED25058F0BB073412295D496018E4107662CC ====
Музыка / Lossless / Классическая и Instrumental
СКАЧАТЬ БЕСПЛАТНО  [1.2 GB]


21
апр
2012

VA - Greatest Ever! Prog Rock (Box-Set, 3CD) [2012, Progressive Rock, Neo-Progressive, MP3]

Формат: MP3, tracks, 320kbps
Год выпуска: 2012
Страна: UK
Жанр: Progressive Rock, Neo-Progressive
Продолжительность: 03:30:21
Описание: CD1 01 01. Yes - Roundabout (Single Version) 02. Caravan - In The Land Of Grey And Pink 03. Atomic Rooster - I Can't Take No More 04. Camel - Metrognome 05. Jefferson Airplane - White Rabbit 06. Argent - Hold Your Head Up 07. Blue Oyster Cult - Don t Fear The Reaper 08. Traffic - Every Mother's Son 09. Quintessence - Sea Of Immortality 10. Tangerine Dream - Dolphin Dance 11. Affinity - Three Sisters 12. Zzebra - Amuso Fi (Single Version) 13. Nazareth - This F ...

20
фев
2013

VA - 101 Hits Rock Legends (Box Set 4CD) [2009, Rock, Hard Rock, Blues Rock, MP3]

Формат: MP3, tracks, 320kbps
Год выпуска: 2009
Страна: USA
Жанр: Rock, Hard Rock, Blues Rock
Продолжительность: 05:02:06
Описание: CD1 01] 01. E.L.O - Evil Woman 02. Amen Corner - IfParadise Is Half As Nice 03. Chicago - Feelin' Stronger Everyday 04. The Troggs - Love Is All Around 05. The Yardbirrds - Shapes Of Things 06. Jimi Hendrix - LittleWing 07. Jonn Mayall s Bluesbreakers - I'm Your Witch Doctor 08. E.L.O Part2 - Sweet Talking Woman 09. SLY and The Family Stone - In The Still Of The Night 10. Lonnie Youngblo and Jimi Hendrix - Win Your Love 11. The Flaming Groovies - Love T ...

07
ноя
2010

The Royal Philharmonic Orchestra - Symphonic Rock (2004) [2004, Instrumental, MP3]

Формат: MP3, tracks, 320kbps
Год выпуска: 2004
Страна: All World
Жанр: Instrumental
Продолжительность: 02:05:25
Описание:
ТреклистDisc: 1 01. Come Away With Me (Norah Jones) 02. Yellow (Coldplay) 03. Here With Me (Dido) 04. Millennium (Robbie Williams) 05. Hero (Enrique Iglesias) 06. What Can I Do (The Corrs) 07. Flying Without Wings (Westlife) 08. Everybody Hurts (R.e.m.) 09. Every Breath You Take (The Police) 10. Let It Be (The Beatles) 11. A Whiter Shade Of Pale (Procol Harum) 12. Nights In White Satin (The Moody Blues) 13. Candle In The Wind (Elton John) 14. Imagine (John Lennon) Disc: 2 1 ...

14
июл
2013

Royal Philharmonic Orchestra. Rock Dreams - 2 [1994, Classical, Rock, MP3]

Формат: MP3, tracks, 320kbps
Год выпуска: 1994
Страна: Великобритания
Жанр: Classical, Rock
Продолжительность: 02:41:30
Описание: CD1 (0001. Hotel California 02. Suspicious Minds 03. Lady In Black 04. Sylvia's Mother 05. The Sound Of Silence 06. I Am ... I Said 07. Angie 08. Moonlight Shadow 09. El Condor Pasa 10. In The GhettoCD2 (0001. If You Leave Me Now 02. Woman In Love 03. Time After Time 04. Bright Eyes 05. La Isla Bonita 06. Wonderful Life 07. If You Don't Know Me By Now 08. I'm Not In Love 09. Words 10. When I Need You 11. Lost In France 12. Careless WhisperCD3 (0001. Every Breath You ...

01
апр
2015

Royal Philharmonic Orchestra - Plays Prog Rock Classics [2015, Symphonic, Progressive Rock, MP3]

Формат: MP3, tracks, 320kbps
Год выпуска: 2015
Страна: UK
Жанр: Symphonic, Progressive Rock
Продолжительность: 01:02:15
Описание: 01. ELP Suite: Tarkus / From the Beginning / Tarkus (Reprise) 02. Comfortably Numb 03. Thick as a Brick 04. 21st Century Schizoid Man 05. Focus 06. Nights in White Satin 07. Think of Me with Kindness 08. Roundabout 09. Watcher of the Skies 10. Red Barchetta

14
июн
2011

Jefferson Airplane - 2 Box Sets / 8 Albums Original (5CD + 3CD Box Set) [2008 - 2011, Psychedelic rock, FLAC]

Формат: FLAC, (image + .cue), lossless
Год выпуска: 2008 - 2011
Страна: USA
Жанр: Psychedelic rock, blues-rock
Продолжительность: 07:44:55
Описание:
Доп. информация: 2008 Original Album Classics (5CD Box Set) 1966 - Jefferson Airplane Takes Off 01 01. Blues From An Airplane 02. Let Me In 03. Bringing Me Down 04. It's No Secret 05. Tobacco Road 06. Come Up The Year 07. Run Around 08. Let's Get Together 09. Don't Slip Away 10. Chauffeur Blues 11. And I Like It Bonus Tracks 12. Runnin' Round This World 13. High Flying Bird 14. It's Alright 15. Go To Her (Early Version) 16. Let Me In (Original ...

15
окт
2011

The Royal Philharmonic Orchestra - Hits Of Pink Floyd [1995, Classical, MP3]

Формат: MP3, tracks, 320kbps
Год выпуска: 1995
Страна: All World
Жанр: Classical
Продолжительность: 00:50:09
Описание: 1 Shine On You Crazy Diamond 2 Money 3 Us & Them 4 Hey You 5 Another Brick In The Wall 6 Wish You Were Here 7 Time 8 The Great Gig In The Sky 9 In The Flesh

13
янв
2017

The Royal Philharmonic Orchestra Louis Clark - Plays Hits Of Phil Collins [1990, Pop-Rock, Classical, FLAC]

Формат: FLAC, (image + .cue), lossless
Год выпуска: 1990
Страна: USA
Жанр: Pop-Rock, Classical
Продолжительность: 44:32
Описание: 01. In The Air Tonight (5:06) 02. Groovy Kind Of Love (3:29) 03. Easy Lover (4:40) 04. Do You Remember (3:42) 05. I Wish It Would Rain Down (5:15) 06. Against All Odds (3:34) 07. Another Day In Paradise (5:27) 08. Two Hearts (3:37) 09. One More Night (4:06) 10. Take Me Home (5:36)
Доп. информация: Band Guitar – Mitch Dalton Harp – Skaila Kanga Leader – David Towse Piano – Simon Chamberlain Producer – Louis Clark Programmed By [Drums, Percussion] – Luis Rodriguez, ...

13
сен
2016

Alcatrazz - The Ultimate Fortress Rock Set (5CD Box Set) [2016, Hard Rock, FLAC]

Формат: FLAC, (image + .cue), lossless
Год выпуска: 2016
Страна: UK
Жанр: Hard Rock
Продолжительность: 05:51:15
Описание: 1983 No Parole From Rock'n'Roll 01 01. Island In The Sun 02. General Hospital 03. Jet To Jet 04. Hiroshima Mon Amour 05. Kree Nakoorie 06. Incubus 07. Too Young To Die, Too Drunk To Live 08. Big Foot 09. Starcarr Lane 10. Suffer Me Bonus Tracks 11. Kree Nakoorie 12. Starcarr Lane 13. Island In The Sun 14. Big Foot 15. Hiroshima Mon Amour 16. General Hospital 17. Incubus 18. Suffer Me 19. Too Young To Die, Too Drunk To Live 20. Jet To Jet eac Exact Audio Copy V1.0 beta 3 f ...

24
апр
2011

Manticore Rock Box / (6 Mini LP CD Box Set ) [2007, Hard Rock, Blues Rock, Classic Rock, FLAC]

Формат: FLAC, (image + .cue), lossless
Год выпуска: 2007
Страна: Japan
Жанр: Hard Rock, Blues Rock, Classic Rock
Продолжительность: 03:45:23
Описание: Stray Dog 1973 - Stray Dog 0 1. Tramp (How It Is) 2. Crazy 3. A Letter 4. Chevrolet 5. Speak Of The Devil 6. Slave 7. Rocky Mountain Suite (Bad Road) 1974 - While You're Down There 0 1. Calamity Jane 2. Bits & Pieces 3. Pieces 4. I Would 5. Words To Say Goodbye 6. Junkyard Angel 7. Very Well 8. Dreams & Junk 9. Worldwinds Hanson 1973 - Now Hear This 0 1. Traveling Like A Gypsy 2. Love Knows Everything 3. Mister Music Maker 4. Catch That B ...

17
авг
2012

VA - The Third Wavelength (Box Set, 3CD) [2012, IDM, Ambient, Industrial, Dubstep, Drumstep, MP3]

Формат: MP3, tracks, 320kbps
Год выпуска: 2012
Страна: USA
Жанр: IDM, Ambient, Industrial, Dubstep, Drumstep
Продолжительность: 05:34:48
Описание: CD1 Life 01 01. Human Error - Inevitable (04:58) 02. Paindonor - Crying Angel (03:59) 03. Known Rebel - Taikonaut (05:10) 04. A Damned Age - Traumfaenger (05:03) 05. Huron - Enclosed (05:27) 06. Impurfekt - I Don’t Want to Remember (05:01) 07. R.roo - Ne Nado, Ne Trogaite Menya (04:34) 08. Society Burning - Playing with Undead Things (02:16) 09. Cloud Roots - Nuit Noire (Remixed By Tineidae) (04:10) 10. Access to Arasaka - Axiom (04:05) 11. Blutspa ...

04
апр
2015

Boney M - Diamonds (3CD Box Set) [2015, EuroDisco, MP3]

Формат: MP3, tracks, 320kbps
Год выпуска: 2015
Страна: Germany
Жанр: EuroDisco
Продолжительность: 03:42:44
Описание: CD1 0101. Baby Do You Wanna Bump, Part 1 (7’’ Version) 03:41 02. Daddy Cool (7’’ Version / Album Version) 03:28 03. No Woman No Cry (Album Version) 04:59 04. Sunny (7’’ Version / Album Version) 04:02 05. Ma Baker (7’’ Version / 1st Pressing / Unreleased Version) 04:52 06. Belfast (7’’ Version / Album Version) 03:30 07. Rivers Of Babylon (7’’ Version / Italy / Unreleased Version) 04:07 08. Brown Girl In The Ring (with Extra Verse) (7’’ Version / 1st Pressing / Unreleased Versio ...

12
окт
2011

VA - Rockin' 80s 3CD Box Set [2004, Rock, Hard Rock, FLAC]

Формат: FLAC, (image + .cue), lossless
Год выпуска: 2004
Страна: All World
Жанр: Rock, Hard Rock
Продолжительность: 02:46:26
Описание: VA - Rockin' 80s (2004) 3CD Box Set / Треклист CD 1: ========================== 01. Cum On Feel The Noize - Quiet Riot [04:49] 02. You've Got Another Thing Coming - Judas Priest [05:03] 03. Down Boys - Warrant [04:03] 04. Fantasy - Aldo Nova [03:59] 05. Girlschool - Britny Fox [04:25] 06. So You Ran - Orion The Hunter [05:07] 07. Think I'm In Love - Eddie Money [03:09] 08. Gimme Your Good Lovin' - Diving For Pearls [04:16] 09. Never Say Never - Romeo Void [05 ...

10
июл
2015

VA - Ibiza - Decades [Box Set 3CD] [2015, Acid Jazz, Organ House, Grime, Hip House, Epic Trance, Synthpop, Futurepop, MP3]

Формат: MP3, tracks, 320kbps
Год выпуска: 2015
Страна: All World
Жанр: Acid Jazz, Organ House, Grime, Hip House, Epic Trance, Synthpop, Futurepop
Продолжительность: 03:30:01
Описание: CD1 0101. ATB - 9 PM (Till I Come) 02. Ultra Nate - Free 03. Livin' Joy - Dreamer 04. Nightcrawlers - Push The Feeling On 05. Wamdue Project - King Of My Castle 06. Madison Avenue - Don't Call Me Baby 07. Armand Van Helden, Duane Harden - You Don't Know Me 08. Gala - Freed From Desire 09. Shanks & Bigfoot - Sweet Like Chocolate 10. Phats & Small - Turn Around 11. Dario G - Sunchyme 12. Fatboy Slim - Right Here R ...

06
мар
2011

Procol Harum - All This And More (3CD + DVD Box Set) [2009, Progressive Rock, FLAC]

Формат: FLAC, (image + .cue), lossless
Год выпуска: 2009
Страна: U.K.
Жанр: Progressive Rock
Продолжительность: 03:43:22
Описание: DVD здесь Треклист CD -1 01. A Whiter Shade Of Pale 02. Lime Street Blues 03. Homburg 04. In The Wee Small Hours Of Sixpence 05. Cerdes (Outside The Gates Of) 06. Salad Days (Are Here Again) 07. Repent Walpurgis 08. Shine On Brightly 09. In Held 'Twas In I A: Glimpses Of Nirvana 10. In Held 'Twas In I B: Twas Teatime At The Circus 11. In Held 'Twas In I C: Twas The Autumn Of My Madness 12. In Held 'Twas In I D: Look To Your Soul 13. In Held 'Twas In I E: Grande F ...