24
апр
2011

Manticore Rock Box / (6 Mini LP CD Box Set ) [2007, Hard Rock, Blues Rock, Classic Rock, FLAC]

Manticore Rock Box / (6 Mini LP CD Box Set)

Формат: FLAC, (image + .cue), lossless
Год выпуска: 2007
Страна: Japan
Жанр: Hard Rock, Blues Rock, Classic Rock
Продолжительность: 03:45:23
Описание:
Stray Dog

1973 - Stray Dog 0
Manticore Rock Box /
1. Tramp (How It Is)
2. Crazy
3. A Letter
4. Chevrolet
5. Speak Of The Devil
6. Slave
7. Rocky Mountain Suite (Bad Road)


1974 - While You're Down There 0
Manticore Rock Box /
1. Calamity Jane
2. Bits & Pieces
3. Pieces
4. I Would
5. Words To Say Goodbye
6. Junkyard Angel
7. Very Well
8. Dreams & Junk
9. Worldwinds



Hanson

1973 - Now Hear This 0
Manticore Rock Box /
1. Traveling Like A Gypsy
2. Love Knows Everything
3. Mister Music Maker
4. Catch That Beat
5. Take You Into My Home
6. Gospel Truth
7. Rain
8. Smokin' To The Big 'M'

1974 - Magic Dragon 0
Manticore Rock Box /
1. Rocking Horseman
2. Modern Day Religion
3. Down Into The Magic
4. Rock Me Baby
5. Love Yer, Need You
6. Boy Meets Girl
7. American Beauty Rose
8. Looking At Tin Soldiers
9. Magic Dragon


Thee Image

1975 - Thee Image 0
Manticore Rock Box /
1. Good Things
2. For Another Day
3. Drift Off Endlessly
4. Love Is Here
5. So Hard To Say
6. It Happens All The Time
7. Come To You
8. Temptation
9. Show Your Love

1975 - Inside The Triangle 0
Manticore Rock Box /
1. Fly Away
2. Far Away Places
3. High Time Feeling
4. I.O.U.'S
5. All Night Long
6. Good To You
7. Alone With You
8. Rapture Of The Deep
9. Nobody Wins Till The Game Is Over

Доп. информация:

Log EAC
1973 - Stray Dog
Exact Audio Copy V1.0 beta 1 from 15. November 2010

EAC extraction logfile from 20. April 2011, 22:49

Stray Dog / Stray Dog

Used drive : HL-DT-STDVDRAM GSA-H60N Adapter: 2 ID: 0

Read mode : Secure
Utilize accurate stream : Yes
Defeat audio cache : Yes
Make use of C2 pointers : No

Read offset correction : 667
Overread into Lead-In and Lead-Out : No
Fill up missing offset samples with silence : Yes
Delete leading and trailing silent blocks : No
Null samples used in CRC calculations : Yes
Used interface : Native Win32 interface for Win NT & 2000

Used output format : Internal WAV Routines
Sample format : 44.100 Hz; 16 Bit; Stereo

TOC of the extracted CD

Track | Start | Length | Start sector | End sector
---------------------------------------------------------
1 | 0:00.00 | 6:53.20 | 0 | 30994
2 | 6:53.20 | 5:13.69 | 30995 | 54538
3 | 12:07.14 | 3:56.73 | 54539 | 72311
4 | 16:04.12 | 3:54.37 | 72312 | 89898
5 | 19:58.49 | 3:56.01 | 89899 | 107599
6 | 23:54.50 | 6:16.14 | 107600 | 135813
7 | 30:10.64 | 8:29.69 | 135814 | 174057

Range status and errors

Selected range

Filename C:Documents and SettingsАдминистраторРабочий столLossless Galaxy Rip by ALLexxess2007 V.A. - Manticore Rock Box (6 Mini LP CD Box Set Victor Records Japan)Stray Dog1973 Stray DogStray Dog - Stray Dog.wav

Peak level 97.9 %
Extraction speed 1.2 X
Range quality 100.0 %
Test CRC 1DC0276D
Copy CRC 1DC0276D
Copy OK

No errors occurred

AccurateRip summary

Track 1 not present in database
Track 2 not present in database
Track 3 not present in database
Track 4 not present in database
Track 5 not present in database
Track 6 not present in database
Track 7 not present in database

None of the tracks are present in the AccurateRip database

End of status report

==== Log checksum D598BFB70778E3E863B65EF779B808A1D22762B4C68E59A37317E086526D976D ====

1974 - While You're Down
Exact Audio Copy V1.0 beta 1 from 15. November 2010

EAC extraction logfile from 20. April 2011, 23:29

Stray Dog / While You're Down There

Used drive : HL-DT-STDVDRAM GSA-H60N Adapter: 2 ID: 0

Read mode : Secure
Utilize accurate stream : Yes
Defeat audio cache : Yes
Make use of C2 pointers : No

Read offset correction : 667
Overread into Lead-In and Lead-Out : No
Fill up missing offset samples with silence : Yes
Delete leading and trailing silent blocks : No
Null samples used in CRC calculations : Yes
Used interface : Native Win32 interface for Win NT & 2000

Used output format : Internal WAV Routines
Sample format : 44.100 Hz; 16 Bit; Stereo

TOC of the extracted CD

Track | Start | Length | Start sector | End sector
---------------------------------------------------------
1 | 0:00.00 | 4:23.62 | 0 | 19786
2 | 4:23.62 | 2:49.20 | 19787 | 32481
3 | 7:13.07 | 2:11.55 | 32482 | 42361
4 | 9:24.62 | 3:52.47 | 42362 | 59808
5 | 13:17.34 | 4:22.61 | 59809 | 79519
6 | 17:40.20 | 2:42.39 | 79520 | 91708
7 | 20:22.59 | 4:05.11 | 91709 | 110094
8 | 24:27.70 | 4:17.58 | 110095 | 129427
9 | 28:45.53 | 7:15.72 | 129428 | 162124

Range status and errors

Selected range

Filename C:Documents and SettingsАдминистраторРабочий столLossless Galaxy Rip by ALLexxess2007 V.A. - Manticore Rock Box (6 Mini LP CD Box Set Victor Records Japan)Stray Dog1974 While You're Down ThereStray Dog - While You're Down There.wav

Peak level 98.8 %
Extraction speed 1.1 X
Range quality 100.0 %
Test CRC 45F34053
Copy CRC 45F34053
Copy OK

No errors occurred

AccurateRip summary

Track 1 not present in database
Track 2 not present in database
Track 3 not present in database
Track 4 not present in database
Track 5 not present in database
Track 6 not present in database
Track 7 not present in database
Track 8 not present in database
Track 9 not present in database

None of the tracks are present in the AccurateRip database

End of status report

==== Log checksum 034E0E0A34FC2BD58D57F01E0F9561D787FBA260272E54A0138C154EB882EA46 ====

1973 - Now Hear This
Exact Audio Copy V1.0 beta 1 from 15. November 2010

EAC extraction logfile from 21. April 2011, 17:49

Hanson / Now Hear This

Used drive : HL-DT-STDVDRAM GSA-H60N Adapter: 2 ID: 0

Read mode : Secure
Utilize accurate stream : Yes
Defeat audio cache : Yes
Make use of C2 pointers : No

Read offset correction : 667
Overread into Lead-In and Lead-Out : No
Fill up missing offset samples with silence : Yes
Delete leading and trailing silent blocks : No
Null samples used in CRC calculations : Yes
Used interface : Native Win32 interface for Win NT & 2000

Used output format : Internal WAV Routines
Sample format : 44.100 Hz; 16 Bit; Stereo

TOC of the extracted CD

Track | Start | Length | Start sector | End sector
---------------------------------------------------------
1 | 0:00.00 | 6:18.06 | 0 | 28355
2 | 6:18.06 | 3:11.32 | 28356 | 42712
3 | 9:29.38 | 4:24.08 | 42713 | 62520
4 | 13:53.46 | 3:50.00 | 62521 | 79770
5 | 17:43.46 | 3:15.06 | 79771 | 94401
6 | 20:58.52 | 5:05.05 | 94402 | 117281
7 | 26:03.57 | 5:13.66 | 117282 | 140822
8 | 31:17.48 | 9:51.42 | 140823 | 185189

Range status and errors

Selected range

Filename C:Documents and SettingsАдминистраторРабочий столLossless Galaxy Rip by ALLexxess2007 V.A. - Manticore Rock Box (6 Mini LP CD Box Set Victor Records Japan)Hanson1973 Now Hear ThisHanson - Now Hear This.wav

Peak level 97.2 %
Extraction speed 1.3 X
Range quality 100.0 %
Test CRC 3408F755
Copy CRC 3408F755
Copy OK

No errors occurred

AccurateRip summary

Track 1 not present in database
Track 2 not present in database
Track 3 not present in database
Track 4 not present in database
Track 5 not present in database
Track 6 not present in database
Track 7 not present in database
Track 8 not present in database

None of the tracks are present in the AccurateRip database

End of status report

==== Log checksum AE388925F0B4CB98833D13E94B7D48E469B60F354B247F3C52BF23943F38E7C5 ====

1974 - Magic Dragon
Exact Audio Copy V1.0 beta 1 from 15. November 2010

EAC extraction logfile from 21. April 2011, 20:10

Hanson / Magic Dragon

Used drive : HL-DT-STDVDRAM GSA-H60N Adapter: 2 ID: 0

Read mode : Secure
Utilize accurate stream : Yes
Defeat audio cache : Yes
Make use of C2 pointers : No

Read offset correction : 667
Overread into Lead-In and Lead-Out : No
Fill up missing offset samples with silence : Yes
Delete leading and trailing silent blocks : No
Null samples used in CRC calculations : Yes
Used interface : Native Win32 interface for Win NT & 2000

Used output format : Internal WAV Routines
Sample format : 44.100 Hz; 16 Bit; Stereo

TOC of the extracted CD

Track | Start | Length | Start sector | End sector
---------------------------------------------------------
1 | 0:00.00 | 3:36.15 | 0 | 16214
2 | 3:36.15 | 3:12.04 | 16215 | 30618
3 | 6:48.19 | 5:29.32 | 30619 | 55325
4 | 12:17.51 | 3:58.32 | 55326 | 73207
5 | 16:16.08 | 4:59.38 | 73208 | 95670
6 | 21:15.46 | 3:07.10 | 95671 | 109705
7 | 24:22.56 | 3:07.36 | 109706 | 123766
8 | 27:30.17 | 3:45.53 | 123767 | 140694
9 | 31:15.70 | 3:00.41 | 140695 | 154235

Range status and errors

Selected range

Filename C:Documents and SettingsАдминистраторРабочий столLossless Galaxy Rip by ALLexxess2007 V.A. - Manticore Rock Box (6 Mini LP CD Box Set Victor Records Japan)Hanson1974 Magic DragonHanson - Magic Dragon.wav

Peak level 99.2 %
Extraction speed 0.4 X
Range quality 99.9 %
Test CRC 14A1E6F9
Copy CRC 14A1E6F9
Copy OK

No errors occurred

AccurateRip summary

Track 1 not present in database
Track 2 not present in database
Track 3 not present in database
Track 4 not present in database
Track 5 not present in database
Track 6 not present in database
Track 7 not present in database
Track 8 not present in database
Track 9 not present in database

None of the tracks are present in the AccurateRip database

End of status report

==== Log checksum 78379E335599FF94044EBFA79B49730B2B14C0ADAD77D9354F2271DCA2BD6497 ====

1975 - Thee Image
Exact Audio Copy V1.0 beta 1 from 15. November 2010

EAC extraction logfile from 21. April 2011, 20:54

Thee Image / Thee Image

Used drive : HL-DT-STDVDRAM GSA-H60N Adapter: 2 ID: 0

Read mode : Secure
Utilize accurate stream : Yes
Defeat audio cache : Yes
Make use of C2 pointers : No

Read offset correction : 667
Overread into Lead-In and Lead-Out : No
Fill up missing offset samples with silence : Yes
Delete leading and trailing silent blocks : No
Null samples used in CRC calculations : Yes
Used interface : Native Win32 interface for Win NT & 2000

Used output format : Internal WAV Routines
Sample format : 44.100 Hz; 16 Bit; Stereo

TOC of the extracted CD

Track | Start | Length | Start sector | End sector
---------------------------------------------------------
1 | 0:00.00 | 2:57.40 | 0 | 13314
2 | 2:57.40 | 4:10.55 | 13315 | 32119
3 | 7:08.20 | 4:24.58 | 32120 | 51977
4 | 11:33.03 | 4:07.19 | 51978 | 70521
5 | 15:40.22 | 3:50.12 | 70522 | 87783
6 | 19:30.34 | 3:08.55 | 87784 | 101938
7 | 22:39.14 | 3:03.23 | 101939 | 115686
8 | 25:42.37 | 5:13.49 | 115687 | 139210
9 | 30:56.11 | 6:41.21 | 139211 | 169306

Range status and errors

Selected range

Filename C:Documents and SettingsАдминистраторРабочий столLossless Galaxy Rip by ALLexxess2007 V.A. - Manticore Rock Box (6 Mini LP CD Box Set Victor Records Japan)Thee Image1975 Thee ImageThee Image - Thee Image.wav

Peak level 98.8 %
Extraction speed 1.0 X
Range quality 100.0 %
Test CRC 2B39C227
Copy CRC 2B39C227
Copy OK

No errors occurred

AccurateRip summary

Track 1 not present in database
Track 2 not present in database
Track 3 not present in database
Track 4 not present in database
Track 5 not present in database
Track 6 not present in database
Track 7 not present in database
Track 8 not present in database
Track 9 not present in database

None of the tracks are present in the AccurateRip database

End of status report

==== Log checksum F35E334094AB55AC144CE14B3651C54DB663D9A6EFF34D393EBF4312BECD8FA0 ====

1975 - Inside The Triangle
Exact Audio Copy V1.0 beta 1 from 15. November 2010

EAC extraction logfile from 21. April 2011, 21:45

Thee Image / Inside The Triangle

Used drive : HL-DT-STDVDRAM GSA-H60N Adapter: 2 ID: 0

Read mode : Secure
Utilize accurate stream : Yes
Defeat audio cache : Yes
Make use of C2 pointers : No

Read offset correction : 667
Overread into Lead-In and Lead-Out : No
Fill up missing offset samples with silence : Yes
Delete leading and trailing silent blocks : No
Null samples used in CRC calculations : Yes
Used interface : Native Win32 interface for Win NT & 2000

Used output format : Internal WAV Routines
Sample format : 44.100 Hz; 16 Bit; Stereo

TOC of the extracted CD

Track | Start | Length | Start sector | End sector
---------------------------------------------------------
1 | 0:00.00 | 6:42.17 | 0 | 30166
2 | 6:42.17 | 3:03.07 | 30167 | 43898
3 | 9:45.24 | 3:38.42 | 43899 | 60290
4 | 13:23.66 | 2:34.62 | 60291 | 71902
5 | 15:58.53 | 4:20.16 | 71903 | 91418
6 | 20:18.69 | 6:09.51 | 91419 | 119144
7 | 26:28.45 | 5:07.35 | 119145 | 142204
8 | 31:36.05 | 1:45.10 | 142205 | 150089
9 | 33:21.15 | 4:16.40 | 150090 | 169329

Range status and errors

Selected range

Filename C:Documents and SettingsАдминистраторРабочий столLossless Galaxy Rip by ALLexxess2007 V.A. - Manticore Rock Box (6 Mini LP CD Box Set Victor Records Japan)Thee Image1975 Inside The TriangleThee Image - Inside The Triangle.wav

Peak level 98.8 %
Extraction speed 0.6 X
Range quality 99.9 %
Test CRC BC8F04A8
Copy CRC BC8F04A8
Copy OK

No errors occurred

AccurateRip summary

Track 1 not present in database
Track 2 not present in database
Track 3 not present in database
Track 4 not present in database
Track 5 not present in database
Track 6 not present in database
Track 7 not present in database
Track 8 not present in database
Track 9 not present in database

None of the tracks are present in the AccurateRip database

End of status report

==== Log checksum 8058CCB22C39DA99E804D4F27E61F7FA5DD05CECDB894573D4EDDF48F4B5E909 ====
Музыка / Lossless / Разное
СКАЧАТЬ БЕСПЛАТНО  [2.2 GB]


08
мар
2012

Free - Disk Union Promo Box (Japanese Mini-Lp Box-Set 7CD) [2002, Blues-Rock, Hard Rock, Rhythm and Blues, FLAC]

Формат: FLAC, (tracks + .cue), lossless
Год выпуска: 2002
Страна: UK
Жанр: Blues-Rock, Hard Rock, Rhythm and Blues
Продолжительность: 07:49:06
Описание: 1968 - Tons of Sobs (01
Трeклист: 01. Over the Green Hills (Pt. 1) 00:50 02. Worry 03:27 03. Walk in My Shadow 03:30 04. Wild Indian Woman 03:40 05. Goin' Down Slow 08:22 06. I'm a Mover 02:56 07. Hunter 04:14 08. Moonshine 05:05 09. Sweet Tooth 04:54 10. Over the Green Hills (Pt. 2) 02:07 Additional Recordings: 11. I'm a Mover (BBC Session) 03:05 12. Waitin' on You (BBC Session) 02:17 13. Guy Stevens Blues (Blues Jam) 04:43 14. Moonshine ( ...

15
мар
2015

Arabesque - Complete Box (10 Mini LP CD + DVD) [2015, Disco, Flac]

Формат: Flac, (image+ .cue), lossless
Год выпуска: 1978-1984
Страна: Germany
Жанр: Disco
Продолжительность: 06:07:26
Описание: 1978 - Friday Night (Arabesque) (00
Трeклист: 01. Hello Mr. Monkey 03:28 02. Fly High Little Butterfly 03:26 03. Someone Is Waiting For You 04:03 04. The Man With The Gun 02:58 05. Six Times A Day 03:10 06. Buggy Boy 02:56 07. Friday Night 04:15 08. Catch Me Tiger 04:54 09. Give It Up 03:57 10. Love Is Just A Game 04:25Log EACExact Audio Copy V1.0 beta 4 from 7. December 2014 EAC extraction logfile from 7. March 2015, 19:35 Arabesque / Friday Night Used drive : P ...

20
ноя
2016

Rammstein - XXI (The Vinyl Box Set - 14 LP Box, Remastered) [2015, Industrial Metal, MP3]

Формат: MP3, tracks, 320kbps
Год выпуска: 2015
Страна: Germany
Жанр: Industrial Metal
Продолжительность: 05:51:34
Описание: Herzeleid - 1995 (0001. Wollt ihr das Bett in Flammen Sehen 02. Der Meister 03. Weisses Fleisch 04. Asche zu Asche 05. Seemann 06. Du Riechst So Gut 07. Das Alte Leid 08. Heirate Mich 09. Herzeleid 10. Laichzeit 11. RammsteinSehnsucht - 1997 (0001. Sehnsucht 02. Engel 03. Tier 04. Bestrafe Mich 05. Du Hast 06. Buck Dich 07. Spiel Mit Mir 08. Klavier 09. Alter Mann 10. Eifersucht 11. Kuss Mich[Fellfrosch]Mutter - 2001 (0001. Mein Herz Brennt 02. Links ...

28
апр
2012

Pulsar / Pulsar - Promo Box (3 Mini LP SHM-CD Japan) [2012, Progressive Rock, Psychedelic Rock, FLAC]

Формат: FLAC, (image + .cue), lossless
Год выпуска: 2012
Страна: Lyon, France
Жанр: Progressive Rock, Psychedelic Rock
Продолжительность: 02:02:24
Описание: 1975 Pollen 0 1. Pulsar 2. Apaisement 3. Puzzle / Omen 4. Le Cheval De Syllogie 5. Pollen EACExact Audio Copy V1.0 beta 3 from 29. August 2011 EAC extraction logfile from 24. April 2012, 22:00 Pulsar / Pollen Used drive : HL-DT-STDVDRAM GSA-H60N Adapter: 2 ID: 0 Read mode : Secure Utilize accurate stream : Yes Defeat audio cache : Yes Make use of C2 pointers : No Read offset correction : 667 Overread into Lead-In and Lead-Out : No Fil ...

28
дек
2011

Whitesnake - Box 'O' Snakes: The Sunburst Years 1978-1982 (9 Audio CD Box Set ) [2011, Rock, Hard Rock, Blues Rock, Classic Rock, FLAC]

Описание: 1978 - Trouble (00
Трeклист: 01. Take Me With You 04:46 02. Love To Keep You Warm 03:44 03. Lie Down (A Modern Love Song) 03:14 04. Day Tripper 03:47 05. Nighthawk (Vampire Blues) 03:37 06. The Time Is Right For Love 03:26 07. Trouble 04:48 08. Belgian Tom's Hat Trick 03:26 09. Free Flight 04:06 10. Don't Mess With Me 03:19Log EACExact Audio Copy V1.0 beta 3 from 29. August 2011 EAC extraction logfile from 19. December 2011, 22:21 Whitesnake / Trouble Used drive : HL-DT-STDVDRAM GSA-H60N Adapter: 2 ID: 0 Read mode : Secure Utilize accurate stream : Yes Defeat audio cache : Yes ...

06
мар
2012

Pink Floyd The Wall (Immersion 6 CD Box Set) [2012, Rock, FLAC]

Формат: FLAC, (tracks + .cue), lossless
Год выпуска: 2012
Страна: UK
Жанр: Rock
Продолжительность: 05:15:22
Описание: CD 1 The Wall Vol I (Digitally Remastered by James Guthrie, 2011) 01. In The Flesh? 02. The Thin Ice 03. Another Brick In The Wall, Part 1 04. The Happiest Days Of Our Lives 05. Another Brick In The Wall, Part 2 06. Mother 07. Goodbye Blue Sky 08. Empty Spaces 09. Young Lust 10. One Of My Turns 11. Don't Leave Me Now 12. Another Brick In The Wall, Part 3 13. Goodbye Cruel World EACExact Audio Copy V1.0 beta 3 from 29. August 2011 EAC extraction logfile from 25. February 2012, ...

13
сен
2016

Alcatrazz - The Ultimate Fortress Rock Set (5CD Box Set) [2016, Hard Rock, FLAC]

Формат: FLAC, (image + .cue), lossless
Год выпуска: 2016
Страна: UK
Жанр: Hard Rock
Продолжительность: 05:51:15
Описание: 1983 No Parole From Rock'n'Roll 01 01. Island In The Sun 02. General Hospital 03. Jet To Jet 04. Hiroshima Mon Amour 05. Kree Nakoorie 06. Incubus 07. Too Young To Die, Too Drunk To Live 08. Big Foot 09. Starcarr Lane 10. Suffer Me Bonus Tracks 11. Kree Nakoorie 12. Starcarr Lane 13. Island In The Sun 14. Big Foot 15. Hiroshima Mon Amour 16. General Hospital 17. Incubus 18. Suffer Me 19. Too Young To Die, Too Drunk To Live 20. Jet To Jet eac Exact Audio Copy V1.0 beta 3 f ...

30
мар
2013

Fleetwood Mac - Rumours (4CD + DVD + LP Deluxe Edition Box Set) [2013, Rock, Soft Rock, FLAC]

Формат: FLAC, (image + .cue), lossless
Год выпуска: 2013
Страна: USA
Жанр: Rock, Soft Rock
Продолжительность: 03:07:40
Описание: CD 1 Original Album (Remastered) 00 01. Second Hand News 02. Dreams 03. Never Going Back Again 04. Don't Stop 05. Go Your Own Way 06. Songbird 07. The Chain Fun 08. You Make Loving Fun 09. I Don't Want To Know 10. Oh Daddy 11. Gold Dust Woman 12. Silver Springs EACExact Audio Copy V1.0 beta 3 from 29. August 2011 EAC extraction logfile from 26. March 2013, 19:59 Fleetwood Mac / Rumours 1 Used drive : PLEXTOR BD-R PX-B950SA Adapter: 6 ID: 0 Read mode : Secure Uti ...

02
авг
2015

America - 8 CD Box Set [2015, Rock, Soft Rock, Pop Rock, Folk Rock, FLAC]

Формат: FLAC, (image + .cue), lossless
Год выпуска: 2015
Страна: USA
Жанр: Rock, Soft Rock, Pop Rock, Folk Rock
Продолжительность: 06:12:20
Описание: 1971 America 00 01. Riverside 02. Sandman 03. Three Roses 04. Children 05. A Horse With No Name 06. Here 07. I Need You 08. Rainy Day 09. Never Found The Time 10. Clarice 11. Donkey Jaw 12. Pigeon Song eac Exact Audio Copy V1.1 from 23. June 2015 EAC extraction logfile from 23. July 2015, 20:06 America / America Used drive : PLEXTOR BD-R PX-B950SA Adapter: 1 ID: 1 Read mode : Secure Utilize accurate stream : Yes Defeat audio cache : Yes Make ...

03
дек
2016

Lou Reed - The Sire Years: The Complete Albums Box (10CD Box Set) [2015, Rock, Art Rock, FLAC]

Формат: FLAC, (image + .cue), lossless
Год выпуска: 2015
Страна: EU
Жанр: Rock, Art Rock
Продолжительность: 08:13:14
Описание: 1989 New York 0001. Romeo Had Juliette 02. Halloween Parade 03. Dirty Blvd. 04. Endless Cycle 05. There Is No Time 06. Last Great American Whale 07. Beginning Of A Great Adventure 08. Busload Of Faith 09. Sick Of You 10. Hold On 11. Good Evening Mr. Waldheim 12. Xmas In February 13. Strawman 14. Dime Store Mystery eacExact Audio Copy V1.1 from 23. June 2015 EAC extraction logfile from 2. December 2016, 18:25 Lou Reed / New York Used drive : PLEXTOR BD-R PX-B950SA Ad ...

06
авг
2017

Sting - 6 Album (Mini LP SHM-CD 1985-96) [2017, Rock / Pop Rock, Soft Rock, Jazz Rock, FLAC]

Формат: FLAC, (image + .cue), lossless
Год выпуска: 2017
Страна: UK
Жанр: Rock / Pop Rock, Soft Rock, Jazz Rock
Продолжительность: 05:33:14
Описание: 1985 The Dream Of The Blue Turtles 00 01. If You Love Somebody Set Them Free 02. Love Is The Seventh Wave 03. Russians 04. Children's Crusade 05. Shadows In The Rain 06. We Work The Black Seam 07. Consider Me Gone 08. The Dream Of The Blue Turtles 09. Moon Over Bourbon Street 10. Fortress Around Your Heart Video If You Love Somebody Set Them Free Video
Видео: QuickTime 320x240 (4:3) 15 fps 1473 Kbps 1.278 bit/pixel
Аудио: ADPCM 44,1Hz 1 ch 352, ...

20
янв
2017

Вилли Токарев - U.S. Albums Collection (4 LP Box Set, 1979-1984) [2014-2015, Шансон, MP3]

Формат: MP3, tracks, 320kbps
Год выпуска: 2014-2015
Страна: Россия- США
Жанр: Шансон
Продолжительность: 02:15:25
Описание: Треклист1979 - А жизнь - она всегда прекрасна Сторона A А1. Карусель любви А2. А жизнь – она всегда прекрасна А3. Зачем? А4. Тамара А5. Sunny, Sunny Сторона B В1. Поцелуй В2. Дождь В3. Солнечная девушка В4. Счастливая звезда В5. Девушка милая 1981 - В Шумном Балагане Сторона A А1. Нью-йорский таксист А2. В шумном балагане А3. Песня тракториста А4. Люська – хулиганка А5. Держи вора Сторона B В1. Небоскрёбы, небоскрёбы В2. Ростовский урка В3. Воры – гуманисты В4. Придур ...

18
янв
2012

The Who - Quadrophenia - 1973 (4 SHM-CD Box Set) [2011, Rock, Hard Rock, Classic Rock, FLAC]

Формат: FLAC, (image + .cue), lossless
Год выпуска: 2011
Страна: UK
Жанр: Rock, Hard Rock, Classic Rock
Продолжительность: 03:05:46
Описание: CD1 - The Original Album (00
Трeклист: 01. I Am The Sea 02:09 02. The Real Me 03:20 03. Quadrophenia 06:13 04. Cut My Hair 03:44 05. The Punk And The Godfather 05:11 06. I'm One 02:37 07. The Dirty Jobs 04:28 08. Helpless Dancer 02:33 09. Is It In My Head? 03:43 10. I've Had Enough 06:16Log EACExact Audio Copy V1.0 beta 3 from 29. August 2011 EAC extraction logfile from 28. November 2011, 11:47 The Who / Quadrophenia CD1 Used drive : HL-DT-STDVDRAM ...

03
янв
2012

Trojan Christmas Reggae Box Set (3 CD) [2003, Early Reggae, Ska, Rocksteady, FLAC]

Формат: FLAC, tracks, 320kbps
Год выпуска: 2003
Страна: UK
Жанр: Early Reggae, Ska, Rocksteady
Продолжительность: 03:09:30
Описание: Треклист (3CD)Disc: 1 1. Wish You A Merry Christmas/Ahamaric Temple - Miller, Jacob & Ray-I 2. Jingle Bells - Carlos, Don & Glenice Spencer 3. Santa Claus Is Ska-ing To Town - Granville Williams Orchestra 4. Santa Claus Never Comes To The Ghetto - Yellowman 5. Blue Christmas - Holt, John 6. Ding Dong Bell - Ethiopians 7. It's Christmas Time Again - Junior Trinity Brammer 8. All I Want For Ismas - Miller, Jacob & Ray-I 9. Silent Night - Black, Pablo 10. I Saw Mom ...

31
окт
2010

John Lennon - Anthology (4 CD Box Set) [1998, Rock, FLAC]

Формат: FLAC, (tracks + .cue), lossless
Год выпуска: 1998
Страна: EU
Жанр: Rock
Продолжительность: 04:27:44
Описание: John Lennon - Anthology (4 CD Box Set) Треклист CD 1 - Ascot ------------------------------------------------------------ 01. Working Class Hero [04:21] 02. God [03:33] 03. I Found Out [03:48] 04. Hold On [00:44] 05. Isolation [03:47] 06. Love [02:45] 07. Mother [03:49] 08. Remember [02:46] 09. Imagine (take 1) [03:23] 10. 'Fortunately' - vignette from bed-in [00:19] 11. Baby Please Don't Go [04:05] 12. Oh My Love [02:56] 13. Jealous Guy [04:11] 14. Maggie Mae [0 ...