15
мар
2015

Arabesque - Complete Box (10 Mini LP CD + DVD) [2015, Disco, Flac]

Arabesque - Complete Box (10 Mini LP CD + DVD)

Формат: Flac, (image+ .cue), lossless
Год выпуска: 1978-1984
Страна: Germany
Жанр: Disco
Продолжительность: 06:07:26

Описание:

1978 - Friday Night (Arabesque) (00
Arabesque - Complete Box
Трeклист:

01. Hello Mr. Monkey 03:28
02. Fly High Little Butterfly 03:26
03. Someone Is Waiting For You 04:03
04. The Man With The Gun 02:58
05. Six Times A Day 03:10
06. Buggy Boy 02:56
07. Friday Night 04:15
08. Catch Me Tiger 04:54
09. Give It Up 03:57
10. Love Is Just A Game 04:25
Log EAC
Exact Audio Copy V1.0 beta 4 from 7. December 2014

EAC extraction logfile from 7. March 2015, 19:35

Arabesque / Friday Night

Used drive : PLEXTOR BD-R PX-B950SA Adapter: 1 ID: 1

Read mode : Secure
Utilize accurate stream : Yes
Defeat audio cache : Yes
Make use of C2 pointers : No

Read offset correction : 6
Overread into Lead-In and Lead-Out : No
Fill up missing offset samples with silence : Yes
Delete leading and trailing silent blocks : No
Null samples used in CRC calculations : Yes
Used interface : Native Win32 interface for Win NT & 2000

Used output format : Internal WAV Routines
Sample format : 44.100 Hz; 16 Bit; Stereo

TOC of the extracted CD

Track | Start | Length | Start sector | End sector
---------------------------------------------------------
1 | 0:00.00 | 3:28.10 | 0 | 15609
2 | 3:28.10 | 3:26.32 | 15610 | 31091
3 | 6:54.42 | 4:03.28 | 31092 | 49344
4 | 10:57.70 | 2:58.72 | 49345 | 62766
5 | 13:56.67 | 3:10.63 | 62767 | 77079
6 | 17:07.55 | 2:56.22 | 77080 | 90301
7 | 20:04.02 | 4:15.05 | 90302 | 109431
8 | 24:19.07 | 4:54.08 | 109432 | 131489
9 | 29:13.15 | 3:57.05 | 131490 | 149269
10 | 33:10.20 | 4:25.12 | 149270 | 169156

Range status and errors

Selected range

Filename C:UsersMeijinDesktopLossless Galaxy ALLexxessArabesque2015 Complete Box (10 Mini LP CD + DVD Victor Japan)1978 Friday NightArabesque - Friday Night.wav

Peak level 100.0 %
Extraction speed 6.4 X
Range quality 100.0 %
Test CRC DD195776
Copy CRC DD195776
Copy OK

No errors occurred

AccurateRip summary

Track 1 not present in database
Track 2 not present in database
Track 3 not present in database
Track 4 not present in database
Track 5 not present in database
Track 6 not present in database
Track 7 not present in database
Track 8 not present in database
Track 9 not present in database
Track 10 not present in database

None of the tracks are present in the AccurateRip database

End of status report

---- CUETools DB Plugin V2.1.4

[CTDB TOCID: .zpkHRUnlOlew3u4FfQkuRPngzA-] disk not present in database
Submit result: .zpkHRUnlOlew3u4FfQkuRPngzA- has been uploaded

==== Log checksum 5B918D844D3472CE5B7388772E324AF4E2F045DF50AD0F34566848E991728CE9 ====
1979 - City Cats (Arabesque II) (00
Arabesque - Complete Box
Трeклист:

01. Peppermint Jack 03:07
02. In The Heat Of A Disco Night 03:16
03. Rock Me After Midnight 03:49
04. Lucifer's Lover 03:32
05. Dancing In The Fire Of Love 03:29
06. It's So Hard To Leave You 04:03
07. Hell Driver 04:56
08. City Cats 03:05
09. Don't Kiss A Crocodile 03:31
10. Plastic Heart 03:59
Log EAC
Exact Audio Copy V1.0 beta 4 from 7. December 2014

EAC extraction logfile from 7. March 2015, 18:41

Arabesque / City Cats

Used drive : PLEXTOR BD-R PX-B950SA Adapter: 1 ID: 1

Read mode : Secure
Utilize accurate stream : Yes
Defeat audio cache : Yes
Make use of C2 pointers : No

Read offset correction : 6
Overread into Lead-In and Lead-Out : No
Fill up missing offset samples with silence : Yes
Delete leading and trailing silent blocks : No
Null samples used in CRC calculations : Yes
Used interface : Native Win32 interface for Win NT & 2000

Used output format : Internal WAV Routines
Sample format : 44.100 Hz; 16 Bit; Stereo

TOC of the extracted CD

Track | Start | Length | Start sector | End sector
---------------------------------------------------------
1 | 0:00.00 | 3:07.07 | 0 | 14031
2 | 3:07.07 | 3:16.70 | 14032 | 28801
3 | 6:24.02 | 3:49.63 | 28802 | 46039
4 | 10:13.65 | 3:32.47 | 46040 | 61986
5 | 13:46.37 | 3:29.40 | 61987 | 77701
6 | 17:16.02 | 4:03.23 | 77702 | 95949
7 | 21:19.25 | 4:56.52 | 95950 | 118201
8 | 26:16.02 | 3:05.00 | 118202 | 132076
9 | 29:21.02 | 3:31.30 | 132077 | 147931
10 | 32:52.32 | 3:59.35 | 147932 | 165891

Range status and errors

Selected range

Filename C:UsersMeijinDesktopLossless Galaxy ALLexxessArabesque2015 Complete Box (10 Mini LP CD + DVD Victor Japan)1979 City CatsArabesque - City Cats.wav

Peak level 100.0 %
Extraction speed 6.5 X
Range quality 100.0 %
Test CRC 4B65A29E
Copy CRC 4B65A29E
Copy OK

No errors occurred

AccurateRip summary

Track 1 not present in database
Track 2 not present in database
Track 3 not present in database
Track 4 not present in database
Track 5 not present in database
Track 6 not present in database
Track 7 not present in database
Track 8 not present in database
Track 9 not present in database
Track 10 not present in database

None of the tracks are present in the AccurateRip database

End of status report

---- CUETools DB Plugin V2.1.4

[CTDB TOCID: wtrUxnV9G9st8MphvJfkta0UREs-] disk not present in database
Submit result: wtrUxnV9G9st8MphvJfkta0UREs- has been uploaded

==== Log checksum A051D80197956A1B2E3340D4CA5FFAABA340E12D17EC7053990BD8A72290F385 ====
1980 - Marigot Bay (Arabesque III) (00
Arabesque - Complete Box
Трeклист:

01. High Life 03:07
02. Jingle Jangle Joe 03:10
03. Roller Star 03:40
04. Bye Bye My Love 03:29
05. Marigot Bay 03:50
06. Parties In A Penthouse 03:18
07. Once In A Blue Moon 03:18
08. Hey, Catch On 03:21
09. Take Me, Don't Break Me 03:17
10. The Only Night Was A Lonely Night 03:20
Log EAC
Exact Audio Copy V1.0 beta 4 from 7. December 2014

EAC extraction logfile from 7. March 2015, 18:18

Arabesque / Marigot Bay

Used drive : PLEXTOR BD-R PX-B950SA Adapter: 1 ID: 1

Read mode : Secure
Utilize accurate stream : Yes
Defeat audio cache : Yes
Make use of C2 pointers : No

Read offset correction : 6
Overread into Lead-In and Lead-Out : No
Fill up missing offset samples with silence : Yes
Delete leading and trailing silent blocks : No
Null samples used in CRC calculations : Yes
Used interface : Native Win32 interface for Win NT & 2000

Used output format : Internal WAV Routines
Sample format : 44.100 Hz; 16 Bit; Stereo

TOC of the extracted CD

Track | Start | Length | Start sector | End sector
---------------------------------------------------------
1 | 0:00.00 | 3:07.30 | 0 | 14054
2 | 3:07.30 | 3:10.27 | 14055 | 28331
3 | 6:17.57 | 3:40.35 | 28332 | 44866
4 | 9:58.17 | 3:29.30 | 44867 | 60571
5 | 13:27.47 | 3:50.53 | 60572 | 77874
6 | 17:18.25 | 3:18.52 | 77875 | 92776
7 | 20:37.02 | 3:18.55 | 92777 | 107681
8 | 23:55.57 | 3:21.03 | 107682 | 122759
9 | 27:16.60 | 3:17.62 | 122760 | 137596
10 | 30:34.47 | 3:20.50 | 137597 | 152646

Range status and errors

Selected range

Filename C:UsersMeijinDesktopLossless Galaxy ALLexxessArabesque2015 Complete Box (10 Mini LP CD + DVD Victor Japan)1980 Marigot BayArabesque - Marigot Bay.wav

Peak level 100.0 %
Extraction speed 6.3 X
Range quality 100.0 %
Test CRC 1CC56398
Copy CRC 1CC56398
Copy OK

No errors occurred

AccurateRip summary

Track 1 not present in database
Track 2 not present in database
Track 3 not present in database
Track 4 not present in database
Track 5 not present in database
Track 6 not present in database
Track 7 not present in database
Track 8 not present in database
Track 9 not present in database
Track 10 not present in database

None of the tracks are present in the AccurateRip database

End of status report

---- CUETools DB Plugin V2.1.4

[CTDB TOCID: 0JalrWwSBgg47iv97UpbqcQeHnw-] disk not present in database
Submit result: 0JalrWwSBgg47iv97UpbqcQeHnw- has been uploaded

==== Log checksum 7DB86BD68C838807D0FF47F8C42292D562D5243810E61FE8C9A8E430070C8B20 ====
1980 - Midnight Dancer (Arabesque IV) (00
Arabesque - Complete Box
Трeклист:

01. Make Love Whenever You Can 03:45
02. Keep The Wolf From The Door 04;20
03. I Don't Wanna Have Breakfast With You 03:48
04. Nights In The Harbour 04:31
05. Hey What A Magic Night 03:13
06. Midnight Dancer 03:40
07. Hi Hi Highway 04:04
08. You Win, Hands Down 02:55
09. Black Out 03:26
10. Born To Reggae 03:29

Bonus Track:
11. Rock 'N' Roll Fan 03:19
Log EAC
Exact Audio Copy V1.0 beta 4 from 7. December 2014

EAC extraction logfile from 7. March 2015, 11:02

Arabesque / Midnight Dancer

Used drive : PLEXTOR BD-R PX-B950SA Adapter: 1 ID: 1

Read mode : Secure
Utilize accurate stream : Yes
Defeat audio cache : Yes
Make use of C2 pointers : No

Read offset correction : 6
Overread into Lead-In and Lead-Out : No
Fill up missing offset samples with silence : Yes
Delete leading and trailing silent blocks : No
Null samples used in CRC calculations : Yes
Used interface : Native Win32 interface for Win NT & 2000

Used output format : Internal WAV Routines
Sample format : 44.100 Hz; 16 Bit; Stereo

TOC of the extracted CD

Track | Start | Length | Start sector | End sector
---------------------------------------------------------
1 | 0:00.00 | 3:45.57 | 0 | 16931
2 | 3:45.57 | 4:20.00 | 16932 | 36431
3 | 8:05.57 | 3:48.63 | 36432 | 53594
4 | 11:54.45 | 4:31.47 | 53595 | 73966
5 | 16:26.17 | 3:13.38 | 73967 | 88479
6 | 19:39.55 | 3:40.60 | 88480 | 105039
7 | 23:20.40 | 4:04.50 | 105040 | 123389
8 | 27:25.15 | 2:55.67 | 123390 | 136581
9 | 30:21.07 | 3:26.15 | 136582 | 152046
10 | 33:47.22 | 3:29.45 | 152047 | 167766
11 | 37:16.67 | 3:19.58 | 167767 | 182749

Range status and errors

Selected range

Filename C:UsersMeijinDesktopLossless Galaxy ALLexxessArabesque2015 Complete Box (10 Mini LP CD + DVD Victor Japan)1980 Midnight DancerArabesque - Midnight Dancer.wav

Peak level 100.0 %
Extraction speed 6.5 X
Range quality 100.0 %
Test CRC BF21DC9F
Copy CRC BF21DC9F
Copy OK

No errors occurred

AccurateRip summary

Track 1 not present in database
Track 2 not present in database
Track 3 not present in database
Track 4 not present in database
Track 5 not present in database
Track 6 not present in database
Track 7 not present in database
Track 8 not present in database
Track 9 not present in database
Track 10 not present in database
Track 11 not present in database

None of the tracks are present in the AccurateRip database

End of status report

---- CUETools DB Plugin V2.1.4

[CTDB TOCID: cT8a0p6KZcMEEcEZ7wlssjNWR9s-] disk not present in database
Submit result: cT8a0p6KZcMEEcEZ7wlssjNWR9s- has been uploaded

==== Log checksum 51E82813C5CB2102E3550D77D6FFAA620F563F44827C87AFDB9F3E8E4015A03C ====
1981 - In For A Penny (Arabesque V) (00
Arabesque - Complete Box
Трeклист:

01. In For A Penny, In For A Pound 03:00
02. The Hero Of My Life 03:48
03. Like A Shot In The Dark 03:45
04. Run The Show 03:16
05. Indio Boy 03:59
06. Billy's Barbeque 02:48
07. The Doctor Likes Music 02:56
08. The Rebels Of The Bounty 04:00
09. Let's Make A Night Of It 03:32
10. I Stand By You 03:46

Bonus Track:
11. Indio Boy (Germany Version) 03:54
Log EAC
Exact Audio Copy V1.0 beta 4 from 7. December 2014

EAC extraction logfile from 6. March 2015, 22:43

Arabesque / In For A Penny

Used drive : PLEXTOR BD-R PX-B950SA Adapter: 1 ID: 1

Read mode : Secure
Utilize accurate stream : Yes
Defeat audio cache : Yes
Make use of C2 pointers : No

Read offset correction : 6
Overread into Lead-In and Lead-Out : No
Fill up missing offset samples with silence : Yes
Delete leading and trailing silent blocks : No
Null samples used in CRC calculations : Yes
Used interface : Native Win32 interface for Win NT & 2000

Used output format : Internal WAV Routines
Sample format : 44.100 Hz; 16 Bit; Stereo

TOC of the extracted CD

Track | Start | Length | Start sector | End sector
---------------------------------------------------------
1 | 0:00.00 | 3:00.50 | 0 | 13549
2 | 3:00.50 | 3:48.27 | 13550 | 30676
3 | 6:49.02 | 3:45.08 | 30677 | 47559
4 | 10:34.10 | 3:16.20 | 47560 | 62279
5 | 13:50.30 | 3:59.37 | 62280 | 80241
6 | 17:49.67 | 2:48.60 | 80242 | 92901
7 | 20:38.52 | 2:56.55 | 92902 | 106156
8 | 23:35.32 | 4:00.03 | 106157 | 124159
9 | 27:35.35 | 3:32.32 | 124160 | 140091
10 | 31:07.67 | 3:46.70 | 140092 | 157111
11 | 34:54.62 | 3:54.60 | 157112 | 174721

Range status and errors

Selected range

Filename C:UsersMeijinDesktopLossless Galaxy ALLexxessArabesque2015 Complete Box (10 Mini LP CD + DVD Victor Japan)1981 In For A PennyArabesque - In For A Penny.wav

Peak level 98.8 %
Extraction speed 6.4 X
Range quality 99.9 %
Test CRC 0FB03A0E
Copy CRC 0FB03A0E
Copy OK

No errors occurred

AccurateRip summary

Track 1 not present in database
Track 2 not present in database
Track 3 not present in database
Track 4 not present in database
Track 5 not present in database
Track 6 not present in database
Track 7 not present in database
Track 8 not present in database
Track 9 not present in database
Track 10 not present in database
Track 11 not present in database

None of the tracks are present in the AccurateRip database

End of status report

---- CUETools DB Plugin V2.1.4

[CTDB TOCID: gWoZVWPKSrQ4BOrzFxWJB4Qx5EQ-] disk not present in database
Submit result: gWoZVWPKSrQ4BOrzFxWJB4Qx5EQ- has been uploaded

==== Log checksum 1130D95273CEBF785085E5FB67C12B1D39E7DE67A20CA98A500EC469AC7D1663 ====
1982 - Caballero (Arabesque VI) (00
Arabesque - Complete Box
Трeклист:

01. Caballero 04:02
02. Why Do You Ride The Hight Horse 03:41
03. Tall Story Teller 03:13
04. Touch And Go 03:37
05. Don't Wait For A Salor 04:05
06. Hit The Jackpot 03:19
07. Look Alive 03:46
08. A Flash In The Pan 04:01
09. Fool's Paradise 03:27
10. The End Of The Show 04:16
Log EAC
Exact Audio Copy V1.0 beta 4 from 7. December 2014

EAC extraction logfile from 6. March 2015, 22:16

Arabesque / Caballero

Used drive : PLEXTOR BD-R PX-B950SA Adapter: 1 ID: 1

Read mode : Secure
Utilize accurate stream : Yes
Defeat audio cache : Yes
Make use of C2 pointers : No

Read offset correction : 6
Overread into Lead-In and Lead-Out : No
Fill up missing offset samples with silence : Yes
Delete leading and trailing silent blocks : No
Null samples used in CRC calculations : Yes
Used interface : Native Win32 interface for Win NT & 2000

Used output format : Internal WAV Routines
Sample format : 44.100 Hz; 16 Bit; Stereo

TOC of the extracted CD

Track | Start | Length | Start sector | End sector
---------------------------------------------------------
1 | 0:00.00 | 4:02.42 | 0 | 18191
2 | 4:02.42 | 3:41.53 | 18192 | 34819
3 | 7:44.20 | 3:13.05 | 34820 | 49299
4 | 10:57.25 | 3:37.72 | 49300 | 65646
5 | 14:35.22 | 4:05.53 | 65647 | 84074
6 | 18:41.00 | 3:19.42 | 84075 | 99041
7 | 22:00.42 | 3:46.13 | 99042 | 116004
8 | 25:46.55 | 4:01.35 | 116005 | 134114
9 | 29:48.15 | 3:27.10 | 134115 | 149649
10 | 33:15.25 | 4:16.27 | 149650 | 168876

Range status and errors

Selected range

Filename C:UsersMeijinDesktopLossless Galaxy ALLexxessArabesque2015 Complete Box (10 Mini LP CD + DVD Victor Japan)1982 CaballeroArabesque - Caballero.wav

Peak level 97.7 %
Extraction speed 6.4 X
Range quality 100.0 %
Test CRC C41D12C3
Copy CRC C41D12C3
Copy OK

No errors occurred

AccurateRip summary

Track 1 not present in database
Track 2 not present in database
Track 3 not present in database
Track 4 not present in database
Track 5 not present in database
Track 6 not present in database
Track 7 not present in database
Track 8 not present in database
Track 9 not present in database
Track 10 not present in database

None of the tracks are present in the AccurateRip database

End of status report

---- CUETools DB Plugin V2.1.4

[CTDB TOCID: 4X0t63P39SI2aBVouTfyUQwZN6w-] disk not present in database
Submit result: 4X0t63P39SI2aBVouTfyUQwZN6w- has been uploaded

==== Log checksum D7D92BC4DFF1163F33D41146C1FDD97065A4B7B74E7C81589DB2B71640E47497 ====
1982 - Why No Reply (00
Arabesque - Complete Box
Трeклист:

01. Why No Reply 03:31
02. Discover Me 03:52
03. Don't Fall Away From Me 03:35
04. Moorea 04:48
05. A New Sensation 03:39
06. Young Fingers Get Burnt 03:09
07. Rainy Love Affair 03:08
08. Prison Of Love 02:54
09. Surfing Bahama 03:35
10. Zanzibar 03:42
Log EAC
Exact Audio Copy V1.0 beta 4 from 7. December 2014

EAC extraction logfile from 6. March 2015, 21:46

Arabesque / Why No Reply

Used drive : PLEXTOR BD-R PX-B950SA Adapter: 1 ID: 1

Read mode : Secure
Utilize accurate stream : Yes
Defeat audio cache : Yes
Make use of C2 pointers : No

Read offset correction : 6
Overread into Lead-In and Lead-Out : No
Fill up missing offset samples with silence : Yes
Delete leading and trailing silent blocks : No
Null samples used in CRC calculations : Yes
Used interface : Native Win32 interface for Win NT & 2000

Used output format : Internal WAV Routines
Sample format : 44.100 Hz; 16 Bit; Stereo

TOC of the extracted CD

Track | Start | Length | Start sector | End sector
---------------------------------------------------------
1 | 0:00.00 | 3:31.55 | 0 | 15879
2 | 3:31.55 | 3:52.17 | 15880 | 33296
3 | 7:23.72 | 3:35.45 | 33297 | 49466
4 | 10:59.42 | 4:48.35 | 49467 | 71101
5 | 15:48.02 | 3:39.53 | 71102 | 87579
6 | 19:27.55 | 3:09.20 | 87580 | 101774
7 | 22:37.00 | 3:08.00 | 101775 | 115874
8 | 25:45.00 | 2:54.72 | 115875 | 128996
9 | 28:39.72 | 3:35.20 | 128997 | 145141
10 | 32:15.17 | 3:42.63 | 145142 | 161854

Range status and errors

Selected range

Filename C:UsersMeijinDesktopLossless Galaxy ALLexxessArabesque2015 Complete Box (10 Mini LP CD + DVD Victor Japan)1982 Why No ReplyArabesque - Why No Reply.wav

Peak level 98.8 %
Extraction speed 6.4 X
Range quality 100.0 %
Test CRC 50907318
Copy CRC 50907318
Copy OK

No errors occurred

AccurateRip summary

Track 1 not present in database
Track 2 not present in database
Track 3 not present in database
Track 4 not present in database
Track 5 not present in database
Track 6 not present in database
Track 7 not present in database
Track 8 not present in database
Track 9 not present in database
Track 10 not present in database

None of the tracks are present in the AccurateRip database

End of status report

---- CUETools DB Plugin V2.1.4

[CTDB TOCID: lomJ0RVvTxNHUx.8M0N9ykXaFLY-] disk not present in database
Submit result: lomJ0RVvTxNHUx.8M0N9ykXaFLY- has been uploaded

==== Log checksum 6DEA97AC3B038BE806072B139DAEB2AABF6E62D93B80691D0860370137F5B804 ====
1983 - Dance Dance Dance (Arabesque VIII / Loser Pays The Piper) (00
Arabesque - Complete Box
Трeклист:

01. Loser Pays The Piper 03:21
02. Heart On Fire 03:37
03. Pack It Up 03:43
04. For Your Smile 02:55
05. Sunrise In Your Eyes 03:18
06. Dance Dance Dance 03:10
07. Angel Face 03:15
08. You Better Get A Move On 02:53
09. Stupid Boys 03:06
10. Bye Bye Superman 03:23
Log EAC
Exact Audio Copy V1.0 beta 4 from 7. December 2014

EAC extraction logfile from 6. March 2015, 21:09

Arabesque / Dance Dance Dance

Used drive : PLEXTOR BD-R PX-B950SA Adapter: 1 ID: 1

Read mode : Secure
Utilize accurate stream : Yes
Defeat audio cache : Yes
Make use of C2 pointers : No

Read offset correction : 6
Overread into Lead-In and Lead-Out : No
Fill up missing offset samples with silence : Yes
Delete leading and trailing silent blocks : No
Null samples used in CRC calculations : Yes
Used interface : Native Win32 interface for Win NT & 2000

Used output format : Internal WAV Routines
Sample format : 44.100 Hz; 16 Bit; Stereo

TOC of the extracted CD

Track | Start | Length | Start sector | End sector
---------------------------------------------------------
1 | 0:00.00 | 3:21.62 | 0 | 15136
2 | 3:21.62 | 3:37.48 | 15137 | 31459
3 | 6:59.35 | 3:43.57 | 31460 | 48241
4 | 10:43.17 | 2:55.20 | 48242 | 61386
5 | 13:38.37 | 3:18.40 | 61387 | 76276
6 | 16:57.02 | 3:10.20 | 76277 | 90546
7 | 20:07.22 | 3:15.33 | 90547 | 105204
8 | 23:22.55 | 2:53.42 | 105205 | 118221
9 | 26:16.22 | 3:06.33 | 118222 | 132204
10 | 29:22.55 | 3:23.62 | 132205 | 147491

Range status and errors

Selected range

Filename C:UsersMeijinDesktopLossless Galaxy ALLexxessArabesque2015 Complete Box (10 Mini LP CD + DVD Victor Japan)1983 Dance Dance DanceArabesque - Dance Dance Dance.wav

Peak level 97.7 %
Extraction speed 6.2 X
Range quality 100.0 %
Test CRC 0E7E7203
Copy CRC 0E7E7203
Copy OK

No errors occurred

AccurateRip summary

Track 1 not present in database
Track 2 not present in database
Track 3 not present in database
Track 4 not present in database
Track 5 not present in database
Track 6 not present in database
Track 7 not present in database
Track 8 not present in database
Track 9 not present in database
Track 10 not present in database

None of the tracks are present in the AccurateRip database

End of status report

---- CUETools DB Plugin V2.1.4

[CTDB TOCID: .drnocbaYKX_6ZN82bf7vfEvfMg-] disk not present in database
Submit result: .drnocbaYKX_6ZN82bf7vfEvfMg- has been uploaded

==== Log checksum 599E8624420355EB57967DF91C78A74349B83432376457F042B4B6A1AF719943 ====
1984 - Time To Say 'Good Bye' (00
Arabesque - Complete Box
Трeклист:

01. Tropical Summer Night 03:44
02. Time To Say 'Good Bye' 03:38
03. Ladies First 03:26
04. Ecstasy 03:33
05. Love's Like A Symphony 03:12
06. Dreamin' 03:33
07. Stop Crying For The Moon 03:20
08. The Smile Of The Clown 03:59
09. Sunset In New York 03:57
10. Squaw 03:34

Bonus Tracks:
11. Ecstasy (Extended Version) 05:12
12. Time To Say 'Good Bye' (Extended Version) 04:45
Log EAC
Exact Audio Copy V1.0 beta 4 from 7. December 2014

EAC extraction logfile from 5. March 2015, 20:42

Arabesque / Time To Say 'Good Bye'

Used drive : PLEXTOR BD-R PX-B950SA Adapter: 1 ID: 1

Read mode : Secure
Utilize accurate stream : Yes
Defeat audio cache : Yes
Make use of C2 pointers : No

Read offset correction : 6
Overread into Lead-In and Lead-Out : No
Fill up missing offset samples with silence : Yes
Delete leading and trailing silent blocks : No
Null samples used in CRC calculations : Yes
Used interface : Native Win32 interface for Win NT & 2000

Used output format : Internal WAV Routines
Sample format : 44.100 Hz; 16 Bit; Stereo

TOC of the extracted CD

Track | Start | Length | Start sector | End sector
---------------------------------------------------------
1 | 0:00.00 | 3:44.05 | 0 | 16804
2 | 3:44.05 | 3:38.20 | 16805 | 33174
3 | 7:22.25 | 3:26.37 | 33175 | 48661
4 | 10:48.62 | 3:33.03 | 48662 | 64639
5 | 14:21.65 | 3:12.15 | 64640 | 79054
6 | 17:34.05 | 3:33.12 | 79055 | 95041
7 | 21:07.17 | 3:20.68 | 95042 | 110109
8 | 24:28.10 | 3:59.17 | 110110 | 128051
9 | 28:27.27 | 3:57.08 | 128052 | 145834
10 | 32:24.35 | 3:34.37 | 145835 | 161921
11 | 35:58.72 | 5:12.55 | 161922 | 185376
12 | 41:11.52 | 4:45.35 | 185377 | 206786

Range status and errors

Selected range

Filename C:UsersMeijinDesktopLossless Galaxy ALLexxessArabesque2015 Complete Box (10 Mini LP CD + DVD Victor Japan)1984 Time To Say 'Good Bye'Arabesque - Time To Say 'Good Bye'.wav

Peak level 100.0 %
Extraction speed 6.8 X
Range quality 100.0 %
Test CRC 50E19E85
Copy CRC 50E19E85
Copy OK

No errors occurred

AccurateRip summary

Track 1 not present in database
Track 2 not present in database
Track 3 not present in database
Track 4 not present in database
Track 5 not present in database
Track 6 not present in database
Track 7 not present in database
Track 8 not present in database
Track 9 not present in database
Track 10 not present in database
Track 11 not present in database
Track 12 not present in database

None of the tracks are present in the AccurateRip database

End of status report

---- CUETools DB Plugin V2.1.4

[CTDB TOCID: jlG05zZM74v9I064HtLhS5SQ7t4-] disk not present in database
Submit result: jlG05zZM74v9I064HtLhS5SQ7t4- has been uploaded

==== Log checksum E265C36673D9209654EEE13EEDA181B56018C7FEF25B8EBF4DE7630694D9F36B ====
1983 - Radio Arabesque (00
Arabesque - Complete Box
Трeклист:

01. Hello, Mr. Monkey (Introduction) 00:23
02. Why Do You Ride The High Horse 02:25
03. Six Times A Day 02:09
04. Pack It Up 02:43
05. Dance Dance Dance 02:38
06. Why No Reply 02:26
07. Marigot Bay 03:30
08. Sun Rise In Your Eyes 02:30
09. The Rebels Of The Bounty 01:11
10. Surfing Bahama 01:54
11. Moorea 03:42
Log EAC
Exact Audio Copy V1.0 beta 4 from 7. December 2014

EAC extraction logfile from 5. March 2015, 20:14

Arabesque / Radio Arabesque

Used drive : PLEXTOR BD-R PX-B950SA Adapter: 1 ID: 1

Read mode : Secure
Utilize accurate stream : Yes
Defeat audio cache : Yes
Make use of C2 pointers : No

Read offset correction : 6
Overread into Lead-In and Lead-Out : No
Fill up missing offset samples with silence : Yes
Delete leading and trailing silent blocks : No
Null samples used in CRC calculations : Yes
Used interface : Native Win32 interface for Win NT & 2000

Used output format : Internal WAV Routines
Sample format : 44.100 Hz; 16 Bit; Stereo

TOC of the extracted CD

Track | Start | Length | Start sector | End sector
---------------------------------------------------------
1 | 0:00.00 | 0:23.30 | 0 | 1754
2 | 0:23.30 | 2:25.45 | 1755 | 12674
3 | 2:49.00 | 2:09.22 | 12675 | 22371
4 | 4:58.22 | 2:43.30 | 22372 | 34626
5 | 7:41.52 | 2:38.10 | 34627 | 46486
6 | 10:19.62 | 2:26.50 | 46487 | 57486
7 | 12:46.37 | 3:30.43 | 57487 | 73279
8 | 16:17.05 | 2:30.70 | 73280 | 84599
9 | 18:48.00 | 1:11.32 | 84600 | 89956
10 | 19:59.32 | 1:54.13 | 89957 | 98519
11 | 21:53.45 | 3:42.55 | 98520 | 115224

Range status and errors

Selected range

Filename C:UsersMeijinDesktopLossless Galaxy ALLexxessArabesque2015 Complete Box (10 Mini LP CD + DVD Victor Japan)1983 Radio ArabesqueArabesque - Radio Arabesque.wav

Peak level 97.7 %
Extraction speed 5.9 X
Range quality 100.0 %
Test CRC 0FE31590
Copy CRC 0FE31590
Copy OK

No errors occurred

AccurateRip summary

Track 1 not present in database
Track 2 not present in database
Track 3 not present in database
Track 4 not present in database
Track 5 not present in database
Track 6 not present in database
Track 7 not present in database
Track 8 not present in database
Track 9 not present in database
Track 10 not present in database
Track 11 not present in database

None of the tracks are present in the AccurateRip database

End of status report

---- CUETools DB Plugin V2.1.4

[CTDB TOCID: .CmY0hnE8G0J3t7aLKskCLjN99M-] disk not present in database
Submit result: .CmY0hnE8G0J3t7aLKskCLjN99M- has been uploaded

==== Log checksum 92050A482FACA7849564015A0E883891CC4D31997AF47CD9FD4E3DDD0376352F ====

Доп. информация:

Об издании
Arabesque - Complete Box Performer:
Roxy Music
Albums:
Arabesque
Box / Albums:
2015 Complete Box
1978 Friday Night; 1979 City Cats; 1980 Marigot Bay; 1980 Midnight Dancer; 1981 In For A Penny; 1982 Caballero; 1982 Why No Reply; 1983 Dance Dance Dance; 1984 Time To Say 'Good Bye'; 1983 Radio Arabesque
1983 Greatest Hits DVD
(10 Mini LP CD + DVD Victor Entertainment Japan)
Info:
Victoria Schallplatten Produktion / Victor Entertainment Japan
Cardboard Sleeve (Mini LP) / CD / DVD / Limited Release
Catalog Box: VIZP-131
Catalog CDs/DVD: VICY-761~770 / VIBY-880
Made in Japan
Dynamic Range: 8 / 12 / 13 / 13 / 9 / 10 / 9 / 10 / 11 / 10
Released Year: 2015

P.S. Благодарности ALLexxess / Galaxy за предоставленную информацию
Музыка / Lossless / Дискографии (Поп музыка)
СКАЧАТЬ БЕСПЛАТНО  [3.9 GB]


24
апр
2011

Manticore Rock Box / (6 Mini LP CD Box Set ) [2007, Hard Rock, Blues Rock, Classic Rock, FLAC]

Формат: FLAC, (image + .cue), lossless
Год выпуска: 2007
Страна: Japan
Жанр: Hard Rock, Blues Rock, Classic Rock
Продолжительность: 03:45:23
Описание: Stray Dog 1973 - Stray Dog 0 1. Tramp (How It Is) 2. Crazy 3. A Letter 4. Chevrolet 5. Speak Of The Devil 6. Slave 7. Rocky Mountain Suite (Bad Road) 1974 - While You're Down There 0 1. Calamity Jane 2. Bits & Pieces 3. Pieces 4. I Would 5. Words To Say Goodbye 6. Junkyard Angel 7. Very Well 8. Dreams & Junk 9. Worldwinds Hanson 1973 - Now Hear This 0 1. Traveling Like A Gypsy 2. Love Knows Everything 3. Mister Music Maker 4. Catch That B ...

28
апр
2012

Pulsar / Pulsar - Promo Box (3 Mini LP SHM-CD Japan) [2012, Progressive Rock, Psychedelic Rock, FLAC]

Формат: FLAC, (image + .cue), lossless
Год выпуска: 2012
Страна: Lyon, France
Жанр: Progressive Rock, Psychedelic Rock
Продолжительность: 02:02:24
Описание: 1975 Pollen 0 1. Pulsar 2. Apaisement 3. Puzzle / Omen 4. Le Cheval De Syllogie 5. Pollen EACExact Audio Copy V1.0 beta 3 from 29. August 2011 EAC extraction logfile from 24. April 2012, 22:00 Pulsar / Pollen Used drive : HL-DT-STDVDRAM GSA-H60N Adapter: 2 ID: 0 Read mode : Secure Utilize accurate stream : Yes Defeat audio cache : Yes Make use of C2 pointers : No Read offset correction : 667 Overread into Lead-In and Lead-Out : No Fil ...

08
мар
2012

Free - Disk Union Promo Box (Japanese Mini-Lp Box-Set 7CD) [2002, Blues-Rock, Hard Rock, Rhythm and Blues, FLAC]

Формат: FLAC, (tracks + .cue), lossless
Год выпуска: 2002
Страна: UK
Жанр: Blues-Rock, Hard Rock, Rhythm and Blues
Продолжительность: 07:49:06
Описание: 1968 - Tons of Sobs (01
Трeклист: 01. Over the Green Hills (Pt. 1) 00:50 02. Worry 03:27 03. Walk in My Shadow 03:30 04. Wild Indian Woman 03:40 05. Goin' Down Slow 08:22 06. I'm a Mover 02:56 07. Hunter 04:14 08. Moonshine 05:05 09. Sweet Tooth 04:54 10. Over the Green Hills (Pt. 2) 02:07 Additional Recordings: 11. I'm a Mover (BBC Session) 03:05 12. Waitin' on You (BBC Session) 02:17 13. Guy Stevens Blues (Blues Jam) 04:43 14. Moonshine ( ...

04
сен
2011

Flash / Peter Banks - 4 Albums SHM-CD + CD Sets Japan Mini LP 2010 [2010, Rock, Progressive Rock, FLAC]

Формат: FLAC, (image + .cue), lossless
Год выпуска: 2010
Страна: UK
Жанр: Rock, Progressive Rock
Продолжительность: 02:37:19
Описание: 1972 - Flash (ARC-8020/21) 0 CD1 SHM-CD / CD2 From Original LP 1. Small Beginnings 2. Morning Haze 3. Children Of The Universe 4. Dreams Of Heaven 5. The Time It Takes EACExact Audio Copy V1.0 beta 2 from 29. April 2011 EAC extraction logfile from 28. August 2011, 10:46 Flash / Flash Used drive : HL-DT-STDVDRAM GSA-H60N Adapter: 2 ID: 0 Read mode : Secure Utilize accurate stream : Yes Defeat audio cache : Yes Make use of C2 pointers : No Read offset corre ...

16
сен
2012

Montrose: 4 Albums Mini LP SHM-CD [2012, Rock, Hard Rock, FLAC]

Формат: FLAC, (image+ .cue), lossless
Год выпуска: 2012
Страна: USA
Жанр: Rock, Hard Rock
Продолжительность: 02:16:26
Описание: 1973 - Montrose 00
Трeклист: 01. Rock The Nation 03:04 02. Bad Motor Scooter 03:44 03. Space Station # 5 05:17 04. I Don't Want It 02:58 05. Good Rockin' Tonight 02:58 06. Rock Candy 05:05 07. One Thing On My Mind 03:41 08. Make It Last 05:32Log EACExact Audio Copy V1.0 beta 3 from 29. August 2011 EAC extraction logfile from 14. September 2012, 17:54 Montrose / Montrose Used drive : HL-DT-STDVDRAM GSA-H60N Adapter: 2 ID: 0 Read mode : Secure Utilize acc ...

08
янв
2016

Montrose - 4 Albums Mini LP SHM-CD (Jараnеse Еditiоn) [2012, Hard Rock, MP3]

Формат: MP3, tracks, 320kbps
Год выпуска: 2012
Страна: USA
Жанр: Hard Rock
Продолжительность: 02:16:26
Описание: 1973 - Montrose 0001. Rock The Nation 03:04 02. Bad Motor Scooter 03:44 03. Space Station # 5 05:17 04. I Don't Want It 02:58 05. Good Rockin' Tonight 02:58 06. Rock Candy 05:05 07. One Thing On My Mind 03:41 08. Make It Last 05:321974 - Paper Money 0001. Underground 03:38 02. Connection 05:44 03. The Dreamer 04:07 04. Starliner 03:41 05. I Got The Fire 03:10 06. Spaceage Sacrifice 04:58 07. We're Going Home 04:54 08. Paper Money 04:591975 - Warner Bros. Presents Montr ...

21
мая
2013

Zebra - 4 Albums Mini LP SHM-CD 1983-90 [2013, Rock, Hard Rock, Arena Rock, FLAC]

Формат: FLAC, (image + .cue), lossless
Год выпуска: 2013
Страна: USA
Жанр: Rock, Hard Rock, Arena Rock
Продолжительность: 03:09:13
Описание: 1983 - Zebra 00
Трeклист: 01. Tell Me What You Want 03:51 02. One More Chance 03:16 03. Slow Down 03:30 04. As I Said Before 02:56 05. Who's Behind The Door? 05:16 06. When You Get There 02:9 07. Take Your Fingers From My Hair 07:20 08. Don't Walk Away 03:35 09. The La La Song 06:13 Log EACExact Audio Copy V1.0 beta 3 from 29. August 2011 EAC extraction logfile from 16. May 2013, 20:50 Zebra / Zebra Used drive : PLEXTOR BD-R PX-B950SA Adapt ...

29
июн
2011

Uriah Heep - 16 Albums (Mini LP SHM-CD 2011) [1970-83, Hard Rock, Classic Rock, FLAC]

Формат: FLAC, (image + .cue), lossless
Год выпуска: 1970-83
Страна: England
Жанр: Hard Rock, Classic Rock
Продолжительность: 20:12:34
Описание: 1970 ...Very 'Eavy Very 'Umble... (UICY-94721 / Copy No. 2355) 01 01. Gypsy 02. Walking In Your Shadow 03. Come Away Melinda 04. Lucy Blues 05. Dreammare 06. Real Turned On 07. I'll Keep On Trying 08. Wake Up (Set Your Sights) Bonus 09. Bird Of Prey (US Album Version) 10. Born In A Trunk (Mix 3 / Previously Unreleased Vocal Version) 11. Come Away Melinda (Previously Unreleased Version) 12. Gypsy (Extended Mix / Previously Unreleased Vers ...

06
авг
2017

Sting - 6 Album (Mini LP SHM-CD 1985-96) [2017, Rock / Pop Rock, Soft Rock, Jazz Rock, FLAC]

Формат: FLAC, (image + .cue), lossless
Год выпуска: 2017
Страна: UK
Жанр: Rock / Pop Rock, Soft Rock, Jazz Rock
Продолжительность: 05:33:14
Описание: 1985 The Dream Of The Blue Turtles 00 01. If You Love Somebody Set Them Free 02. Love Is The Seventh Wave 03. Russians 04. Children's Crusade 05. Shadows In The Rain 06. We Work The Black Seam 07. Consider Me Gone 08. The Dream Of The Blue Turtles 09. Moon Over Bourbon Street 10. Fortress Around Your Heart Video If You Love Somebody Set Them Free Video
Видео: QuickTime 320x240 (4:3) 15 fps 1473 Kbps 1.278 bit/pixel
Аудио: ADPCM 44,1Hz 1 ch 352, ...

13
июл
2013

Pablo Cruise - Collection (7 Albums Mini LP SHM-CD 1975-1983) [2013, Rock, Soft Rock, Pop Rock, Disco, Fusion, Arena Rock, FLAC]

Формат: FLAC, (image + .cue), lossless
Год выпуска: 1975-1983
Страна: USA
Жанр: Rock, Soft Rock, Pop Rock, Disco, Fusion, Arena Rock
Продолжительность: 04:39:13
Описание: 1975 - Pablo Cruise 00
Трeклист: 01. Island Woman 05:03 02. Denny 03:03 03. Sleeping Dogs 03:59 04. What Does It Take 04:52 05. Rock N' Roller 05:22 06. Not Tonight 03:03 07. In My Own Quiet Way 04:14 08. Ocean Breeze 12:23Log EACExact Audio Copy V1.0 beta 3 from 29. August 2011 EAC extraction logfile from 11. July 2013, 19:27 Pablo Cruise / Pablo Cruise Used drive : PLEXTOR BD-R PX-B950SA Adapter: 6 ID: 0 Rea ...

13
мая
2012

Earth Wind Fire - 15 Albums Japan Mini LP Blu-spec CD, DSD Mastering [2012, Soul, R B, Funk, Jazz Fusion, Rock, FLAC]

Формат: FLAC, (image + .cue), lossless
Год выпуска: 2012
Страна: USA
Жанр: Soul, R&B, Funk, Jazz Fusion, Rock
Продолжительность: 10:13:37
Описание: 1972 Last Days And Time 00 01. Time Is On Your Side 02. Interlude #1 03. They Don't See 04. Interlude #2 05. Make It With You 06. Power 07. Remember The Children 08. Interlude #3 09. Where Have All The Flowers Gone 10. I'd Rather Have You 11. Mom EACExact Audio Copy V1.0 beta 3 from 29. August 2011 EAC extraction logfile from 14. April 2012, 20:12 Earth Wind & Fire / Last Days And Times Used drive : HL-DT-STDVDRAM GSA-H60N Adapter: 2 ID: 0 Rea ...

08
фев
2013

Ange - Mini LP SHM-CD Collection (7 Albums 24 Bit Remaster 2012) - 2013 [1972-1978, Rock, Progressive Rock, Space Rock, FLAC]

Формат: FLAC, (image+ .cue), lossless
Год выпуска: 1972-1978
Страна: France
Жанр: Rock, Progressive Rock, Space Rock
Продолжительность: 05:17:20
Описание: 1972 - Caricatures + 4 (00Трeклист: 01. Biafra 80 'Introduction' 02:56 02. Tels Quels 06:56 03. Dignite 09:34 04. Le Soir Du Diable 04:38 05. Caricatures 13:45 06. Biafra 80 'Final' 02:26 Bonus Tracks (Mono): 07. Tout Feu, Tout Flamme 03:57 08. Docteur Man 03:59 09. Le Soleil Est Trop Vert 04:07 10. Le Vieux De La Montagne 04:07Log EACExact Audio Copy V1.0 beta 3 from 29. August 2011 EAC extraction logfile from 6. February 2013, ...

17
фев
2012

Alice Cooper - Collections (12 Albums Warner Music Japan Mini LP SHM-CD) Remastering 2011 [1969-1978, Hard Rock, FLAC]

Формат: FLAC, (image + .cue), lossless
Год выпуска: 1969-1978
Страна: USA
Жанр: Hard Rock
Продолжительность: 08:52:31
Описание: 1969 - Pretties For You (00
Трeклист: 01. Titanic Overture 01:12 02. 10 Minutes Before The Worm 01:39 03. Sing Low, Sweet Cheerio 05:42 04. Today Mueller 01:48 05. Living 03:12 06. Fields Of Regret 05:45 07. No Longer Umpire 02:02 08. Levity Ball (Live At The Cheetah) 04:39 09. B.B. On Mars 01:17 10. Reflected 03:17 11. Apple Bush 03:08 12. Earwigs To Eternity 01:19 13. Changing Arranging 03:03Log EACExact Audio Copy V1.0 beta 3 from 29. August 2011 EAC extraction ...

16
фев
2012

Y&T (Yesterday & Today) - Collections (7CD Universal Music Japan Mini LP SHM-CD 2011) Remastering 2006 [1981-1990, Hard Rock, FLAC]

Формат: FLAC, (image + .cue), lossless
Год выпуска: 1981-1990
Страна: USA
Жанр: Hard Rock
Продолжительность: 05:17:33
Описание: 1981 - Earthshaker (00
Трeклист: 01. Hungry For Rock 03:46 02. Dirty Girl 05:06 03. Shake It Loose 02:54 04. Squeeze 04:03 05. Rescue Me 04:43 06. Young And Tough 03:47 07. Hurricane 03:23 08. Let Me Go 03:11 09. Knock You Out 02:58 10. I Believe In You 07:13Log EACExact Audio Copy V1.0 beta 3 from 29. August 2011 EAC extraction logfile from 31. January 2012, 21:19 Y&T / Earthshaker Used drive : HL-DT-STDVDRAM GSA-H60N Adapter: 2 ID: 0 Read mode : Secure Utilize ...

12
апр
2015

Van Der Graaf Generator - Albums Collection 1970-1977 (7 Mini LP Platinum SHM-CD) [2015, Rock, Progressive Rock, Flac]

Формат: Flac, (image + .cue), lossless
Год выпуска: 2015
Страна: USA
Жанр: Rock, Progressive Rock
Продолжительность: 07:07:22
Описание: 1970 - The Least We Can Do Is Wave To Each Other (00 01. Darkness (11/11) 07:27 02. Refugees 06:22 03. White Hammer 08:18 04. Whatever Would Robert Have Said? 06:07 05. Out Of My Book 04:07 06. After The Flood 11:37 Bonus Tracks: 07. Boat Of Millions Of Years 03:54 08. Refugees (Single Version) 05:27Log EACExact Audio Copy V1.0 beta 4 from 7. December 2014 EAC extraction logfile from 8. April 2015, 17:09 Van Der Graaf Generator / The Least We Can Do Is Wav ...