14
фев
2018

VA The Perfect Blues Collection 25 Original Albums (25CD Box Set) [2011, Blues, Flac]

VA The Perfect Blues Collection 25 Original Albums (25CD Box Set)

Формат: Flac, (image+ .cue), lossless
Год выпуска: 2011
Страна: USA
Жанр: Blues
Продолжительность: 18:49:52

Описание:

CD 01 • Bessie Smith - The Bessie Smith Story Vol. 1 (1951) 00
VA The Perfect Blues Collection 25 Original Albums
01. The St. Louis Blues (3:12)
02. I Ain't Goin' to Play Second Fiddle (3:24)
03. You've Been a Good Ole Wagon (3:30)
04. Sobbin' Hearted Blues (3:02)
05. Reckless Blues (3:05)
06. J.C. Holmes Blues (3:05)
07. Careless Love Blues (3:27)
08. Cold In Hand Blues (3:14)
09. Nashville Woman's Blues (3:45)
10. Jail-House Blues (3:16)
11. Ticket Agent, Ease Your Window Down (3:20)
12. Down Hearted Blues (3:28)
Log EAC
Exact Audio Copy V0.99 prebeta 5 from 4. May 2009

Отчёт EAC об извлечении, выполненном 31. марта 2012, 10:04

Bessie Smith / The Bessie Smith Story Vol. 1

Дисковод: PIONEER DVD-RW DVR-218L Adapter: 0 ID: 0

Режим чтения : Достоверность
Использование точного потока : Да
Отключение кэша аудио : Да
Использование указателей C2 : Нет

Коррекция смещения при чтении : 6
Способность читать области Lead-in и Lead-out : Нет
Заполнение пропущенных сэмплов тишиной : Да
Удаление блоков с тишиной в начале и конце : Нет
При вычислениях CRC использовались нулевые сэмплы : Да
Интерфейс : Встроенный Win32-интерфейс для Win NT/2000

Выходной формат : Пользовательский кодировщик
Выбранный битрейт : 128 kBit/s
Качество : Высокий
Добавление ID3-тэга : Нет
Утилита сжатия : C:Program Files (x86)Exact Audio CopyFlacflac.exe
Дополнительные параметры : -5 -V -T "ARTIST=%a" -T "TITLE=%t" -T "ALBUM=%g" -T "DATE=%y" -T "TRACKNUMBER=%n" -T "GENRE=%m" -T "COMMENT=EAC FLAC -5" %s

TOC извлечённого CD

Трек | Старт | Длительность | Начальный сектор | Конечный сектор
---------------------------------------------------------------------
1 | 0:00.00 | 3:12.30 | 0 | 14429
2 | 3:12.30 | 3:23.60 | 14430 | 29714
3 | 6:36.15 | 3:30.25 | 29715 | 45489
4 | 10:06.40 | 3:02.09 | 45490 | 59148
5 | 13:08.49 | 3:05.37 | 59149 | 73060
6 | 16:14.11 | 3:05.29 | 73061 | 86964
7 | 19:19.40 | 3:27.31 | 86965 | 102520
8 | 22:46.71 | 3:14.24 | 102521 | 117094
9 | 26:01.20 | 3:45.31 | 117095 | 134000
10 | 29:46.51 | 3:16.14 | 134001 | 148714
11 | 33:02.65 | 3:20.33 | 148715 | 163747
12 | 36:23.23 | 3:28.13 | 163748 | 179360

Характеристики диапазона извлечения и сообщения об ошибках

Выбранный диапазон

Имя файла F:_МУЗЫКАThe Perfect Blues Collection 25 Original Albums (Box Set 25 CD's)01 Bessie Smith - The Bessie Smith Story (1951)1951 The Bessie Smith Story Vol. 1.wav

Пиковый уровень 98.8 %
Качество диапазона 100.0 %
CRC теста D5B7A78F
CRC копии D5B7A78F
Копирование... OK

Ошибок не произошло

AccurateRip: сводка

Трек 1 точное извлечение (доверие 3) [94DD7DAE]
Трек 2 точное извлечение (доверие 3) [D30627F4]
Трек 3 точное извлечение (доверие 3) [4791AA62]
Трек 4 точное извлечение (доверие 3) [04C7EB6E]
Трек 5 точное извлечение (доверие 3) [C04A0D93]
Трек 6 точное извлечение (доверие 3) [F693FC3D]
Трек 7 точное извлечение (доверие 3) [52E31CCC]
Трек 8 точное извлечение (доверие 3) [1D07C85D]
Трек 9 точное извлечение (доверие 3) [E81C6D8F]
Трек 10 точное извлечение (доверие 3) [77B3A87B]
Трек 11 точное извлечение (доверие 3) [A16D672F]
Трек 12 точное извлечение (доверие 3) [770156CC]

Все треки извлечены точно

Конец отчёта
CD 02 • Big Bill Broonzy - Big Bill Blues (1954) 00
VA The Perfect Blues Collection 25 Original Albums
01. Big Bill Blues (3:33)
02. Hey Hey Baby (3:39)
03. Feelin' Low Down (4:41)
04. House Rent Stomp (3:18)
05. Make My Gateway (3:47)
06. John Henry (Alternative take) (3:03)
07. Feelin' Low Down (Alternative take) (3:26)
08. Black Brown & White (3:10)
09. Blues In 1890 (3:40)
10. Willie Mae Blues (2:36)
11. Guitar Shuffle (3:30)
12. In The Evening (4:48)
13. What I Used To Do (3:15)
14. Lonesome Road Blues (3:18)
Log EAC
Exact Audio Copy V0.99 prebeta 5 from 4. May 2009

Отчёт EAC об извлечении, выполненном 31. марта 2012, 11:02

Big Bill Broonzy / Big Bill Blues

Дисковод: PIONEER DVD-RW DVR-218L Adapter: 0 ID: 0

Режим чтения : Достоверность
Использование точного потока : Да
Отключение кэша аудио : Да
Использование указателей C2 : Нет

Коррекция смещения при чтении : 6
Способность читать области Lead-in и Lead-out : Нет
Заполнение пропущенных сэмплов тишиной : Да
Удаление блоков с тишиной в начале и конце : Нет
При вычислениях CRC использовались нулевые сэмплы : Да
Интерфейс : Встроенный Win32-интерфейс для Win NT/2000

Выходной формат : Пользовательский кодировщик
Выбранный битрейт : 128 kBit/s
Качество : Высокий
Добавление ID3-тэга : Нет
Утилита сжатия : C:Program Files (x86)Exact Audio CopyFlacflac.exe
Дополнительные параметры : -5 -V -T "ARTIST=%a" -T "TITLE=%t" -T "ALBUM=%g" -T "DATE=%y" -T "TRACKNUMBER=%n" -T "GENRE=%m" -T "COMMENT=EAC FLAC -5" %s

TOC извлечённого CD

Трек | Старт | Длительность | Начальный сектор | Конечный сектор
---------------------------------------------------------------------
1 | 0:00.00 | 3:33.29 | 0 | 16003
2 | 3:33.29 | 3:39.33 | 16004 | 32461
3 | 7:12.62 | 4:41.14 | 32462 | 53550
4 | 11:54.01 | 3:17.58 | 53551 | 68383
5 | 15:11.59 | 3:47.15 | 68384 | 85423
6 | 18:58.74 | 3:02.58 | 85424 | 99131
7 | 22:01.57 | 3:25.72 | 99132 | 114578
8 | 25:27.54 | 3:09.62 | 114579 | 128815
9 | 28:37.41 | 3:40.29 | 128816 | 145344
10 | 32:17.70 | 2:35.40 | 145345 | 157009
11 | 34:53.35 | 3:29.42 | 157010 | 172726
12 | 38:23.02 | 4:47.51 | 172727 | 194302
13 | 43:10.53 | 3:15.28 | 194303 | 208955
14 | 46:26.06 | 3:17.50 | 208956 | 223780

Характеристики диапазона извлечения и сообщения об ошибках

Выбранный диапазон

Имя файла F:_МУЗЫКАThe Perfect Blues Collection 25 Original Albums (Box Set 25 CD's)02 Big Bill Broonzy - Big Bill Blues (1954)1954 Big Bill Blues.wav

Пиковый уровень 100.0 %
Качество диапазона 100.0 %
CRC теста 34C37CFD
CRC копии 34C37CFD
Копирование... OK

Ошибок не произошло

AccurateRip: сводка

Трек 1 точное извлечение (доверие 3) [A093F716]
Трек 2 точное извлечение (доверие 3) [5D13D65F]
Трек 3 точное извлечение (доверие 3) [9B54C2B6]
Трек 4 точное извлечение (доверие 3) [96670B31]
Трек 5 точное извлечение (доверие 3) [D439C961]
Трек 6 точное извлечение (доверие 3) [ED9C2B25]
Трек 7 точное извлечение (доверие 3) [6A9FEF00]
Трек 8 точное извлечение (доверие 3) [284355AA]
Трек 9 точное извлечение (доверие 3) [F6F10B73]
Трек 10 точное извлечение (доверие 3) [7E536BFD]
Трек 11 точное извлечение (доверие 3) [0047F9E1]
Трек 12 точное извлечение (доверие 3) [5BB4E2F9]
Трек 13 точное извлечение (доверие 3) [22330537]
Трек 14 точное извлечение (доверие 3) [0A7E2F6D]

Все треки извлечены точно

Конец отчёта
CD 03 • Little Richard - Little Richard (1958) 00
VA The Perfect Blues Collection 25 Original Albums
01. Ain't nothin' happenin' (2:12)
02. Why did you leave me ? (2:33)
03. Every hour (2:53)
04. I brought it all on myself (2:54)
05. Taxi blues (2:18)
06. Get rich quick (2:16)
07. Please have mercy on me (2:32)
08. Thinkin' about my mother (2:54)
09. Crazy lips (2:38)
10. Any hour (2:39)
11. Hey operator (2:37)
12. That's a lot of brass (2:33)
Log EAC
Exact Audio Copy V0.99 prebeta 5 from 4. May 2009

Отчёт EAC об извлечении, выполненном 31. марта 2012, 11:52

Little Richard / Little Richard

Дисковод: PIONEER DVD-RW DVR-218L Adapter: 0 ID: 0

Режим чтения : Достоверность
Использование точного потока : Да
Отключение кэша аудио : Да
Использование указателей C2 : Нет

Коррекция смещения при чтении : 6
Способность читать области Lead-in и Lead-out : Нет
Заполнение пропущенных сэмплов тишиной : Да
Удаление блоков с тишиной в начале и конце : Нет
При вычислениях CRC использовались нулевые сэмплы : Да
Интерфейс : Встроенный Win32-интерфейс для Win NT/2000

Выходной формат : Пользовательский кодировщик
Выбранный битрейт : 128 kBit/s
Качество : Высокий
Добавление ID3-тэга : Нет
Утилита сжатия : C:Program Files (x86)Exact Audio CopyFlacflac.exe
Дополнительные параметры : -5 -V -T "ARTIST=%a" -T "TITLE=%t" -T "ALBUM=%g" -T "DATE=%y" -T "TRACKNUMBER=%n" -T "GENRE=%m" -T "COMMENT=EAC FLAC -5" %s

TOC извлечённого CD

Трек | Старт | Длительность | Начальный сектор | Конечный сектор
---------------------------------------------------------------------
1 | 0:00.00 | 2:12.25 | 0 | 9924
2 | 2:12.25 | 2:33.32 | 9925 | 21431
3 | 4:45.57 | 2:53.11 | 21432 | 34417
4 | 7:38.68 | 2:54.18 | 34418 | 47485
5 | 10:33.11 | 2:18.25 | 47486 | 57860
6 | 12:51.36 | 2:16.12 | 57861 | 68072
7 | 15:07.48 | 2:32.03 | 68073 | 79475
8 | 17:39.51 | 2:54.32 | 79476 | 92557
9 | 20:34.08 | 2:37.68 | 92558 | 104400
10 | 23:12.01 | 2:39.11 | 104401 | 116336
11 | 25:51.12 | 2:37.17 | 116337 | 128128
12 | 28:28.29 | 2:33.19 | 128129 | 139622

Характеристики диапазона извлечения и сообщения об ошибках

Выбранный диапазон

Имя файла F:_МУЗЫКАThe Perfect Blues Collection 25 Original Albums (Box Set 25 CD's)03 Little Richard - Little Richard (1958)1958 Little Richard.wav

Пиковый уровень 98.8 %
Качество диапазона 100.0 %
CRC теста 25B65374
CRC копии 25B65374
Копирование... OK

Ошибок не произошло

AccurateRip: сводка

Трек 1 точное извлечение (доверие 3) [E9DE6D19]
Трек 2 точное извлечение (доверие 3)
Трек 3 точное извлечение (доверие 3) [8CE7BD49]
Трек 4 точное извлечение (доверие 3) [DECE9FE3]
Трек 5 точное извлечение (доверие 3) [2BEB3583]
Трек 6 точное извлечение (доверие 3) [426565DB]
Трек 7 точное извлечение (доверие 3) [D3037926]
Трек 8 точное извлечение (доверие 3) [6A5AAA89]
Трек 9 точное извлечение (доверие 3) [5743B2F9]
Трек 10 точное извлечение (доверие 3) [AB6020DB]
Трек 11 точное извлечение (доверие 3) [DE74FF1B]
Трек 12 точное извлечение (доверие 3) [C8AC46CA]

Все треки извлечены точно

Конец отчёта
CD 04 • Mahalia Jackson - Live at Newport '58 (1958) 00
VA The Perfect Blues Collection 25 Original Albums
01. An Evening Prayer (3:23)
02. I'm On My Way Live (3:31)
03. A City Called Heaven Live (3:53)
04. It Don't Cost Very Much (3:21)
05. Walk Over God's Heaven Live (3:07)
06. The Lord's Prayer Live (3:50)
07. Didn't It Rain Live (3:08)
08. My God Is Real (Yes, God Is Real) (3:46)
09. He's Got The Whole World In Hishands (2:42)
10. I'm Going To Live The Life I Singabout In My Song (4:08)
11. Joshua Fit The Battle Of Jericho (2:35)
12. His Eye Is On The Sparrow (4:38)
Log EAC
Exact Audio Copy V0.99 prebeta 5 from 4. May 2009

Отчёт EAC об извлечении, выполненном 31. марта 2012, 12:43

Mahalia Jackson / Live at Newport 1958

Дисковод: PIONEER DVD-RW DVR-218L Adapter: 0 ID: 0

Режим чтения : Достоверность
Использование точного потока : Да
Отключение кэша аудио : Да
Использование указателей C2 : Нет

Коррекция смещения при чтении : 6
Способность читать области Lead-in и Lead-out : Нет
Заполнение пропущенных сэмплов тишиной : Да
Удаление блоков с тишиной в начале и конце : Нет
При вычислениях CRC использовались нулевые сэмплы : Да
Интерфейс : Встроенный Win32-интерфейс для Win NT/2000

Выходной формат : Пользовательский кодировщик
Выбранный битрейт : 128 kBit/s
Качество : Высокий
Добавление ID3-тэга : Нет
Утилита сжатия : C:Program Files (x86)Exact Audio CopyFlacflac.exe
Дополнительные параметры : -5 -V -T "ARTIST=%a" -T "TITLE=%t" -T "ALBUM=%g" -T "DATE=%y" -T "TRACKNUMBER=%n" -T "GENRE=%m" -T "COMMENT=EAC FLAC -5" %s

TOC извлечённого CD

Трек | Старт | Длительность | Начальный сектор | Конечный сектор
---------------------------------------------------------------------
1 | 0:00.32 | 3:23.03 | 32 | 15259
2 | 3:23.35 | 3:31.07 | 15260 | 31091
3 | 6:54.42 | 3:52.65 | 31092 | 48556
4 | 10:47.32 | 3:21.25 | 48557 | 63656
5 | 14:08.57 | 3:06.58 | 63657 | 77664
6 | 17:15.40 | 3:50.07 | 77665 | 94921
7 | 21:05.47 | 3:07.60 | 94922 | 109006
8 | 24:13.32 | 3:45.40 | 109007 | 125921
9 | 27:58.72 | 2:42.08 | 125922 | 138079
10 | 30:41.05 | 4:08.07 | 138080 | 156686
11 | 34:49.12 | 2:34.50 | 156687 | 168286
12 | 37:23.62 | 4:37.45 | 168287 | 189106

Характеристики диапазона извлечения и сообщения об ошибках

Выбранный диапазон

Имя файла F:_МУЗЫКАThe Perfect Blues Collection 25 Original Albums (Box Set 25 CD's)04 Mahalia Jackson - Live at Newport '58 (1958)1958 Live at Newport '58.wav

Пиковый уровень 99.5 %
Качество диапазона 100.0 %
CRC теста 224A958A
CRC копии 224A958A
Копирование... OK

Ошибок не произошло

AccurateRip: сводка

Трек 1 точное извлечение (доверие 3) [C4A9DFDD]
Трек 2 точное извлечение (доверие 3) [72015F95]
Трек 3 точное извлечение (доверие 3) [6770C21E]
Трек 4 точное извлечение (доверие 3) [8AFB2F5E]
Трек 5 точное извлечение (доверие 3) [82FE8BC4]
Трек 6 точное извлечение (доверие 2) [36EDD759]
Трек 7 точное извлечение (доверие 3)
Трек 8 точное извлечение (доверие 3) [7C84AFDA]
Трек 9 точное извлечение (доверие 3) [FE390F23]
Трек 10 точное извлечение (доверие 3) [90F2068B]
Трек 11 точное извлечение (доверие 3) [E2F6A7F2]
Трек 12 точное извлечение (доверие 3) [D31C7963]

Все треки извлечены точно

Конец отчёта
CD 05 • Chuck Willis - Wails the Blues (1958) 00
VA The Perfect Blues Collection 25 Original Albums
01. My Story (3:16)
02. I Feel So Bad (2:55)
03. You're Still My Baby (3:13)
04. Lawdy Miss Mary (2:12)
05. Need One More Chance (3:00)
06. Caldonia (What Makes Your Big Head So Hard?) (2:26)
07. Don't Deceive Me (3:05)
08. One More Break (2:34)
09. I Can Tell (2:56)
10. Search My Heart (2:22)
11. Love-Struck (2:23)
12. Charged With Cheating (3:02)
Log EAC
Exact Audio Copy V0.99 prebeta 5 from 4. May 2009

Отчёт EAC об извлечении, выполненном 31. марта 2012, 13:31

Chuck Willis / Wails The Blues

Дисковод: PIONEER DVD-RW DVR-218L Adapter: 0 ID: 0

Режим чтения : Достоверность
Использование точного потока : Да
Отключение кэша аудио : Да
Использование указателей C2 : Нет

Коррекция смещения при чтении : 6
Способность читать области Lead-in и Lead-out : Нет
Заполнение пропущенных сэмплов тишиной : Да
Удаление блоков с тишиной в начале и конце : Нет
При вычислениях CRC использовались нулевые сэмплы : Да
Интерфейс : Встроенный Win32-интерфейс для Win NT/2000

Выходной формат : Пользовательский кодировщик
Выбранный битрейт : 128 kBit/s
Качество : Высокий
Добавление ID3-тэга : Нет
Утилита сжатия : C:Program Files (x86)Exact Audio CopyFlacflac.exe
Дополнительные параметры : -5 -V -T "ARTIST=%a" -T "TITLE=%t" -T "ALBUM=%g" -T "DATE=%y" -T "TRACKNUMBER=%n" -T "GENRE=%m" -T "COMMENT=EAC FLAC -5" %s

TOC извлечённого CD

Трек | Старт | Длительность | Начальный сектор | Конечный сектор
---------------------------------------------------------------------
1 | 0:00.00 | 3:15.43 | 0 | 14667
2 | 3:15.43 | 2:55.03 | 14668 | 27795
3 | 6:10.46 | 3:12.70 | 27796 | 42265
4 | 9:23.41 | 2:11.50 | 42266 | 52140
5 | 11:35.16 | 3:00.10 | 52141 | 65650
6 | 14:35.26 | 2:26.03 | 65651 | 76603
7 | 17:01.29 | 3:04.40 | 76604 | 90443
8 | 20:05.69 | 2:33.40 | 90444 | 101958
9 | 22:39.34 | 2:55.55 | 101959 | 115138
10 | 25:35.14 | 2:21.40 | 115139 | 125753
11 | 27:56.54 | 2:22.72 | 125754 | 136475
12 | 30:19.51 | 3:02.00 | 136476 | 150125

Характеристики диапазона извлечения и сообщения об ошибках

Выбранный диапазон

Имя файла F:_МУЗЫКАThe Perfect Blues Collection 25 Original Albums (Box Set 25 CD's)05 Chuck Willis - Wails the Blues (1958)1958 Wails The Blues.wav

Пиковый уровень 100.0 %
Качество диапазона 99.9 %
CRC теста 0CA2B2D8
CRC копии 0CA2B2D8
Копирование... OK

Ошибок не произошло

AccurateRip: сводка

Трек 1 точное извлечение (доверие 3) [6AB48417]
Трек 2 точное извлечение (доверие 3) [E696EA9D]
Трек 3 точное извлечение (доверие 3) [02EAD76F]
Трек 4 точное извлечение (доверие 3) [A6A7F9C8]
Трек 5 точное извлечение (доверие 3) [074879F7]
Трек 6 точное извлечение (доверие 3) [A4DDFA16]
Трек 7 точное извлечение (доверие 3) [C74E2074]
Трек 8 точное извлечение (доверие 3) [69F68239]
Трек 9 точное извлечение (доверие 3) [3A34AD64]
Трек 10 точное извлечение (доверие 3) [0E02552A]
Трек 11 точное извлечение (доверие 3) [FE7DF8C5]
Трек 12 точное извлечение (доверие 3) [10C33AD9]

Все треки извлечены точно

Конец отчёта
CD 06 • Elvis Presley - For LP Fans Only (1959) 00
VA The Perfect Blues Collection 25 Original Albums
01. That's All Right (1:59)
02. Lawdy Miss Clawdy (2:10)
03. Mystery Train (2:30)
04. Playing for Keeps (2:54)
05. Poor Boy (2:16)
06. My Baby Left Me (2:16)
07. I Was the One (2:35)
08. Shake Rattle and Roll (2:29)
09. I'm Left You're Right She's Gone (2:39)
10. You're a Heartbreaker (2:11)
Log EAC
Exact Audio Copy V0.99 prebeta 5 from 4. May 2009

Отчёт EAC об извлечении, выполненном 31. марта 2012, 14:14

Elvis Presley / For LP Fans Only

Дисковод: PIONEER DVD-RW DVR-218L Adapter: 0 ID: 0

Режим чтения : Достоверность
Использование точного потока : Да
Отключение кэша аудио : Да
Использование указателей C2 : Нет

Коррекция смещения при чтении : 6
Способность читать области Lead-in и Lead-out : Нет
Заполнение пропущенных сэмплов тишиной : Да
Удаление блоков с тишиной в начале и конце : Нет
При вычислениях CRC использовались нулевые сэмплы : Да
Интерфейс : Встроенный Win32-интерфейс для Win NT/2000

Выходной формат : Пользовательский кодировщик
Выбранный битрейт : 128 kBit/s
Качество : Высокий
Добавление ID3-тэга : Нет
Утилита сжатия : C:Program Files (x86)Exact Audio CopyFlacflac.exe
Дополнительные параметры : -5 -V -T "ARTIST=%a" -T "TITLE=%t" -T "ALBUM=%g" -T "DATE=%y" -T "TRACKNUMBER=%n" -T "GENRE=%m" -T "COMMENT=EAC FLAC -5" %s

TOC извлечённого CD

Трек | Старт | Длительность | Начальный сектор | Конечный сектор
---------------------------------------------------------------------
1 | 0:00.00 | 1:58.66 | 0 | 8915
2 | 1:58.66 | 2:10.36 | 8916 | 18701
3 | 4:09.27 | 2:29.41 | 18702 | 29917
4 | 6:38.68 | 2:54.08 | 29918 | 42975
5 | 9:33.01 | 2:16.28 | 42976 | 53203
6 | 11:49.29 | 2:15.60 | 53204 | 63388
7 | 14:05.14 | 2:35.05 | 63389 | 75018
8 | 16:40.19 | 2:29.22 | 75019 | 86215
9 | 19:09.41 | 2:38.54 | 86216 | 98119
10 | 21:48.20 | 2:11.12 | 98120 | 107956

Характеристики диапазона извлечения и сообщения об ошибках

Выбранный диапазон

Имя файла F:_МУЗЫКАThe Perfect Blues Collection 25 Original Albums (Box Set 25 CD's)06 Elvis Presley - For LP Fans Only (1959)1959 For LP Fans Only.wav

Пиковый уровень 100.0 %
Качество диапазона 100.0 %
CRC теста 1A4BC3FD
CRC копии 1A4BC3FD
Копирование... OK

Ошибок не произошло

AccurateRip: сводка

Трек 1 точное извлечение (доверие 3) [E7D77203]
Трек 2 точное извлечение (доверие 3) [E9716C63]
Трек 3 точное извлечение (доверие 3) [75D38604]
Трек 4 точное извлечение (доверие 3) [8EDC50DD]
Трек 5 точное извлечение (доверие 3) [00C85F59]
Трек 6 точное извлечение (доверие 3) [E57777F2]
Трек 7 точное извлечение (доверие 3) [9DB54BBC]
Трек 8 точное извлечение (доверие 3) [3449A83B]
Трек 9 точное извлечение (доверие 3) [C8C1B0E7]
Трек 10 точное извлечение (доверие 3) [EABB2B4D]

Все треки извлечены точно

Конец отчёта
CD 07 • Jimmy Witherspoon - In Person (1961) 00
VA The Perfect Blues Collection 25 Original Albums
01. I'll always be in love (4:01)
02. Gee, Baby ain't I good to you (3:48)
03. See See rider (4:12)
04. I make a lot of money (2:40)
05. Blowin' the blues (3:03)
06. Tain't nobody's business (4:40)
07. Everything you do is wrong (4:44)
08. Roll 'em pete (5:59)
Log EAC
Exact Audio Copy V0.99 prebeta 5 from 4. May 2009

Отчёт EAC об извлечении, выполненном 1. апреля 2012, 9:20

Jimmy Witherspoon / In Person

Дисковод: PIONEER DVD-RW DVR-218L Adapter: 0 ID: 0

Режим чтения : Достоверность
Использование точного потока : Да
Отключение кэша аудио : Да
Использование указателей C2 : Нет

Коррекция смещения при чтении : 6
Способность читать области Lead-in и Lead-out : Нет
Заполнение пропущенных сэмплов тишиной : Да
Удаление блоков с тишиной в начале и конце : Нет
При вычислениях CRC использовались нулевые сэмплы : Да
Интерфейс : Встроенный Win32-интерфейс для Win NT/2000

Выходной формат : Пользовательский кодировщик
Выбранный битрейт : 128 kBit/s
Качество : Высокий
Добавление ID3-тэга : Нет
Утилита сжатия : C:Program Files (x86)Exact Audio CopyFlacflac.exe
Дополнительные параметры : -5 -V -T "ARTIST=%a" -T "TITLE=%t" -T "ALBUM=%g" -T "DATE=%y" -T "TRACKNUMBER=%n" -T "GENRE=%m" -T "COMMENT=EAC FLAC -5" %s

TOC извлечённого CD

Трек | Старт | Длительность | Начальный сектор | Конечный сектор
---------------------------------------------------------------------
1 | 0:00.00 | 4:00.54 | 0 | 18053
2 | 4:00.54 | 3:48.04 | 18054 | 35157
3 | 7:48.58 | 4:12.25 | 35158 | 54082
4 | 12:01.08 | 2:40.07 | 54083 | 66089
5 | 14:41.15 | 3:02.48 | 66090 | 79787
6 | 17:43.63 | 4:39.61 | 79788 | 100773
7 | 22:23.49 | 4:43.55 | 100774 | 122053
8 | 27:07.29 | 5:58.63 | 122054 | 148966

Характеристики диапазона извлечения и сообщения об ошибках

Выбранный диапазон

Имя файла F:_МУЗЫКАThe Perfect Blues Collection 25 Original Albums (Box Set 25 CD's)07 Jimmy Witherspoon - In Person (1961)1961 In Person.wav

Пиковый уровень 98.8 %
Качество диапазона 100.0 %
CRC теста 6D2730E3
CRC копии 6D2730E3
Копирование... OK

Ошибок не произошло

AccurateRip: сводка

Трек 1 точное извлечение (доверие 3) [CB2E8B8A]
Трек 2 точное извлечение (доверие 3) [1758E97F]
Трек 3 точное извлечение (доверие 3) [F76D91A7]
Трек 4 точное извлечение (доверие 3) [578C05B3]
Трек 5 точное извлечение (доверие 3) [1EB577F3]
Трек 6 точное извлечение (доверие 3) [1C18EA65]
Трек 7 точное извлечение (доверие 3) [5114A87E]
Трек 8 точное извлечение (доверие 3) [10CA530B]

Все треки извлечены точно

Конец отчёта
CD 08 • Robert Johnson - King of the Delta Blues Singers (1961) 00
VA The Perfect Blues Collection 25 Original Albums
01. Cross Road Blues (2:31)
02. Terraplane Blues (3:03)
03. Come On In My Kitchen (2:54)
04. Walkin' Blues (2:32)
05. Last Fair Deal Gone Down (2:41)
06. 32-20 Blues (2:52)
07. Kind Hearted Woman Blues (2:53)
08. If I Had Possession Over Judgement Day (2:38)
09. Preachin' Blues (Up Jumped The Devil) (2:54)
10. When You Got A Good Friend (2:40)
11. Ramblin' On My Mind (2:53)
12. Stones In My Passway (2:30)
13. Traveling Riverside Blues (2:49)
14. Milkcow's Calf Blues (2:19)
15. Me And The Devil Blues (2:36)
16. Hell Hound On My Trail (2:40)
17. Traveling Riverside Blues (Previously Unreleased Alternate Take) (2:40)
Log EAC
Exact Audio Copy V0.99 prebeta 5 from 4. May 2009

Отчёт EAC об извлечении, выполненном 1. апреля 2012, 13:00

Robert Johnson / King Of The Delta Blues Singers

Дисковод: PIONEER DVD-RW DVR-218L Adapter: 0 ID: 0

Режим чтения : Достоверность
Использование точного потока : Да
Отключение кэша аудио : Да
Использование указателей C2 : Нет

Коррекция смещения при чтении : 6
Способность читать области Lead-in и Lead-out : Нет
Заполнение пропущенных сэмплов тишиной : Да
Удаление блоков с тишиной в начале и конце : Нет
При вычислениях CRC использовались нулевые сэмплы : Да
Интерфейс : Встроенный Win32-интерфейс для Win NT/2000

Выходной формат : Пользовательский кодировщик
Выбранный битрейт : 128 kBit/s
Качество : Высокий
Добавление ID3-тэга : Нет
Утилита сжатия : C:Program Files (x86)Exact Audio CopyFlacflac.exe
Дополнительные параметры : -5 -V -T "ARTIST=%a" -T "TITLE=%t" -T "ALBUM=%g" -T "DATE=%y" -T "TRACKNUMBER=%n" -T "GENRE=%m" -T "COMMENT=EAC FLAC -5" %s

TOC извлечённого CD

Трек | Старт | Длительность | Начальный сектор | Конечный сектор
---------------------------------------------------------------------
1 | 0:00.00 | 2:30.62 | 0 | 11311
2 | 2:30.62 | 3:03.25 | 11312 | 25061
3 | 5:34.12 | 2:53.50 | 25062 | 38086
4 | 8:27.62 | 2:32.20 | 38087 | 49506
5 | 11:00.07 | 2:40.65 | 49507 | 61571
6 | 13:40.72 | 2:52.08 | 61572 | 74479
7 | 16:33.05 | 2:52.72 | 74480 | 87451
8 | 19:26.02 | 2:37.48 | 87452 | 99274
9 | 22:03.50 | 2:53.65 | 99275 | 112314
10 | 24:57.40 | 2:40.00 | 112315 | 124314
11 | 27:37.40 | 2:53.37 | 124315 | 137326
12 | 30:31.02 | 2:30.35 | 137327 | 148611
13 | 33:01.37 | 2:48.73 | 148612 | 161284
14 | 35:50.35 | 2:19.30 | 161285 | 171739
15 | 38:09.65 | 2:36.30 | 171740 | 183469
16 | 40:46.20 | 2:40.07 | 183470 | 195476
17 | 43:26.27 | 2:39.48 | 195477 | 207449

Характеристики диапазона извлечения и сообщения об ошибках

Выбранный диапазон

Имя файла F:_МУЗЫКАThe Perfect Blues Collection 25 Original Albums (Box Set 25 CD's)08 Robert Johnson - King of the Delta Blues Singers (1961)1961 King Of The Delta Blues Singers.wav

Пиковый уровень 98.9 %
Качество диапазона 100.0 %
CRC теста B3F6BAAB
CRC копии B3F6BAAB
Копирование... OK

Ошибок не произошло

AccurateRip: сводка

Трек 1 точное извлечение (доверие 3) [FE95A8B4]
Трек 2 точное извлечение (доверие 3) [743376F0]
Трек 3 точное извлечение (доверие 3) [C830B756]
Трек 4 точное извлечение (доверие 3) [04AE4A02]
Трек 5 точное извлечение (доверие 3) [8B120F98]
Трек 6 точное извлечение (доверие 3) [98806AE4]
Трек 7 точное извлечение (доверие 3) [39465DDA]
Трек 8 точное извлечение (доверие 3) [11C1DC9F]
Трек 9 точное извлечение (доверие 3) [6A82876C]
Трек 10 точное извлечение (доверие 3) [054E3C7A]
Трек 11 точное извлечение (доверие 3) [78C4FAB4]
Трек 12 точное извлечение (доверие 3) [8CDECE9B]
Трек 13 точное извлечение (доверие 3) [DCF8EE43]
Трек 14 точное извлечение (доверие 3) [E860C4AF]
Трек 15 точное извлечение (доверие 3) [2FA02722]
Трек 16 точное извлечение (доверие 3) [89D34B00]
Трек 17 точное извлечение (доверие 3) [8095FA9C]

Все треки извлечены точно

Конец отчёта
CD 09 • Sonny Boy Williamson - Sonny Boy Williamson & Memphis Slim (1964) 00
VA The Perfect Blues Collection 25 Original Albums
01. The Skies Are Crying (4:37)
02. Your Funeral And My Trial (4:07)
03. Explain Yourself To Me (4:40)
04. Nine Below Zero (3:40)
05. Fattening Frogs For Snakes (5:40)
06. My One Room Cabin (4:19)
07. Getting Out Of Town (5:32)
Log EAC
Exact Audio Copy V0.99 prebeta 5 from 4. May 2009

Отчёт EAC об извлечении, выполненном 1. апреля 2012, 14:05

Sonny Boy Williamson / Sonny Boy Williamson & Memphis Slim

Дисковод: PIONEER DVD-RW DVR-218L Adapter: 0 ID: 0

Режим чтения : Достоверность
Использование точного потока : Да
Отключение кэша аудио : Да
Использование указателей C2 : Нет

Коррекция смещения при чтении : 6
Способность читать области Lead-in и Lead-out : Нет
Заполнение пропущенных сэмплов тишиной : Да
Удаление блоков с тишиной в начале и конце : Нет
При вычислениях CRC использовались нулевые сэмплы : Да
Интерфейс : Встроенный Win32-интерфейс для Win NT/2000

Выходной формат : Пользовательский кодировщик
Выбранный битрейт : 128 kBit/s
Качество : Высокий
Добавление ID3-тэга : Нет
Утилита сжатия : C:Program Files (x86)Exact Audio CopyFlacflac.exe
Дополнительные параметры : -5 -V -T "ARTIST=%a" -T "TITLE=%t" -T "ALBUM=%g" -T "DATE=%y" -T "TRACKNUMBER=%n" -T "GENRE=%m" -T "COMMENT=EAC FLAC -5" %s

TOC извлечённого CD

Трек | Старт | Длительность | Начальный сектор | Конечный сектор
---------------------------------------------------------------------
1 | 0:00.00 | 4:37.10 | 0 | 20784
2 | 4:37.10 | 4:07.22 | 20785 | 39331
3 | 8:44.32 | 4:39.59 | 39332 | 60315
4 | 13:24.16 | 3:39.56 | 60316 | 76796
5 | 17:03.72 | 5:40.25 | 76797 | 102321
6 | 22:44.22 | 4:18.40 | 102322 | 121711
7 | 27:02.62 | 5:31.74 | 121712 | 146610

Характеристики диапазона извлечения и сообщения об ошибках

Выбранный диапазон

Имя файла F:_МУЗЫКАThe Perfect Blues Collection 25 Original Albums (Box Set 25 CD's)09 Sonny Boy Williamson - Sonny Boy Williamson & Memphis Slim (1964)1964 Sonny Boy Williamson & Memphis Slim.wav

Пиковый уровень 98.1 %
Качество диапазона 100.0 %
CRC теста 0E3399D4
CRC копии 0E3399D4
Копирование... OK

Ошибок не произошло

AccurateRip: сводка

Трек 1 точное извлечение (доверие 3) [FC916BFF]
Трек 2 точное извлечение (доверие 3) [320D9EC4]
Трек 3 точное извлечение (доверие 3) [D47D7A8F]
Трек 4 точное извлечение (доверие 3) [902DC68E]
Трек 5 точное извлечение (доверие 2) [9F5DACA2]
Трек 6 точное извлечение (доверие 3) [00D3CA64]
Трек 7 точное извлечение (доверие 3) [88E60A47]

Все треки извлечены точно

Конец отчёта
CD 10 • Aretha Franklin - Unforgettable
VA The Perfect Blues Collection 25 Original Albums
01. Unforgettable (3:43)
02. Cold, Cold Heart (4:38)
03. What a Diff'rence a Day Made (3:34)
04. Drinking Again (3:31)
05. Nobody Knows the Way I Feel This Morning (5:13)
06. Evil Gal Blues (2:43)
07. Don't Say You're Sorry Again (2:48)
08. This Bitter Earth (4:36)
09. If I Should Lose You (3:39)
10. Soulville (2:23)
11. Lee Cross (3:19)
Log EAC
Exact Audio Copy V0.99 prebeta 5 from 4. May 2009

Отчёт EAC об извлечении, выполненном 1. апреля 2012, 15:57

Aretha Franklin / Unforgettable: A Tribute to Dinah Washington

Дисковод: PIONEER DVD-RW DVR-218L Adapter: 0 ID: 0

Режим чтения : Достоверность
Использование точного потока : Да
Отключение кэша аудио : Да
Использование указателей C2 : Нет

Коррекция смещения при чтении : 6
Способность читать области Lead-in и Lead-out : Нет
Заполнение пропущенных сэмплов тишиной : Да
Удаление блоков с тишиной в начале и конце : Нет
При вычислениях CRC использовались нулевые сэмплы : Да
Интерфейс : Встроенный Win32-интерфейс для Win NT/2000

Выходной формат : Пользовательский кодировщик
Выбранный битрейт : 128 kBit/s
Качество : Высокий
Добавление ID3-тэга : Нет
Утилита сжатия : C:Program Files (x86)Exact Audio CopyFlacflac.exe
Дополнительные параметры : -5 -V -T "ARTIST=%a" -T "TITLE=%t" -T "ALBUM=%g" -T "DATE=%y" -T "TRACKNUMBER=%n" -T "GENRE=%m" -T "COMMENT=EAC FLAC -5" %s

TOC извлечённого CD

Трек | Старт | Длительность | Начальный сектор | Конечный сектор
---------------------------------------------------------------------
1 | 0:00.00 | 3:42.40 | 0 | 16689
2 | 3:42.40 | 4:37.42 | 16690 | 37506
3 | 8:20.07 | 3:33.55 | 37507 | 53536
4 | 11:53.62 | 3:30.48 | 53537 | 69334
5 | 15:24.35 | 5:13.05 | 69335 | 92814
6 | 20:37.40 | 2:42.67 | 92815 | 105031
7 | 23:20.32 | 2:47.53 | 105032 | 117609
8 | 26:08.10 | 4:36.25 | 117610 | 138334
9 | 30:44.35 | 3:39.10 | 138335 | 154769
10 | 34:23.45 | 2:23.25 | 154770 | 165519
11 | 36:46.70 | 3:18.72 | 165520 | 180441

Характеристики диапазона извлечения и сообщения об ошибках

Выбранный диапазон

Имя файла F:_МУЗЫКАThe Perfect Blues Collection 25 Original Albums (Box Set 25 CD's)10 Aretha Franklin - Unforgettable. A Tribute to Dinah Washington (1964)1964 Unforgettable. A Tribute to Dinah Washington.wav

Пиковый уровень 100.0 %
Качество диапазона 100.0 %
CRC теста BC36C528
CRC копии BC36C528
Копирование... OK

Ошибок не произошло

AccurateRip: сводка

Трек 1 точное извлечение (доверие 3) [D4928F79]
Трек 2 точное извлечение (доверие 3) [5FE2813B]
Трек 3 точное извлечение (доверие 3) [854A2884]
Трек 4 точное извлечение (доверие 3) [5DCB20A2]
Трек 5 точное извлечение (доверие 3) [AE915052]
Трек 6 точное извлечение (доверие 3) [7919AC58]
Трек 7 точное извлечение (доверие 3) [DFECAA07]
Трек 8 точное извлечение (доверие 3) [72BCFE57]
Трек 9 точное извлечение (доверие 3) [9185649F]
Трек 10 точное извлечение (доверие 3) [C9846BA8]
Трек 11 точное извлечение (доверие 3) [21096875]

Все треки извлечены точно

Конец отчёта
CD 11 • Son House - Father of Folk Blues (1965) 00
VA The Perfect Blues Collection 25 Original Albums
01. Death Letter (4:21)
02. Pearline (4:34)
03. Louise McGhee (6:14)
04. John The Revelator (2:32)
05. Empire State Express (3:41)
06. Preachin' Blues (5:46)
07. Grinning In Your Face (2:08)
08. Sundown (6:14)
09. Levee Camp Moan (9:28)
Log EAC
Exact Audio Copy V0.99 prebeta 5 from 4. May 2009

Отчёт EAC об извлечении, выполненном 1. апреля 2012, 15:01

Son House / Father of Folk Blues

Дисковод: PIONEER DVD-RW DVR-218L Adapter: 0 ID: 0

Режим чтения : Достоверность
Использование точного потока : Да
Отключение кэша аудио : Да
Использование указателей C2 : Нет

Коррекция смещения при чтении : 6
Способность читать области Lead-in и Lead-out : Нет
Заполнение пропущенных сэмплов тишиной : Да
Удаление блоков с тишиной в начале и конце : Нет
При вычислениях CRC использовались нулевые сэмплы : Да
Интерфейс : Встроенный Win32-интерфейс для Win NT/2000

Выходной формат : Пользовательский кодировщик
Выбранный битрейт : 128 kBit/s
Качество : Высокий
Добавление ID3-тэга : Нет
Утилита сжатия : C:Program Files (x86)Exact Audio CopyFlacflac.exe
Дополнительные параметры : -5 -V -T "ARTIST=%a" -T "TITLE=%t" -T "ALBUM=%g" -T "DATE=%y" -T "TRACKNUMBER=%n" -T "GENRE=%m" -T "COMMENT=EAC FLAC -5" %s

TOC извлечённого CD

Трек | Старт | Длительность | Начальный сектор | Конечный сектор
---------------------------------------------------------------------
1 | 0:00.00 | 4:21.20 | 0 | 19594
2 | 4:21.20 | 4:34.05 | 19595 | 40149
3 | 8:55.25 | 6:13.65 | 40150 | 68189
4 | 15:09.15 | 2:32.07 | 68190 | 79596
5 | 17:41.22 | 3:41.25 | 79597 | 96196
6 | 21:22.47 | 5:45.38 | 96197 | 122109
7 | 27:08.10 | 2:08.15 | 122110 | 131724
8 | 29:16.25 | 6:14.25 | 131725 | 159799
9 | 35:30.50 | 9:28.25 | 159800 | 202424

Характеристики диапазона извлечения и сообщения об ошибках

Выбранный диапазон

Имя файла F:_МУЗЫКАThe Perfect Blues Collection 25 Original Albums (Box Set 25 CD's)11 Son House - Father of Folk Blues (1965)1965 Father of Folk Blues.wav

Пиковый уровень 92.5 %
Качество диапазона 100.0 %
CRC теста FB0196FE
CRC копии FB0196FE
Копирование... OK

Ошибок не произошло

AccurateRip: сводка

Трек 1 точное извлечение (доверие 3) [9A4077B4]
Трек 2 точное извлечение (доверие 3) [2394243E]
Трек 3 точное извлечение (доверие 3) [3F57F058]
Трек 4 точное извлечение (доверие 3) [717E3E55]
Трек 5 точное извлечение (доверие 3) [A70C6C26]
Трек 6 точное извлечение (доверие 3) [F408CCE6]
Трек 7 точное извлечение (доверие 3) [13407DBB]
Трек 8 точное извлечение (доверие 3) [191494B7]
Трек 9 точное извлечение (доверие 3)

Все треки извлечены точно

Конец отчёта
CD 12 • Johnny Watson & Larry Williams - Two for the Price of One (1967) 00
VA The Perfect Blues Collection 25 Original Albums
01. Two For The Price Of One (3:23)
02. Keep On Lovin' You (2:43)
03. Ask Me (2:36)
04. Ain't Gonna Move (2:15)
05. Mercy, Mercy, Mercy (2:57)
06. Too Late (2:25)
07. Love Is Such A Funny Thing (2:44)
08. Takin' No Chances (2:15)
09. I'd Rather Fight Than Switch (2:55)
10. A Quitter Never Wins (2:44)
11. Nobody [bonus track] (2:37)
12. Find Yourself Someone To Love [bonus track] (2:04)
13. Fever [bonus track] (4:41)
14. Coke [bonus track] (2:16)
15. Unchained My Heart [bonus track] (3:16)
16. Comin' Home Baby [bonus track] (3:19)
17. Skate Key [bonus track] (2:28)
18. Summertime [bonus track] (3:10)
19. Makin' Whoopee [bonus track] (5:00)
20. Ain't Misbehavin' [bonus track] (3:18)
Log EAC
Exact Audio Copy V0.99 prebeta 5 from 4. May 2009

Отчёт EAC об извлечении, выполненном 1. апреля 2012, 16:39

Johnny Watson & Larry Williams / Two For The Price Of One

Дисковод: PIONEER DVD-RW DVR-218L Adapter: 0 ID: 0

Режим чтения : Достоверность
Использование точного потока : Да
Отключение кэша аудио : Да
Использование указателей C2 : Нет

Коррекция смещения при чтении : 6
Способность читать области Lead-in и Lead-out : Нет
Заполнение пропущенных сэмплов тишиной : Да
Удаление блоков с тишиной в начале и конце : Нет
При вычислениях CRC использовались нулевые сэмплы : Да
Интерфейс : Встроенный Win32-интерфейс для Win NT/2000

Выходной формат : Пользовательский кодировщик
Выбранный битрейт : 128 kBit/s
Качество : Высокий
Добавление ID3-тэга : Нет
Утилита сжатия : C:Program Files (x86)Exact Audio CopyFlacflac.exe
Дополнительные параметры : -5 -V -T "ARTIST=%a" -T "TITLE=%t" -T "ALBUM=%g" -T "DATE=%y" -T "TRACKNUMBER=%n" -T "GENRE=%m" -T "COMMENT=EAC FLAC -5" %s

TOC извлечённого CD

Трек | Старт | Длительность | Начальный сектор | Конечный сектор
---------------------------------------------------------------------
1 | 0:00.00 | 3:22.55 | 0 | 15204
2 | 3:22.55 | 2:42.65 | 15205 | 27419
3 | 6:05.45 | 2:35.55 | 27420 | 39099
4 | 8:41.25 | 2:15.05 | 39100 | 49229
5 | 10:56.30 | 2:57.37 | 49230 | 62541
6 | 13:53.67 | 2:25.10 | 62542 | 73426
7 | 16:19.02 | 2:44.20 | 73427 | 85746
8 | 19:03.22 | 2:15.05 | 85747 | 95876
9 | 21:18.27 | 2:54.43 | 95877 | 108969
10 | 24:12.70 | 2:44.25 | 108970 | 121294
11 | 26:57.20 | 2:37.37 | 121295 | 133106
12 | 29:34.57 | 2:04.35 | 133107 | 142441
13 | 31:39.17 | 4:41.03 | 142442 | 163519
14 | 36:20.20 | 2:15.42 | 163520 | 173686
15 | 38:35.62 | 3:16.18 | 173687 | 188404
16 | 41:52.05 | 3:19.17 | 188405 | 203346
17 | 45:11.22 | 2:28.05 | 203347 | 214451
18 | 47:39.27 | 3:09.38 | 214452 | 228664
19 | 50:48.65 | 5:00.30 | 228665 | 251194
20 | 55:49.20 | 3:18.10 | 251195 | 266054

Характеристики диапазона извлечения и сообщения об ошибках

Выбранный диапазон

Имя файла F:_МУЗЫКАThe Perfect Blues Collection 25 Original Albums (Box Set 25 CD's)12 Johnny Watson & Larry Williams - Two for the Price of One (1967)1967 Two For The Price Of One.wav

Пиковый уровень 96.0 %
Качество диапазона 100.0 %
CRC копии 1B694AA1
Копирование... OK

Ошибок не произошло

AccurateRip: сводка

Трек 1 точное извлечение (доверие 3) [7F453046]
Трек 2 точное извлечение (доверие 3) [053123E0]
Трек 3 точное извлечение (доверие 3) [BAB63835]
Трек 4 точное извлечение (доверие 3) [5CAAB386]
Трек 5 точное извлечение (доверие 3)
Трек 6 точное извлечение (доверие 3) [6174BA91]
Трек 7 точное извлечение (доверие 3) [47E247FF]
Трек 8 точное извлечение (доверие 3) [75726B3B]
Трек 9 точное извлечение (доверие 3) [AFED3AB8]
Трек 10 точное извлечение (доверие 3) [D4EB07F2]
Трек 11 точное извлечение (доверие 3) [BAC5FEF6]
Трек 12 точное извлечение (доверие 3)
Трек 13 точное извлечение (доверие 3) [48A67454]
Трек 14 точное извлечение (доверие 3) [2D63F30E]
Трек 15 точное извлечение (доверие 3) [05BFD0EC]
Трек 16 точное извлечение (доверие 3) [1E443C9F]
Трек 17 точное извлечение (доверие 3) [0127EFCC]
Трек 18 точное извлечение (доверие 3) [BBD3FDFF]
Трек 19 точное извлечение (доверие 3) [C6AEFFB9]
Трек 20 точное извлечение (доверие 3) [C1F25179]

Все треки извлечены точно

Конец отчёта
CD 13 • 'Champion' Jack Dupree - Anthologie du Blues, Vol. 1 (1968) 00
VA The Perfect Blues Collection 25 Original Albums
01. The Tricks (3:48)
02. Death Of Luther King (5:26)
03. Ugly Woman (3:58)
04. In The Evening (4:34)
05. Take Me Back Baby (3:50)
06. Early In The Morning (2:36)
07. My Black And White Dog (5:14)
08. My Next Door Neib (3:46)
09. I Had A Dream (5:30)
10. Goin' To Paris (4:23)
11. I'm Tired Of Moanin' (3:15)
Log EAC
Exact Audio Copy V0.99 prebeta 5 from 4. May 2009

Отчёт EAC об извлечении, выполненном 1. апреля 2012, 18:18

"Champion" Jack Dupree / Anthologie du Blues Vol. 1

Дисковод: PIONEER DVD-RW DVR-218L Adapter: 0 ID: 0

Режим чтения : Достоверность
Использование точного потока : Да
Отключение кэша аудио : Да
Использование указателей C2 : Нет

Коррекция смещения при чтении : 6
Способность читать области Lead-in и Lead-out : Нет
Заполнение пропущенных сэмплов тишиной : Да
Удаление блоков с тишиной в начале и конце : Нет
При вычислениях CRC использовались нулевые сэмплы : Да
Интерфейс : Встроенный Win32-интерфейс для Win NT/2000

Выходной формат : Пользовательский кодировщик
Выбранный битрейт : 128 kBit/s
Качество : Высокий
Добавление ID3-тэга : Нет
Утилита сжатия : C:Program Files (x86)Exact Audio CopyFlacflac.exe
Дополнительные параметры : -5 -V -T "ARTIST=%a" -T "TITLE=%t" -T "ALBUM=%g" -T "DATE=%y" -T "TRACKNUMBER=%n" -T "GENRE=%m" -T "COMMENT=EAC FLAC -5" %s

TOC извлечённого CD

Трек | Старт | Длительность | Начальный сектор | Конечный сектор
---------------------------------------------------------------------
1 | 0:00.00 | 3:47.54 | 0 | 17078
2 | 3:47.54 | 5:25.43 | 17079 | 41496
3 | 9:13.22 | 3:58.11 | 41497 | 59357
4 | 13:11.33 | 4:34.11 | 59358 | 79918
5 | 17:45.44 | 3:49.63 | 79919 | 97156
6 | 21:35.32 | 2:36.29 | 97157 | 108885
7 | 24:11.61 | 5:14.29 | 108886 | 132464
8 | 29:26.15 | 3:45.53 | 132465 | 149392
9 | 33:11.68 | 5:29.67 | 149393 | 174134
10 | 38:41.60 | 4:23.19 | 174135 | 193878
11 | 43:05.04 | 3:15.12 | 193879 | 208515

Характеристики диапазона извлечения и сообщения об ошибках

Выбранный диапазон

Имя файла F:_МУЗЫКАThe Perfect Blues Collection 25 Original Albums (Box Set 25 CD's)13 'Champion' Jack Dupree - Anthologie du Blues, Vol. 1 (1968)1968 Anthologie du Blues Vol. 1.wav

Пиковый уровень 98.8 %
Качество диапазона 100.0 %
CRC теста 00FD48C4
CRC копии 00FD48C4
Копирование... OK

Ошибок не произошло

AccurateRip: сводка

Трек 1 точное извлечение (доверие 3) [5DEC3D5A]
Трек 2 точное извлечение (доверие 3) [6D562AE0]
Трек 3 точное извлечение (доверие 3) [7D07F869]
Трек 4 точное извлечение (доверие 3) [9845CAB3]
Трек 5 точное извлечение (доверие 3) [296A1566]
Трек 6 точное извлечение (доверие 3) [E1078BB6]
Трек 7 точное извлечение (доверие 3) [1875BEAA]
Трек 8 точное извлечение (доверие 3) [75F45E94]
Трек 9 точное извлечение (доверие 3) [D1DA3332]
Трек 10 точное извлечение (доверие 3) [23554271]
Трек 11 точное извлечение (доверие 3) [0A45CD5D]

Все треки извлечены точно

Конец отчёта
CD 14 • Otis Spann - The Biggest Thing Since Colossus (1969) 00
VA The Perfect Blues Collection 25 Original Albums
01. My Love Depends On You (5:22)
02. Walkin' (2:54)
03. It Was A Big Thing (3:27)
04. Temperature Is Rising (100.2 dF) (6:13)
05. Dig You (3:04)
06. No More Doggin' (3:01)
07. Ain't Nobody's Business (5:15)
08. She Needs Some Loving (3:08)
09. I Need Some Air (4:41)
10. Someday Baby (3:03)
Log EAC
Exact Audio Copy V0.99 prebeta 5 from 4. May 2009

Отчёт EAC об извлечении, выполненном 1. апреля 2012, 19:25

Otis Spann (with Fleetwood Mac) / The Biggest Thing Since Colossus

Дисковод: PIONEER DVD-RW DVR-218L Adapter: 0 ID: 0

Режим чтения : Достоверность
Использование точного потока : Да
Отключение кэша аудио : Да
Использование указателей C2 : Нет

Коррекция смещения при чтении : 6
Способность читать области Lead-in и Lead-out : Нет
Заполнение пропущенных сэмплов тишиной : Да
Удаление блоков с тишиной в начале и конце : Нет
При вычислениях CRC использовались нулевые сэмплы : Да
Интерфейс : Встроенный Win32-интерфейс для Win NT/2000

Выходной формат : Пользовательский кодировщик
Выбранный битрейт : 128 kBit/s
Качество : Высокий
Добавление ID3-тэга : Нет
Утилита сжатия : C:Program Files (x86)Exact Audio CopyFlacflac.exe
Дополнительные параметры : -5 -V -T "ARTIST=%a" -T "TITLE=%t" -T "ALBUM=%g" -T "DATE=%y" -T "TRACKNUMBER=%n" -T "GENRE=%m" -T "COMMENT=EAC FLAC -5" %s

TOC извлечённого CD

Трек | Старт | Длительность | Начальный сектор | Конечный сектор
---------------------------------------------------------------------
1 | 0:00.32 | 5:22.05 | 32 | 24186
2 | 5:22.37 | 2:54.08 | 24187 | 37244
3 | 8:16.45 | 3:26.55 | 37245 | 52749
4 | 11:43.25 | 6:13.27 | 52750 | 80751
5 | 17:56.52 | 3:04.35 | 80752 | 94586
6 | 21:01.12 | 3:00.50 | 94587 | 108136
7 | 24:01.62 | 5:15.28 | 108137 | 131789
8 | 29:17.15 | 3:08.35 | 131790 | 145924
9 | 32:25.50 | 4:40.47 | 145925 | 166971
10 | 37:06.22 | 3:02.43 | 166972 | 180664

Характеристики диапазона извлечения и сообщения об ошибках

Выбранный диапазон

Имя файла F:_МУЗЫКАThe Perfect Blues Collection 25 Original Albums (Box Set 25 CD's)14 Otis Spann - The Biggest Thing Since Colossus (1969)1969 The Biggest Thing Since Colossus.wav

Пиковый уровень 100.0 %
Качество диапазона 100.0 %
CRC теста 19AF9127
CRC копии 19AF9127
Копирование... OK

Ошибок не произошло

AccurateRip: сводка

Трек 1 точное извлечение (доверие 3) [02B94CAC]
Трек 2 точное извлечение (доверие 3) [60060F7C]
Трек 3 точное извлечение (доверие 3) [51F1DBD3]
Трек 4 точное извлечение (доверие 3) [881A8DC1]
Трек 5 точное извлечение (доверие 3) [1C23FAE0]
Трек 6 точное извлечение (доверие 3) [CD7A0329]
Трек 7 точное извлечение (доверие 3) [A7C8F24E]
Трек 8 точное извлечение (доверие 3) [FB334924]
Трек 9 точное извлечение (доверие 3) [FABD9458]
Трек 10 точное извлечение (доверие 3) [5C008CF8]

Все треки извлечены точно

Конец отчёта
CD 15 • Johnny Winter - Johnny Winter (1969) 00
VA The Perfect Blues Collection 25 Original Albums
01. I'm Yours And I'm Hers (4:32)
02. Be Careful With A Fool (5:17)
03. Dallas (2:49)
04. Mean Mistreater (3:55)
05. Leland Mississippi Blues (3:31)
06. Good Morning Little School Girl (2:46)
07. When You Got A Good Friend (3:42)
08. I'll Drown In My Own Tears (4:47)
09. Back Door Friend (2:58)
10. Country Girl (Previously Unissued Bonus Track) (3:08)
11. Dallas (Previously Unissued Alternate Take) (3:37)
12. Two Steps From The Blues (Previously Unissued Bonus Track) (2:36)
Log EAC
Exact Audio Copy V0.99 prebeta 5 from 4. May 2009

Отчёт EAC об извлечении, выполненном 1. апреля 2012, 20:27

Johnny Winter / Johnny Winter

Дисковод: PIONEER DVD-RW DVR-218L Adapter: 0 ID: 0

Режим чтения : Достоверность
Использование точного потока : Да
Отключение кэша аудио : Да
Использование указателей C2 : Нет

Коррекция смещения при чтении : 6
Способность читать области Lead-in и Lead-out : Нет
Заполнение пропущенных сэмплов тишиной : Да
Удаление блоков с тишиной в начале и конце : Нет
При вычислениях CRC использовались нулевые сэмплы : Да
Интерфейс : Встроенный Win32-интерфейс для Win NT/2000

Выходной формат : Пользовательский кодировщик
Выбранный битрейт : 128 kBit/s
Качество : Высокий
Добавление ID3-тэга : Нет
Утилита сжатия : C:Program Files (x86)Exact Audio CopyFlacflac.exe
Дополнительные параметры : -5 -V -T "ARTIST=%a" -T "TITLE=%t" -T "ALBUM=%g" -T "DATE=%y" -T "TRACKNUMBER=%n" -T "GENRE=%m" -T "COMMENT=EAC FLAC -5" %s

TOC извлечённого CD

Трек | Старт | Длительность | Начальный сектор | Конечный сектор
---------------------------------------------------------------------
1 | 0:00.00 | 4:31.59 | 0 | 20383
2 | 4:31.59 | 5:16.51 | 20384 | 44134
3 | 9:48.35 | 2:49.03 | 44135 | 56812
4 | 12:37.38 | 3:55.12 | 56813 | 74449
5 | 16:32.50 | 3:30.38 | 74450 | 90237
6 | 20:03.13 | 2:46.05 | 90238 | 102692
7 | 22:49.18 | 3:42.19 | 102693 | 119361
8 | 26:31.37 | 4:46.43 | 119362 | 140854
9 | 31:18.05 | 2:58.06 | 140855 | 154210
10 | 34:16.11 | 3:08.02 | 154211 | 168312
11 | 37:24.13 | 3:37.29 | 168313 | 184616
12 | 41:01.42 | 2:35.40 | 184617 | 196281

Характеристики диапазона извлечения и сообщения об ошибках

Выбранный диапазон

Имя файла F:_МУЗЫКАThe Perfect Blues Collection 25 Original Albums (Box Set 25 CD's)15 Johnny Winter - Johnny Winter (1969)1969 Johnny Winter.wav

Пиковый уровень 100.0 %
Качество диапазона 100.0 %
CRC теста 67C2450F
CRC копии 67C2450F
Копирование... OK

Ошибок не произошло

AccurateRip: сводка

Трек 1 точное извлечение (доверие 3)
Трек 2 точное извлечение (доверие 3) [2BB291AC]
Трек 3 точное извлечение (доверие 3) [66CED86C]
Трек 4 точное извлечение (доверие 3) [0E9A8385]
Трек 5 точное извлечение (доверие 3) [540F40D7]
Трек 6 точное извлечение (доверие 3) [DDD97BAA]
Трек 7 точное извлечение (доверие 3) [A4629922]
Трек 8 точное извлечение (доверие 3) [66A249BA]
Трек 9 точное извлечение (доверие 3) [52A5E3B3]
Трек 10 точное извлечение (доверие 3) [ED04F462]
Трек 11 точное извлечение (доверие 3)
Трек 12 точное извлечение (доверие 3) [359CFEDC]

Все треки извлечены точно

Конец отчёта
CD 16 • Percy Mayfield - Sings Percy Mayfield (1970) 00
VA The Perfect Blues Collection 25 Original Albums
01. Yes, You'll Play (2:43)
02. Live Today Like The Day Before (2:42)
03. Highway Is Like A Woman (3:00)
04. Painful Party (3:01)
05. You Wear Your Hair Too Long (2:58)
06. To Live The Past (3:48)
07. My Friend (3:01)
08. A Lying Woman (Not Trustworthy) (3:04)
09. To Claim It's Love (3:47)
10. My Error (2:33)
11. The Country (2:30)
12. This Time You Suffer Too (3:01)
Log EAC
Exact Audio Copy V0.99 prebeta 5 from 4. May 2009

Отчёт EAC об извлечении, выполненном 1. апреля 2012, 21:14

Percy Mayfield / Percy Mayfield Sings Percy Mayfield

Дисковод: PIONEER DVD-RW DVR-218L Adapter: 0 ID: 0

Режим чтения : Достоверность
Использование точного потока : Да
Отключение кэша аудио : Да
Использование указателей C2 : Нет

Коррекция смещения при чтении : 6
Способность читать области Lead-in и Lead-out : Нет
Заполнение пропущенных сэмплов тишиной : Да
Удаление блоков с тишиной в начале и конце : Нет
При вычислениях CRC использовались нулевые сэмплы : Да
Интерфейс : Встроенный Win32-интерфейс для Win NT/2000

Выходной формат : Пользовательский кодировщик
Выбранный битрейт : 128 kBit/s
Качество : Высокий
Добавление ID3-тэга : Нет
Утилита сжатия : C:Program Files (x86)Exact Audio CopyFlacflac.exe
Дополнительные параметры : -5 -V -T "ARTIST=%a" -T "TITLE=%t" -T "ALBUM=%g" -T "DATE=%y" -T "TRACKNUMBER=%n" -T "GENRE=%m" -T "COMMENT=EAC FLAC -5" %s

TOC извлечённого CD

Трек | Старт | Длительность | Начальный сектор | Конечный сектор
---------------------------------------------------------------------
1 | 0:00.00 | 2:42.74 | 0 | 12223
2 | 2:42.74 | 2:41.43 | 12224 | 24341
3 | 5:24.42 | 3:00.36 | 24342 | 37877
4 | 8:25.03 | 3:01.17 | 37878 | 51469
5 | 11:26.20 | 2:58.34
Музыка / Lossless / Разное
СКАЧАТЬ БЕСПЛАТНО  [6.3 GB]


21
мая
2014

VA - A Stack Of Blues: 60 Original Blues Classics (3CD Box Set) [2014, Blues, Modern Blues, Chicago Blues, Electric Blues, MP3]

Формат: MP3, tracks, 320kbps
Год выпуска: 2014
Страна: UK
Жанр: Blues, Modern Blues, Chicago Blues, Electric Blues
Продолжительность: 03:18:00
Описание: CD1 01 01. Freddy King - Hide Away (02:41) 02. Earl Hooker - That Man (02:32) 03. Albert King - I Need You By My Side (02:33) 04. Guitar Slim - The Things That I Used To Do (03:02) 05. B.B.King - My Baby.s Comin. Home (02:09) 06. Joe Louis Walker - Friends (05:52) 07. Muddy Waters - You Shook Me (02:44) 08. Jimmy Rodgers & Left Hand Frank - Oh Baby (03:00) 09. Howlin. Wolf - The Wolf Is At Your Door (02:59) 10. Elmore James - Dust My Blues (0 ...

16
мая
2012

Cheap Trick - 2 Box Sets / 10 Albums (2008 Original Album Classics 5CD Box/2011 Original Album Classics (5CD Box Set) [2008 / 2011, Rock, Hard Rock

Формат: FLAC, (image + .cue), lossless
Год выпуска: 2008 / 2011
Страна: USA
Жанр: Rock, Hard Rock
Продолжительность: 08:12:46
Описание: 2008 Original Album Classics (5CD Box Set Legacy, Epic Records) 1977 Cheap Trick 0 01. ELO Kiddies 02. Daddy Should Have Stayed In High School 03. Taxman, Mr. Thief 04. Cry, Cry 05. Oh, Candy 06. Hot Love 07. Speak Now Or Forever Hold Your Peace 08. He's A Whore 09. Mandocello 10. The Ballad Of TV Violence (I'm Not The Only Boy) Bonus Tracks 11. Lovin' Money 12. I Want You To Want Me 13. Lookout 14. You're All Talk 15. I Dig Go-Go Girls EAC Exact Audio Cop ...

30
июл
2011

Jeff Beck 2 Box Sets / 10 Albums (2008 Original Album Classics 5CD Box/2010 Original Album Classics (5CD Box Set) [2008 / 2010, Blues rock, Hard Rock, Progressive Rock, FLAC]

Формат: FLAC, (image + .cue), lossless
Год выпуска: 2008 / 2010
Страна: England
Жанр: Blues rock, Jazz fusion, Instrumental Rock, Hard Rock, Progressive Rock
Продолжительность: 06:58:48
Описание: 2008 Original Album Classics (5CD Box Set Epic Records) 1971 Jeff Beck Group (Rough & Ready) 00 1. Got The Feeling 2. Situation 3. Short Business 4. Max's Tune 5. I've Been Used 6. New Ways / Train Train 7. Jody EACExact Audio Copy V1.0 beta 2 from 29. April 2011 EAC extraction logfile from 24. July 2011, 13:44 Jeff Beck Group / Rough And Ready Used drive : HL-DT-STDVDRAM GSA-H60N Adapter: 2 ID: ...

14
июн
2011

Jefferson Airplane - 2 Box Sets / 8 Albums Original (5CD + 3CD Box Set) [2008 - 2011, Psychedelic rock, FLAC]

Формат: FLAC, (image + .cue), lossless
Год выпуска: 2008 - 2011
Страна: USA
Жанр: Psychedelic rock, blues-rock
Продолжительность: 07:44:55
Описание:
Доп. информация: 2008 Original Album Classics (5CD Box Set) 1966 - Jefferson Airplane Takes Off 01 01. Blues From An Airplane 02. Let Me In 03. Bringing Me Down 04. It's No Secret 05. Tobacco Road 06. Come Up The Year 07. Run Around 08. Let's Get Together 09. Don't Slip Away 10. Chauffeur Blues 11. And I Like It Bonus Tracks 12. Runnin' Round This World 13. High Flying Bird 14. It's Alright 15. Go To Her (Early Version) 16. Let Me In (Original ...

17
янв
2011

Elvis Presley - The Original Elvis Presley Collection (Box-Set 50CD) Part One (CD1-25)[1956-1995, Rock Roll, APE]

Формат: APE, (image + .cue), lossless
Год выпуска: 1956-1995
Страна: USA
Жанр: Rock & Roll
Издатель: BMG Music Nederland BV
Год издания: 1996
Продолжительность: 14:28:54
Описание: 1956 - Elvis Presley 00
Трэклист: 01. Blue Suede Shoes 02:01 02. I'm Counting on You 02:24 03. I Got a Woman 02:26 04. One-Sided Love Affair 02:11 05. I Love You Because 02:44 06. Just Because 02:34 07. Tutti Frutti 01:59 08. Tryin' to Get to You 02:34 09. I'm Gonna Sit Right Down and Cry (Over You) 02:01 10. I'll Never Let You Go (Little Darlin') 02:24 11. Blue Moon 02:41 12. Money Honey 02:33 1956 - Elvis 00 Тр ...

30
мар
2011

The Paul Butterfield Blues Band - Original Album Series (5CD Box Set) [2009, Blues Rock, Chicago Blues, FLAC]

Формат: FLAC, (image + .cue), lossless
Год выпуска: 2009
Страна: U.S.A.
Жанр: Blues, Blues Rock, Chicago Blues, Electric Blues
Продолжительность: 03:27:39
Описание: 1965 - The Paul Butterfield Blues Band 0 01. Born In Chicago 02. Shake Your Money-Maker 03. Blues With A Feeling 04. Thank You Mr.Poobah 05. I Got My Mojo Working 06. Mellow Down Easy 07. Screamin' 08. Our Love Is Drifting 09. Mystery Train 10. Last Night 11. Look Over Yonders Wall 1966 - East-West 0 1. Walkin' Blues 2. Get Out My Life Woman 3. I Got A Mind To Give Up Living 4. All There Blues 5. Work Song 6. Mary Mary 7. Two T ...

09
авг
2011

13th Floor Elevators - The Albums Collection (4CD Box Set ) [2011, Rock, Garage Rock, Psychedelic Rock, FLAC]

Формат: FLAC, (image + .cue), lossless
Год выпуска: 2011
Страна: USA
Жанр: Rock, Garage Rock, Psychedelic Rock
Продолжительность: 02:19:05
Описание: 1966 The Psychedelic Sounds Of The 13th Floor 00 01. You're Gonna Miss Me 02. Roller Coaster 03. Splash 1 04. Reverberation 05. Don't Fall Down 06. Fire Engine 07. Thru The Rhythm 08. You Don't Know ( How Young You Are) 09. Kingdom Of Heaven (Is Within You) 10. Monkey Island 11. Tried To Hide EACExact Audio Copy V1.0 beta 2 from 29. April 2011 EAC extraction logfile from 4. August 2011, 16:49 13th Floor Elevators / The Psychedelic Sounds Of The ...

12
мар
2013

Taj Mahal - The Complete Columbia Albums Collection (15CD Box Set) [2013, Blues, Blues Rock, Folk, Funk, Soul, Rhythm & Blues, FLAC]

Формат: FLAC, (image+ .cue), lossless
Год выпуска: 2013
Страна: USA
Жанр: Blues, Blues Rock, Folk, Funk, Soul, Rhythm & Blues
Продолжительность: 11:24:57
Описание: 1992 - Rising Sons featuring Taj Mahal And Ry Cooder (Recorded 1965/66) 01
Трeклист: 01. Statesboro Blues 02:25 02. If The River Was Whiskey (Divin' Duck Blues) 02:42 03. By And By (Poor Me) 03:33 04. Candy Man 02:05 05. 2:10 Train 04:11 06. Let The Good Times Roll 02:44 07. .44 Blues 03:24 08. 11th Street Overcrossing 02:13 09. Corrin, Corrina 02:57 10. Tulsa County 02:43 11. Walkin' Down The Line 02:15 12. The Girl W ...

12
мар
2013

Nina Simone - The Complete RCA Albums Collection (9CD Box Set) [2011, Jazz, Soul, Blues, Funk, Soul Jazz, East Coast Blues, Jazz Funk, FLAC]

Формат: FLAC, (image+ .cue), lossless
Год выпуска: 2011
Страна: USA
Жанр: Jazz, Soul, Blues, Funk, Soul Jazz, East Coast Blues, Jazz Funk
Продолжительность: 08:04:31
Описание: 1967 - Nina Simone Sings The Blues 00Трeклист: 01. Do I Move You? 02:48 02. Day And Night 02:36 03. In The Dark 02:58 04. Real, Real 02:22 05. My Man's Gone Now 04:17 06. Backlash Blues 02:31 07. I Want A Little Sugar In My Bowl 02:33 08. Buck 01:53 09. Since I Fell For You 02:53 10. The House Of The Rising Sun 03:53 11. Blues For Mama 03:58 Bonus Tracks: 12. Do I Move You? (Second Version) 13. Whatever I Am (You Made ...

21
фев
2012

The Byrds - The Complete Columbia Albums Collection (13CD Box Set) Reissue 2011 [1965-1971, Rock, Psychedelic Rock, Pop Rock, Folk Rock, FLAC]

Формат: FLAC, (image + .cue), lossless
Год выпуска: 1965-1971
Страна: USA
Жанр: Rock, Psychedelic Rock, Pop Rock, Folk Rock
Продолжительность: 11:40:23
Описание: 1965 - Mr. Tambourine Man (00
Трeклист: 01. Mr. Tambourine Man 02:33 02. I'll Feel A Whole Lot Better 02:35 03. Spanish Harlem Incident 02:01 04. You Won't Have To Cry 02:11 05. Here Without You 02:40 06. The Bells Of Rhymney 03:34 07. All I Really Want To Do 02:07 08. I Knew I'd Want You 02:18 09. It's No Use 02:27 10. Don't Doubt Yourself, Babe 02:58 11. Chimes Of Freedom 03:55 12. We'll Meet Again 02:17 Bonus Tracks: 13. She Has ...

20
янв
2017

Вилли Токарев - U.S. Albums Collection (4 LP Box Set, 1979-1984) [2014-2015, Шансон, MP3]

Формат: MP3, tracks, 320kbps
Год выпуска: 2014-2015
Страна: Россия- США
Жанр: Шансон
Продолжительность: 02:15:25
Описание: Треклист1979 - А жизнь - она всегда прекрасна Сторона A А1. Карусель любви А2. А жизнь – она всегда прекрасна А3. Зачем? А4. Тамара А5. Sunny, Sunny Сторона B В1. Поцелуй В2. Дождь В3. Солнечная девушка В4. Счастливая звезда В5. Девушка милая 1981 - В Шумном Балагане Сторона A А1. Нью-йорский таксист А2. В шумном балагане А3. Песня тракториста А4. Люська – хулиганка А5. Держи вора Сторона B В1. Небоскрёбы, небоскрёбы В2. Ростовский урка В3. Воры – гуманисты В4. Придур ...

15
фев
2013

Bill Withers - Complete Sussex & Columbia Albums Collection 1971-1985 (9CD Box Set) [2012, Funk, Soul, Smooth Soul, R&B, Blues, FLAC]

Формат: FLAC, (image+ .cue), lossless
Год выпуска: 1971-1985
Страна: USA
Жанр: Funk, Soul, Smooth Soul, R&B, Blues
Продолжительность: 07:34:35
Описание: 1971 - Just As I Am (00Трeклист: 01. Harlem 03:23 02. Ain't No Sunshine 02:05 03. Grandma's Hands 02:01 04. Sweet Wanomi 02:32 05. Everybody's Talkin' 03:24 06. Do It Good 02:52 07. Hope She'll Be Happier 03:50 08. Let It Be 02:36 09. I'm Her Daddy 03:18 10. In My Heart 04:19 11. Moanin' And Groanin' 02:58 12. Better Off Dead 02:14Log EACExact Audio Copy V1.0 beta 3 from 29. August 2011 EAC extraction logfile from 10. February 20 ...

18
фев
2012

Electric Light Orchestra - The Classic Albums Collection (11CD Box Set Sony Music) - 2011 [1971-1986, Rock, Progressive Rock, Symphonic Rock, FLAC]

Формат: FLAC, (image + .cue), lossless
Год выпуска: 1971-1986
Страна: UK
Жанр: Rock, Progressive Rock, Symphonic Rock
Продолжительность: 10:26:55
Описание: 1971 - No Answer (The Electric Light Orchestra) (00
Трeклист: 01. 10538 Overture 05:30 02. Look At Me Now 03:17 03. Nellie Takes Her Bow 05:59 04. The Battle Of Marston Moor (July 2nd 1644) 06:03 05. First Movement (Jumping Biz) 03:00 06. Mr. Radio 05:04 07. Manhattan Rumble (49th Street Massacre) 04:22 08. Queen Of The Hours 03:22 09. Whisper In The Night 04:50 Bonus Tracks: 10. The Battle Of Marston Moor (Take 1 / Alternate Mi ...

03
дек
2016

Lou Reed - The Sire Years: The Complete Albums Box (10CD Box Set) [2015, Rock, Art Rock, FLAC]

Формат: FLAC, (image + .cue), lossless
Год выпуска: 2015
Страна: EU
Жанр: Rock, Art Rock
Продолжительность: 08:13:14
Описание: 1989 New York 0001. Romeo Had Juliette 02. Halloween Parade 03. Dirty Blvd. 04. Endless Cycle 05. There Is No Time 06. Last Great American Whale 07. Beginning Of A Great Adventure 08. Busload Of Faith 09. Sick Of You 10. Hold On 11. Good Evening Mr. Waldheim 12. Xmas In February 13. Strawman 14. Dime Store Mystery eacExact Audio Copy V1.1 from 23. June 2015 EAC extraction logfile from 2. December 2016, 18:25 Lou Reed / New York Used drive : PLEXTOR BD-R PX-B950SA Ad ...

17
янв
2011

Elvis Presley - The Original Elvis Presley Collection (Box-Set 50CD) Part Two (CD26-50)[1966-1996, Rock Roll, APE]

Формат: APE, (image + .cue), lossless
Год выпуска: 1966-1996
Страна: USA
Жанр: Rock & Roll
Издатель: BMG Music Nederland BV
Год издания: 1996
Продолжительность: 14:12:16
Описание: 1996 - Elvis Double Features (Easy Come, Easy Go + Speedway) 00
Трэклист: 01. Easy Come, Easy Go 02:20 02. The Love Machine 02:50 03. Yoga Is As Yoga Does 02:10 04. You Gotta Stop 02:18 05. Sing You Children 02:14 06. I'll Take Love 02:15 07. She's A Machine 01:38 08. The Love Machine (Alternate Take 11) 02:29 09. Sing You Children (Alternate Take 1) 02:29 10. She's A Machine (Alternate Take 13) 01:41 11. Suppose ...