13
июл
2011

Golden Earring / Golden Hits (4CD Box) [2011, Rock, FLAC]

Golden Earring / Golden Hits (4CD Box)

Формат: FLAC, (image + .cue), lossless
Год выпуска: 2011
Страна: The Hague, Netherlands
Жанр: Rock
Продолжительность: 05:15:06
Описание:
CD 1 01

01. Twilight Zone
02. Clear Nite Moonlight
03. Quiet Eyes
04. Joe
05. When The Lady Smiles
06. The Thief
07. Why Do I
08. My Favourite Spot
09. Temporary Madness
10. She Flies On Strange Wings
11. This Wheel's On Fire
12. Pouring My Heart Out Again
13. As Long As The Wind Blows
14. The Devil Rides Again Tonight
15. Try A Little Tenderness
16. Miles Away From Nowhere
17. Gotta See Jane

EAC
Exact Audio Copy V1.0 beta 1 from 15. November 2010

EAC extraction logfile from 4. February 2011, 20:39

Golden Earring / Golden Hits [CD1]

Used drive : Optiarc DVD RW AD-5200A Adapter: 1 ID: 0

Read mode : Secure
Utilize accurate stream : Yes
Defeat audio cache : No
Make use of C2 pointers : Yes

Read offset correction : 48
Overread into Lead-In and Lead-Out : No
Fill up missing offset samples with silence : Yes
Delete leading and trailing silent blocks : No
Null samples used in CRC calculations : Yes
Used interface : Native Win32 interface for Win NT & 2000

Used output format : Internal WAV Routines
Sample format : 44.100 Hz; 16 Bit; Stereo

TOC of the extracted CD

Track | Start | Length | Start sector | End sector
---------------------------------------------------------
1 | 0:00.00 | 7:53.19 | 0 | 35493
2 | 7:53.19 | 3:25.06 | 35494 | 50874
3 | 11:18.25 | 4:02.46 | 50875 | 69070
4 | 15:20.71 | 4:39.02 | 69071 | 89997
5 | 19:59.73 | 5:39.17 | 89998 | 115439
6 | 25:39.15 | 3:46.00 | 115440 | 132389
7 | 29:25.15 | 4:44.23 | 132390 | 153712
8 | 34:09.38 | 6:17.17 | 153713 | 182004
9 | 40:26.55 | 3:31.09 | 182005 | 197838
10 | 43:57.64 | 7:22.25 | 197839 | 231013
11 | 51:20.14 | 4:00.65 | 231014 | 249078
12 | 55:21.04 | 4:02.04 | 249079 | 267232
13 | 59:23.08 | 5:18.36 | 267233 | 291118
14 | 64:41.44 | 4:25.50 | 291119 | 311043
15 | 69:07.19 | 3:53.59 | 311044 | 328577
16 | 73:01.03 | 3:26.35 | 328578 | 344062
17 | 76:27.38 | 3:14.61 | 344063 | 358673

Range status and errors

Selected range

Filename C:MusicBoxGolden Earring - Golden Hits [CD1].wav

Peak level 100.0 %
Extraction speed 1.0 X
Range quality 100.0 %
Copy CRC AF9E5E44
Copy OK

No errors occurred

AccurateRip summary

Track 1 not present in database
Track 2 not present in database
Track 3 not present in database
Track 4 not present in database
Track 5 not present in database
Track 6 not present in database
Track 7 not present in database
Track 8 not present in database
Track 9 not present in database
Track 10 not present in database
Track 11 not present in database
Track 12 not present in database
Track 13 not present in database
Track 14 not present in database
Track 15 not present in database
Track 16 not present in database
Track 17 not present in database

None of the tracks are present in the AccurateRip database

End of status report

CD 2 01

01. Something Heavy Going Down
02. Turn The World Around
03. The Hammer Of Love
04. Whisper In A Crowd
05. Just A Little Bit Of Peace In My Heart
06. Angel
07. Legalize Telepathy
08. My Killer My Shadow
09. Buddy Joe
10. Radar Love
11. The Devil Made Me Do It
12. The Last Frontier Hotel
13. They Dance
14. The Unforgettable Dream
15. Yes We're On Fire
16. Albino Moon
17. Beautiful Blue
18. Going To The Run

EAC

Exact Audio Copy V1.0 beta 1 from 15. November 2010

EAC extraction logfile from 4. February 2011, 21:25

Golden Earring / Golden Hits [CD2]

Used drive : Optiarc DVD RW AD-5200A Adapter: 1 ID: 0

Read mode : Secure
Utilize accurate stream : Yes
Defeat audio cache : No
Make use of C2 pointers : Yes

Read offset correction : 48
Overread into Lead-In and Lead-Out : No
Fill up missing offset samples with silence : Yes
Delete leading and trailing silent blocks : No
Null samples used in CRC calculations : Yes
Used interface : Native Win32 interface for Win NT & 2000

Used output format : Internal WAV Routines
Sample format : 44.100 Hz; 16 Bit; Stereo

TOC of the extracted CD

Track | Start | Length | Start sector | End sector
---------------------------------------------------------
1 | 0:00.00 | 4:38.06 | 0 | 20855
2 | 4:38.06 | 5:32.45 | 20856 | 45800
3 | 10:10.51 | 3:46.20 | 45801 | 62770
4 | 13:56.71 | 3:48.57 | 62771 | 79927
5 | 17:45.53 | 5:19.72 | 79928 | 103924
6 | 23:05.50 | 3:42.29 | 103925 | 120603
7 | 26:48.04 | 4:12.08 | 120604 | 139511
8 | 31:00.12 | 4:06.16 | 139512 | 157977
9 | 35:06.28 | 3:46.03 | 157978 | 174930
10 | 38:52.31 | 6:23.57 | 174931 | 203712
11 | 45:16.13 | 3:20.24 | 203713 | 218736
12 | 48:36.37 | 3:41.37 | 218737 | 235348
13 | 52:17.74 | 5:08.65 | 235349 | 258513
14 | 57:26.64 | 3:49.12 | 258514 | 275700
15 | 61:16.01 | 4:56.05 | 275701 | 297905
16 | 66:12.06 | 3:53.08 | 297906 | 315388
17 | 70:05.14 | 4:10.73 | 315389 | 334211
18 | 74:16.12 | 3:57.45 | 334212 | 352031

Range status and errors

Selected range

Filename C:MusicBoxGolden Earring - Golden Hits [CD2].wav

Peak level 79.5 %
Extraction speed 1.3 X
Range quality 100.0 %
Copy CRC C32E9D3B
Copy OK

No errors occurred

AccurateRip summary

Track 1 not present in database
Track 2 not present in database
Track 3 not present in database
Track 4 not present in database
Track 5 not present in database
Track 6 not present in database
Track 7 not present in database
Track 8 not present in database
Track 9 not present in database
Track 10 not present in database
Track 11 not present in database
Track 12 not present in database
Track 13 not present in database
Track 14 not present in database
Track 15 not present in database
Track 16 not present in database
Track 17 not present in database
Track 18 not present in database

None of the tracks are present in the AccurateRip database

End of status report

CD 3 01

01. Distant Love
02. Hold Me Now
03. Johnny Make Believe
04. Paradise In Distress
05. Skyscraper Hell Of A Town
06. Candy's Going Bad
07. Better Off Dead
08. I Do Rock 'N' Roll
09. I've Just Lost Somebody
10. Just Like Vince Taylor
11. Love Is A Loser
12. Stand By Me
13. Where Will I Be
14. On A Night Like You
15. A Sound I Never Heard
16. Colourblind
17. Bombay
18. Long Blond Animal

EAC
Exact Audio Copy V1.0 beta 1 from 15. November 2010

EAC extraction logfile from 4. February 2011, 21:37

Golden Earring / Golden Hits [CD3]

Used drive : Optiarc DVD RW AD-5200A Adapter: 1 ID: 0

Read mode : Secure
Utilize accurate stream : Yes
Defeat audio cache : No
Make use of C2 pointers : Yes

Read offset correction : 48
Overread into Lead-In and Lead-Out : No
Fill up missing offset samples with silence : Yes
Delete leading and trailing silent blocks : No
Null samples used in CRC calculations : Yes
Used interface : Native Win32 interface for Win NT & 2000

Used output format : Internal WAV Routines
Sample format : 44.100 Hz; 16 Bit; Stereo

TOC of the extracted CD

Track | Start | Length | Start sector | End sector
---------------------------------------------------------
1 | 0:00.00 | 5:07.27 | 0 | 23051
2 | 5:07.27 | 3:43.29 | 23052 | 39805
3 | 8:50.56 | 4:43.24 | 39806 | 61054
4 | 13:34.05 | 5:45.22 | 61055 | 86951
5 | 19:19.27 | 4:18.52 | 86952 | 106353
6 | 23:38.04 | 6:05.63 | 106354 | 133791
7 | 29:43.67 | 3:54.24 | 133792 | 151365
8 | 33:38.16 | 3:43.55 | 151366 | 168145
9 | 37:21.71 | 3:07.12 | 168146 | 182182
10 | 40:29.08 | 4:33.35 | 182183 | 202692
11 | 45:02.43 | 4:19.68 | 202693 | 222185
12 | 49:22.36 | 4:31.50 | 222186 | 242560
13 | 53:54.11 | 3:52.25 | 242561 | 259985
14 | 57:46.36 | 3:49.60 | 259986 | 277220
15 | 61:36.21 | 4:44.51 | 277221 | 298571
16 | 66:20.72 | 4:13.01 | 298572 | 317547
17 | 70:33.73 | 3:52.70 | 317548 | 335017
18 | 74:26.68 | 3:37.55 | 335018 | 351347

Range status and errors

Selected range

Filename C:MusicBoxGolden Earring - Golden Hits [CD3].wav

Peak level 79.7 %
Extraction speed 1.2 X
Range quality 100.0 %
Copy CRC BBC10DA7
Copy OK

No errors occurred

AccurateRip summary

Track 1 not present in database
Track 2 not present in database
Track 3 not present in database
Track 4 not present in database
Track 5 not present in database
Track 6 not present in database
Track 7 not present in database
Track 8 not present in database
Track 9 not present in database
Track 10 not present in database
Track 11 not present in database
Track 12 not present in database
Track 13 not present in database
Track 14 not present in database
Track 15 not present in database
Track 16 not present in database
Track 17 not present in database
Track 18 not present in database

None of the tracks are present in the AccurateRip database

End of status report

CD 4 01

01. Sound Of The Screaming Day
02. Another 45 Miles
03. Dong-Dong-Di-Ki-Di-Gi-Dong
04. No For An Answer
05. Sleepwalkin'
06. Holy Holy Life
07. Weekend Love
08. Instant Poetry
09. Movin' Down Life
10. Please Go
11. Daddy Buy Me A Girl
12. She Won't Come To Me
13. Together We Live Together We Love
14. When I Was Young
15. One Shot Away From Paradise
16. Burning Stuntman (Live)
17. I Can't Sleep Without You (Live)
18. Slow Down (Live)
19. Kingfisher
20. See See
21. Hard Bargain

EAC
Exact Audio Copy V1.0 beta 1 from 15. November 2010

EAC extraction logfile from 4. February 2011, 21:47

Golden Earring / Golden Hits [CD4]

Used drive : Optiarc DVD RW AD-5200A Adapter: 1 ID: 0

Read mode : Secure
Utilize accurate stream : Yes
Defeat audio cache : No
Make use of C2 pointers : Yes

Read offset correction : 48
Overread into Lead-In and Lead-Out : No
Fill up missing offset samples with silence : Yes
Delete leading and trailing silent blocks : No
Null samples used in CRC calculations : Yes
Used interface : Native Win32 interface for Win NT & 2000

Used output format : Internal WAV Routines
Sample format : 44.100 Hz; 16 Bit; Stereo

TOC of the extracted CD

Track | Start | Length | Start sector | End sector
---------------------------------------------------------
1 | 0:00.00 | 2:51.55 | 0 | 12879
2 | 2:51.55 | 4:45.29 | 12880 | 34283
3 | 7:37.09 | 3:01.66 | 34284 | 47924
4 | 10:39.00 | 4:13.36 | 47925 | 66935
5 | 14:52.36 | 4:56.08 | 66936 | 89143
6 | 19:48.44 | 3:56.22 | 89144 | 106865
7 | 23:44.66 | 4:15.45 | 106866 | 126035
8 | 28:00.36 | 4:53.11 | 126036 | 148021
9 | 32:53.47 | 3:33.61 | 148022 | 164057
10 | 36:27.33 | 2:57.26 | 164058 | 177358
11 | 39:24.59 | 2:43.05 | 177359 | 189588
12 | 42:07.64 | 2:31.55 | 189589 | 200968
13 | 44:39.44 | 3:08.66 | 200969 | 215134
14 | 47:48.35 | 3:12.39 | 215135 | 229573
15 | 51:00.74 | 3:45.62 | 229574 | 246510
16 | 54:46.61 | 4:04.36 | 246511 | 264846
17 | 58:51.22 | 3:32.24 | 264847 | 280770
18 | 62:23.46 | 4:45.39 | 280771 | 302184
19 | 67:09.10 | 5:18.30 | 302185 | 326064
20 | 72:27.40 | 3:12.33 | 326065 | 340497
21 | 75:39.73 | 3:58.42 | 340498 | 358389

Range status and errors

Selected range

Filename C:MusicBoxGolden Earring - Golden Hits [CD4].wav

Peak level 100.0 %
Extraction speed 1.3 X
Range quality 100.0 %
Copy CRC 23FB2EC7
Copy OK

No errors occurred

AccurateRip summary

Track 1 not present in database
Track 2 not present in database
Track 3 not present in database
Track 4 not present in database
Track 5 not present in database
Track 6 not present in database
Track 7 not present in database
Track 8 not present in database
Track 9 not present in database
Track 10 not present in database
Track 11 not present in database
Track 12 not present in database
Track 13 not present in database
Track 14 not present in database
Track 15 not present in database
Track 16 not present in database
Track 17 not present in database
Track 18 not present in database
Track 19 not present in database
Track 20 not present in database
Track 21 not present in database

None of the tracks are present in the AccurateRip database

End of status report
Музыка / Lossless / Разное
СКАЧАТЬ БЕСПЛАТНО  [2.6 GB]


11
фев
2018

Golden Earring Golden Earring [24 bit 96 khz] [1976, Rock, Pop Rock, FLAC]

Формат: FLAC, tracks, lossless
Год выпуска: 1976
Страна: Netherlands
Жанр: Rock, Pop Rock
Продолжительность: 00:46:14
Описание: A1. Back Home - 3.49 A2. Stand By Me - 4.30 A3. Born A Second Time - 2.37 A4. Big Tree Blue Sea - 6.09 A5. The Sad Story Of Sam Stone - 2.26 A6. The Wall Of Dolls - 3.34 B1. Buddy Joe - 3.55 B2. Radar Love - 5.03 B3. One Huge Road - 3.04 B4. God Bless The Day - 2.40 B5. Landing - 4.26 B6. Yellow And Blue - 3.48
Доп. информация: https://en.wikipedia.org/wiki/Golden_Earring https://ru.wikipedia.org/wiki/Golden_Earring Logfoobar2000 1.1.10 / Dynamic Range Meter 1.1. ...

29
мар
2017

Golden Earring - The Complete Studio Recordings (29CD Box Set) [2017, Rock, Hard Rock, Progressive Rock, Psychedelic Rock, Nederbeat, Flac]

Формат: Flac, (image+ .cue), lossless
Год выпуска: 2017
Страна: Netherlands
Жанр: Rock, Hard Rock, Progressive Rock, Psychedelic Rock, Nederbeat
Продолжительность: 21:21:17
Описание: 1965 - Just Ear-Rings (00 01. Nobody But You 02. I Hate Saying These Words 03. She May Be 04. Holy Witness 05. No Need To Worry 06. Please Go 07. Sticks And Stones 08. I Am A Fool 09. Don't Stay Away 10. Lonely Everyday 11. When People Talk 12. Now I HaveLog EACExact Audio Copy V1.1 from 23. June 2015 EAC extraction logfile from 19. March 2017, 9:47 Golden Earrings / Just Ear-Rings Used drive : PLEXTOR BD-R P ...

12
мая
2008

Golden Earring - Discography [mp3, 128]

Страна: Netherlands
Жанр: Rock
Формат: MP3
Битрейт аудио: Битрейт каждого альбома 192Kbps
Продолжительность звучания: 30:06:09
Доп. информация: Полная дискография популярной группы "Golden Earring". Вы точно узнаете эту группу, если слышали песню Арии - "Беспечный Ангел". Ария сделала римейк их песни "Going to the run"
Трэклист: Golden Earring - 1965 - Just Earrings Golden Earring - 1967 - Winter Harvest Golden Earring - 1968 - Miracle Mirror Golden Earring - 1969 - On The Double Golden Earring - 1970 - Golden Earring Golden Earring - 1971 - Seven Tears Golden Earring - 1973 - Moontan Golden ...

29
мар
2017

Golden Earring Very Best Of (2CD) [2008, Classic Rock, Hard Rock, MP3]

Формат: MP3, tracks, 320kbps
Год выпуска: 2008
Страна: Netherlands
Жанр: Classic Rock, Hard Rock
Продолжительность: 01:54:09
Описание: CD 1 001. Please Go (2:56) 2. That Day (2:27) 3. Daddy Buy Me A Girl (2:40) 4. Sound Of The Screaming Day (2:50) 5. Dong-dong-di-ki-di-gi-dong (2:59) 6. Just a Little Bit of Piece In My Heart (5:17) 7. Another 45 Miles (4:43) 8. Back Home (3:50) 9. Holy Holy Life (3:54) 10. She Flies On Strange Wings (4:29) 11. Buddy Joe (3:48 ) 12. Stand By Me (4:30) 13. Radar Love (6:22) 14. Bombay (3:52) CD 2 001. Weekend Love (4:13) 2. Long Blond Animal (3:36) 3. Twilight Z ...

26
ноя
2011

Golden Earring - Naked II [2004, Hard rock, DVD5]

Формат: DVD5, DVD Video, MPEG2, AC3, DTS.
Песня: Naked II
Жанр: Hard rock
Продолжительность: 01:01:40
Год выпуска: 2004
Видео: 720x576. 4:3. PAL. MPEG 2, 25.000 fps. ~7 000 Kbps, 0.675Bits/Pixel
Аудио: Audio #1 48.0 KHz, AC-3, 2 channels, 224 Kbps. Audio #2 48.0 KHz, AC-3, 6 channels, 448 Kbps. Audio #3, 48.0 KHz, DTS, 6 channels, 1 510 Kbps
Доп. информация: Концерт немного незаслуженно подзабытой по моему мнению старой группы Golden Earring Треклист 1. Who Do You Love 2. Buddy Joe 3. She Flies On Strange Wings 4. Quiet Eyes 5. Going To The Run 6. Bombay 7. Where Will I Be 8. This Wh ...

29
июн
2016

Golden Earring - Five Zero At The Ziggo Dome [2016, Hard rock, Progressive rock, DVD9]

Формат: DVD9, DVD Video, MPEG2, AC3
Песня: Five Zero At The Ziggo Dome
Жанр: Hard rock, Progressive rock
Продолжительность: 02:20:42
Год выпуска: 2016
Видео: 720 x 576 (PAL 16:9) at 25 fps, MPEG-2, ~ 6987 Kbp, 0.674 bit/pixel
Аудио: AC3, 265 kbps, 2 ch, 48.0 kHz
Доп. информация: 12 декабры 2015 года на сцене Ziggo Dome в Амстердаме Golden Earring дали фейрическое шоу Five Zero. Были предствалены самые популярные хиты за 50 лет творчества. Международный успех Golden Earring принесли хиты Radar Love, Twilight Zone и When The Lady Smiles. Треклист 01. Intro Five Zero 02. Back Home 03. Buddy Jo ...

25
июн
2016

Golden Earring - Five Zero At The Ziggo Dome [2016, Hard Rock, DVDRip]

Формат: DVDRip, MKV, H.264, AAC
Песня: Five Zero At The Ziggo Dome
Жанр: Hard Rock
Продолжительность: 02:20:42
Год выпуска: 2016
Видео: 720x400 [16:9] at 25.000fps, x264 High@3.1, 1085kbps, 0.21 bit/pixel
Аудио: AAC-LC, 2/0 (L,R), 48kHz, 256kbps, 16-bit
Доп. информация: 12 декабры 2015 года на сцене Ziggo Dome в Амстердаме Golden Earring дали фейрическое шоу Five Zero. Были предствалены самые популярные хиты за 50 лет творчества. Международный успех Golden Earring принесли хиты Radar Love, Twilight Zone и When The Lady Smiles. Группа, выпустившая у себя на родине более 40 хит-синглов и более ...

18
ноя
2015

Golden Earring - 50 Years Anniversary Album [2015, Progressive Rock, FLAC]

Формат: FLAC, (image + .cue), lossless
Год выпуска: 2015c
Страна: Holland
Жанр: Progressive Rock
Продолжительность: 03:29:50
Описание: Cd1 00 01. Please Go 2:59 02. That Day 2:29 03. If You Leave Me 2:17 04. Daddy Buy Me A Girl 2:42 05. Don't Run Too Far 2:14 06. In My House 3:53 07. Sound Of The Screaming Day 2:52 08. Together We Live Together We Love 3:09 09. I've Just Lost Somebody 3:07 10. Dong-Dong-Di-Ki-Di-Gi-Dong 3:02 11. Just A Little Bit Of Peace In My Heart 5:20 12. Where Will I Be 3:54 13. Another 45 Miles 4:46 14. Back Home 3:52 15. Holy Holy Life 3:55 EACExact Audio Copy V1.0 ...

13
мая
2012

Golden Earring - Tits 'N Ass [2012, Classic Rock, MP3]

Формат: MP3, tracks, 320kbps
Год выпуска: 2012
Страна: Netherlands
Жанр: Classic Rock
Продолжительность: 00:55:46
Описание: 01. Identical 02. Time Bomb 03. Cool As It Gets 04. Acrobats And Clowns 05. What Do I Know About Love 06. Still Got The Keys To My First Cadillac 07. Dope Runner 08. This Love 09. Stratosphere 10. Off The Cliff Into The Deep Deep Blue 11. Flowers In The Mud 12. Justin Time 13. Avenue Of Broken Dreams 14. Wanted By Women
Доп. информация: Релиз представлен группой

19
ноя
2015

Golden Earring - 50 Years Anniversary Album [2015, Rock, Prog Rock, DVD9]

Формат: DVD9, DVD Video, MPEG2, DTS, AC3
Песня: 50 Years Anniversary Album
Жанр: Rock, Prog Rock
Продолжительность: 01:48:52
Год выпуска: 2015
Видео: 720 x 576 (PAL 4:3) at 29,970 fps, MPEG-2, ~ 7525 Kbps, 0.726 bit/pixel Аудио 1: AC3 / 224 kbps / 48.0 khz / 2 ch Аудио 2: AC3 / 448 kbps / 48.0 khz / 6 ch Аудио 3: DTS / 1510 kbps / 48.0 khz / 6 ch
Доп. информация: Live From Twilight Zone (Groenoordhallen Leiden Holland, 23 June 1984) 01. I'll Make It All Up to You (5:09) 02. Enough Is Enough (3:50) 03. Mission Impossible (8:43) 04. When The Lady Smiles (5:57) 05. Future (8:20) 06. Long Blond ...

18
янв
2016

VA - Golden Jazz Box (6CD Bax Set Deluxe Limited Edition) [2015, Jazz, FLAC]

Формат: FLAC, (image + .cue), lossless
Год выпуска: 2015
Страна: USA
Жанр: Jazz
Продолжительность: 06:31:35
Описание: CD 1 Miles Davis - Elegance And Beauty 01 01. So What 02. The Man I Love 03. A Night In Tunisia 04. Nature Boy (feat.Charles Mingus) 05. My Funny Valentine 06. Bye, Bye Blackbird 07. Dear Old Stockholm 08. Dancing In The Dark (feat.Cannonball Adderley) 09. Milestones 10. Straight, No Chaser 11. Summertime eac Exact Audio Copy V1.1 from 23. June 2015 EAC extraction logfile from 16. January 2016, 10:07 Miles Davis / Elegance and Beauty Used drive : ATAPI iHAS122 C Adapter: 1 ...

07
июн
2010

VA - Golden Hits 90s [2008, Pop, MP3]

Формат: MP3, tracks, 192kbps
Год выпуска: 2008
Страна: Сша
Жанр: Pop
Продолжительность: 7:50:00
Описание: Треклист 01 Roxette - I'm sorry-3:10 02 Queen - The show must go on-4:31 03 No doubt - Don't speak-4:21 04 Bryan adams & rod stewart & sting - All for love-4:41 05 Depeche mod - Personal jesus-4:40 06 Ace of base - All what she wants-3:30 07 Britney spears - Lucky-3:23 08 The simpsons - Do the bartman-3:57 09 Vacuum - I breathe-4:36 10 Roxette - Crash! boom! bang!-5:00- 11 Ace of base - Happy nation-4:06 12 Bon jovi - Something to believe in-5:25 13 2 unilimited - No limits-3:49 14 E-type ...

10
мар
2012

Belle Epoque - Golden Hits [2012, Disco, MP3]

Формат: MP3, tracks, 320kbps
Год выпуска: 2012
Страна: France
Жанр: Disco
Продолжительность: 01:18:00
Описание: 01. Miss Broadway 02. Drink Me 03. Lose My Man 04. Jump Down 05. Losing You 06. Mister-Do-Right 07. Bamalama 08. Gimme Time 09. Medley a) Disco Sound b) Black Is Black c) Why Don't You Lay Down d) Black Is Black (part.2) 10. La France C'est L'Amour 11. Stranger Once Again 12. Comon Tonight 13. Me And You

05
фев
2015

Savage - Golden Disco Hits [2002, Italo Disco, MP3]

Формат: MP3, tracks, 320kbps
Год выпуска: 2002
Страна: Italy
Жанр: Italo Disco
Продолжительность: 01:19:31
Описание: 01. Only you 02. I just died in your arms 03. Computerized love 04. I'm loozing you 05. Don't cry tonight 06. A love again 07. Radio 08. Still I'm loving you 09. Time 10. Don't you want me 11. Don't leave me 12. Eyes of the Moon 13. Love is death 14. Fugitive 15. A love again (remix) 16. Strangelove 17. Tonight 18. Celebrate 19. Goodbye

15
окт
2011

Robertino Loreti - Golden Hits [2000, Ретро, APE]

Формат: APE, (image + .cue), lossless
Год выпуска: 2000
Страна: Италия
Жанр: Ретро
Продолжительность: 01:10:40
Описание: Треклист 01. O' Sole Mio 02. Torna A Surriento 03. Santa Lucia 04. Mamma 05. Jamaica 06. Oh, Mein Papa 07. Luna Rossa 08. Romantica 09. Giaglione 10. Anema E Core 11. Parlami d'Amore Mariu 12. Pappagallo 13. Spazzacamino 14. Papere 15. Buona Notte 16. Signora Fortuna 17. Serenada 18. La Paloma 19. Rondo La Nudo 20. Les Gitans 21. Carasella 22. Silenzio Cantatore 23. Francesina 24. Lettera A Pinocchio 25. Ave Maria log EAC EAC extraction logfile fro ...