05
дек
2015

Marc Bolan T. Rex - Unchained: Home Recordings Studio Outtakes 1972-1977 [2015, Rock, Glam, Psychedelic Rock, FLAC]

Marc Bolan T. Rex - Unchained: Home Recordings Studio Outtakes 1972-1977
Формат: FLAC, (image + .cue), lossless
Год выпуска: 2015
Страна: England
Жанр: Rock, Glam, Psychedelic Rock
Продолжительность: 07:51:07
Описание:
CD 1 Volume One
01. Over The Flats 01:46
02. Sugar Baby 01:41
03. Children Of The World 02:21
04. Did You Ever 03:03
05. Alligator Man 02:13
06. Shame On You 01:44
07. Guitar Blues 01:54
08. Shadow Babe 02:16
09. Cry Baby (Acoustic) 00:49
10. Cry Baby (Electric) 00:37
11. Rollin’ Stone 02:28
12. What Do I See 01:18
13. Shame On You (Little Girl) 00:45
14. Always 01;05
15. Auto Machine 01:39
16. Unicorn Horn (A Thousand Mark Feld Charms) 09:26
17. Jam 12:20
18. Sailors Of The Highway 02:15

eac
Exact Audio Copy V1.1 from 23. June 2015

EAC extraction logfile from 1. December 2015, 11:54

Marc Bolan & T. Rex / Unchained CD1 1972 Part 1

Used drive : PLEXTOR BD-R PX-B950SA Adapter: 1 ID: 1

Read mode : Secure
Utilize accurate stream : Yes
Defeat audio cache : Yes
Make use of C2 pointers : No

Read offset correction : 6
Overread into Lead-In and Lead-Out : No
Fill up missing offset samples with silence : Yes
Delete leading and trailing silent blocks : No
Null samples used in CRC calculations : Yes
Used interface : Native Win32 interface for Win NT & 2000

Used output format : Internal WAV Routines
Sample format : 44.100 Hz; 16 Bit; Stereo

TOC of the extracted CD

Track | Start | Length | Start sector | End sector
---------------------------------------------------------
1 | 0:00.00 | 1:46.29 | 0 | 7978
2 | 1:46.29 | 1:41.73 | 7979 | 15626
3 | 3:28.27 | 2:21.23 | 15627 | 26224
4 | 5:49.50 | 3:03.44 | 26225 | 39993
5 | 8:53.19 | 2:13.22 | 39994 | 49990
6 | 11:06.41 | 1:44.52 | 49991 | 57842
7 | 12:51.18 | 1:54.15 | 57843 | 66407
8 | 14:45.33 | 2:16.21 | 66408 | 76628
9 | 17:01.54 | 0:49.21 | 76629 | 80324
10 | 17:51.00 | 0:37.38 | 80325 | 83137
11 | 18:28.38 | 2:28.34 | 83138 | 94271
12 | 20:56.72 | 1:18.28 | 94272 | 100149
13 | 22:15.25 | 0:45.26 | 100150 | 103550
14 | 23:00.51 | 1:05.15 | 103551 | 108440
15 | 24:05.66 | 1:39.64 | 108441 | 115929
16 | 25:45.55 | 9:26.47 | 115930 | 158426
17 | 35:12.27 | 12:20.64 | 158427 | 213990
18 | 47:33.16 | 2:15.74 | 213991 | 224189

Range status and errors

Selected range

Filename C:UsersMeijinDesktopLossless Galaxy ALLexxessMarc Bolan & T. Rex2015 Unchained (8CD Box Set Edsel Records)CD1Marc Bolan & T. Rex - Unchained CD1 1972 Part 1.wav

Peak level 99.4 %
Extraction speed 7.0 X
Range quality 100.0 %
Test CRC BA102655
Copy CRC BA102655
Copy OK

No errors occurred

AccurateRip summary

Track 1 not present in database
Track 2 not present in database
Track 3 not present in database
Track 4 not present in database
Track 5 not present in database
Track 6 not present in database
Track 7 not present in database
Track 8 not present in database
Track 9 not present in database
Track 10 not present in database
Track 11 not present in database
Track 12 not present in database
Track 13 not present in database
Track 14 not present in database
Track 15 not present in database
Track 16 not present in database
Track 17 not present in database
Track 18 not present in database

None of the tracks are present in the AccurateRip database

End of status report

---- CUETools DB Plugin V2.1.6

[CTDB TOCID: aL0bOWx3AFfc3usu4vs5Vttc9jY-] disk not present in database
Submit result: aL0bOWx3AFfc3usu4vs5Vttc9jY- has been uploaded

==== Log checksum ABA4E7C46A7A1AD533C62032BFDBE1E8FA764B37E98E375E77B33F8B96910714 ====
CD 2 Volume Two
01. Would I Be The One? 01:17
02. Meadows Of The Sea 04:48
03. Mr. Motion (Version 1) 01:46
04. Mr. Motion (Version 2) 01:09
05. City Port (Faast Punk) 01:31
06. Just Like Me (Version 1) 02:09
07. Just Like Me (Version 2) 02:19
08. Is It True? 01:48
09. Zinc Rider 00:58
10. Canyon 01:12
11. Fast Blues - Easy Action 03:25
12. Bolan’s Blues 07:05
13. Shake It Wind One 01:25
14. Work With Me Baby 02:11
15. Spaceball Boot 02:05
16. Electric Lips 01:54
17. Slider Blues 03:30
18. Ellie May 02:43
19. My Baby’s New Porsche 08:36
20. Dark-Lipped Woman 01:26

eac
Exact Audio Copy V1.1 from 23. June 2015

EAC extraction logfile from 1. December 2015, 11:28

Marc Bolan & T. Rex / Unchained CD2 1972 Part 2

Used drive : PLEXTOR BD-R PX-B950SA Adapter: 1 ID: 1

Read mode : Secure
Utilize accurate stream : Yes
Defeat audio cache : Yes
Make use of C2 pointers : No

Read offset correction : 6
Overread into Lead-In and Lead-Out : No
Fill up missing offset samples with silence : Yes
Delete leading and trailing silent blocks : No
Null samples used in CRC calculations : Yes
Used interface : Native Win32 interface for Win NT & 2000

Used output format : Internal WAV Routines
Sample format : 44.100 Hz; 16 Bit; Stereo

TOC of the extracted CD

Track | Start | Length | Start sector | End sector
---------------------------------------------------------
1 | 0:00.00 | 1:17.15 | 0 | 5789
2 | 1:17.15 | 4:18.74 | 5790 | 25213
3 | 5:36.14 | 1:46.51 | 25214 | 33214
4 | 7:22.65 | 1:09.58 | 33215 | 38447
5 | 8:32.48 | 1:31.64 | 38448 | 45336
6 | 10:04.37 | 2:09.72 | 45337 | 55083
7 | 12:14.34 | 2:19.42 | 55084 | 65550
8 | 14:34.01 | 1:48.14 | 65551 | 73664
9 | 16:22.15 | 0:58.59 | 73665 | 78073
10 | 17:20.74 | 1:12.02 | 78074 | 83475
11 | 18:33.01 | 3:25.16 | 83476 | 98866
12 | 21:58.17 | 7:05.19 | 98867 | 130760
13 | 29:03.36 | 1:25.19 | 130761 | 137154
14 | 30:28.55 | 2:11.66 | 137155 | 147045
15 | 32:40.46 | 2:05.09 | 147046 | 156429
16 | 34:45.55 | 1:54.53 | 156430 | 165032
17 | 36:40.33 | 3:30.45 | 165033 | 180827
18 | 40:11.03 | 2:43.49 | 180828 | 193101
19 | 42:54.52 | 8:36.27 | 193102 | 231828
20 | 51:31.04 | 1:26.59 | 231829 | 238337

Range status and errors

Selected range

Filename C:UsersMeijinDesktopLossless Galaxy ALLexxessMarc Bolan & T. Rex2015 Unchained (8CD Box Set Edsel Records)CD2Marc Bolan & T. Rex - Unchained CD2 1972 Part 2.wav

Peak level 100.0 %
Extraction speed 7.1 X
Range quality 100.0 %
Test CRC EC05C2D3
Copy CRC EC05C2D3
Copy OK

No errors occurred

AccurateRip summary

Track 1 not present in database
Track 2 not present in database
Track 3 not present in database
Track 4 not present in database
Track 5 not present in database
Track 6 not present in database
Track 7 not present in database
Track 8 not present in database
Track 9 not present in database
Track 10 not present in database
Track 11 not present in database
Track 12 not present in database
Track 13 not present in database
Track 14 not present in database
Track 15 not present in database
Track 16 not present in database
Track 17 not present in database
Track 18 not present in database
Track 19 not present in database
Track 20 not present in database

None of the tracks are present in the AccurateRip database

End of status report

---- CUETools DB Plugin V2.1.6

[CTDB TOCID: YDbikKxmuSJExwu39JsZxhQhFig-] disk not present in database
Submit result: YDbikKxmuSJExwu39JsZxhQhFig- has been uploaded

==== Log checksum DDE32E3F1C934391B97B15A3D2AFBFC149CE961A5BEF27CA23F133885CC5D36D ====
CD 3 Volume Three
01. Organ Thing (Instrumental) 00:47
02. Dance In The Midnight (Version 1) 03:17
03. Delanie (Everyday) (Version 2) 02:07
04. I Wanna Go 01:22
05. Saturday Night (Version 1) 03:19
06. Down Home Lady (Version 2) 01:39
07. Hope You Enjoy The Show (Version 1) 03:34
08. All My Love (Version 1) 02:36
09. This Is My Life 04:56
10. Mr Motion 03:03
11. Big Black Cat 01:33
12. Saturation Syncopation (All Alone) (Version 2) 03:21
13. Down Home Lady (Version 1) 01:13
14. Metropolis Incarnate (Version 1) 03:25
15. Misfortune Gatehouse 01:14
16. You Move Like A Dog 04:56
17. Saturday Night (Version 2) 01:51
18. Sky Church Music 04:18
19. Dance In The Midnight (Version 2) 01:03

eac
Exact Audio Copy V1.1 from 23. June 2015

EAC extraction logfile from 1. December 2015, 10:54

Marc Bolan & T. Rex / Unchained CD3 1973 Part 1

Used drive : PLEXTOR BD-R PX-B950SA Adapter: 1 ID: 1

Read mode : Secure
Utilize accurate stream : Yes
Defeat audio cache : Yes
Make use of C2 pointers : No

Read offset correction : 6
Overread into Lead-In and Lead-Out : No
Fill up missing offset samples with silence : Yes
Delete leading and trailing silent blocks : No
Null samples used in CRC calculations : Yes
Used interface : Native Win32 interface for Win NT & 2000

Used output format : Internal WAV Routines
Sample format : 44.100 Hz; 16 Bit; Stereo

TOC of the extracted CD

Track | Start | Length | Start sector | End sector
---------------------------------------------------------
1 | 0:00.00 | 0:47.31 | 0 | 3555
2 | 0:47.31 | 3:17.04 | 3556 | 18334
3 | 4:04.35 | 2:07.25 | 18335 | 27884
4 | 6:11.60 | 1:22.01 | 27885 | 34035
5 | 7:33.61 | 3:19.10 | 34036 | 48970
6 | 10:52.71 | 1:39.25 | 48971 | 56420
7 | 12:32.21 | 3:34.73 | 56421 | 72543
8 | 16:07.19 | 2:36.66 | 72544 | 84309
9 | 18:44.10 | 4:56.09 | 84310 | 106518
10 | 23:40.19 | 3:03.54 | 106519 | 120297
11 | 26:43.73 | 1:33.57 | 120298 | 127329
12 | 28:17.55 | 3:21.06 | 127330 | 142410
13 | 31:38.61 | 1:13.56 | 142411 | 147941
14 | 32:52.42 | 3:25.72 | 147942 | 163388
15 | 36:18.39 | 1:14.30 | 163389 | 168968
16 | 37:32.69 | 4:56.34 | 168969 | 191202
17 | 42:29.28 | 1:51.46 | 191203 | 199573
18 | 44:20.74 | 4:18.01 | 199574 | 218924
19 | 48:39.00 | 1:03.64 | 218925 | 223713

Range status and errors

Selected range

Filename C:UsersMeijinDesktopLossless Galaxy ALLexxessMarc Bolan & T. Rex2015 Unchained (8CD Box Set Edsel Records)CD3Marc Bolan & T. Rex - Unchained CD3 1973 Part 1.wav

Peak level 99.4 %
Extraction speed 7.0 X
Range quality 100.0 %
Test CRC 060B9A88
Copy CRC 060B9A88
Copy OK

No errors occurred

AccurateRip summary

Track 1 not present in database
Track 2 not present in database
Track 3 not present in database
Track 4 not present in database
Track 5 not present in database
Track 6 not present in database
Track 7 not present in database
Track 8 not present in database
Track 9 not present in database
Track 10 not present in database
Track 11 not present in database
Track 12 not present in database
Track 13 not present in database
Track 14 not present in database
Track 15 not present in database
Track 16 not present in database
Track 17 not present in database
Track 18 not present in database
Track 19 not present in database

None of the tracks are present in the AccurateRip database

End of status report

---- CUETools DB Plugin V2.1.6

[CTDB TOCID: fEJjoXrBwenGnusHVDpi.9.YjqU-] disk not present in database
Submit result: fEJjoXrBwenGnusHVDpi.9.YjqU- has been uploaded

==== Log checksum BF0AE62E59C6EA09E8CA56B9C85D6970B721E3CC40C672AB6427BDB3154F270D ====
CD 4 Volume Four
01. All My Love (Version 2) 02:56
02. Hope You Enjoy The Show (Version 2) 03:14
03. Down Home Lady (Version 3) 01:55
04. Sure Enough 00:54
05. Saturation Syncopation (All Alone) (Version 3) 03:22
06. I’m Coming To Rock ’N’ Roll 00:39
07. High Wire 01:21
08. Yesterday (Everyday) (Version 1) 01:56
09. Sad Girl 00:57
10. Metropolis Incarnate (Version 2) 04:14
11. Jam 09:57
12. Down Home Lady (Version 4) 01:54
13. Look Around 01:26
14. Jet Tambourine 06:09
15. Dance In The Midnight (Version 3) 02:05
16. Plateau Skull 03:50
17. Saturation Syncopation (All Alone) (Version 1) 02:53
18. Saturday Night (Version 3) 03:48

eac
Exact Audio Copy V1.1 from 23. June 2015

EAC extraction logfile from 1. December 2015, 10:25

Marc Bolan & T. Rex / Unchained CD4 1973 Part 2

Used drive : PLEXTOR BD-R PX-B950SA Adapter: 1 ID: 1

Read mode : Secure
Utilize accurate stream : Yes
Defeat audio cache : Yes
Make use of C2 pointers : No

Read offset correction : 6
Overread into Lead-In and Lead-Out : No
Fill up missing offset samples with silence : Yes
Delete leading and trailing silent blocks : No
Null samples used in CRC calculations : Yes
Used interface : Native Win32 interface for Win NT & 2000

Used output format : Internal WAV Routines
Sample format : 44.100 Hz; 16 Bit; Stereo

TOC of the extracted CD

Track | Start | Length | Start sector | End sector
---------------------------------------------------------
1 | 0:00.00 | 2:56.09 | 0 | 13208
2 | 2:56.09 | 3:14.71 | 13209 | 27829
3 | 6:11.05 | 1:55.24 | 27830 | 36478
4 | 8:06.29 | 0:54.25 | 36479 | 40553
5 | 9:00.54 | 3:22.61 | 40554 | 55764
6 | 12:23.40 | 0:39.17 | 55765 | 58706
7 | 13:02.57 | 1:21.65 | 58707 | 64846
8 | 14:24.47 | 1:56.66 | 64847 | 73612
9 | 16:21.38 | 0:57.06 | 73613 | 77893
10 | 17:18.44 | 4:14.41 | 77894 | 96984
11 | 21:33.10 | 9:57.62 | 96985 | 141821
12 | 31:30.72 | 1:54.33 | 141822 | 150404
13 | 33:25.30 | 1:26.36 | 150405 | 156890
14 | 34:51.66 | 6:09.32 | 156891 | 184597
15 | 41:01.23 | 2:05.04 | 184598 | 193976
16 | 43:06.27 | 3:50.15 | 193977 | 211241
17 | 46:56.42 | 2:53.16 | 211242 | 224232
18 | 49:49.58 | 3:48.29 | 224233 | 241361

Range status and errors

Selected range

Filename C:UsersMeijinDesktopLossless Galaxy ALLexxessMarc Bolan & T. Rex2015 Unchained (8CD Box Set Edsel Records)CD4Marc Bolan & T. Rex - Unchained CD4 1973 Part 2.wav

Peak level 99.7 %
Extraction speed 7.2 X
Range quality 100.0 %
Test CRC D20DA895
Copy CRC D20DA895
Copy OK

No errors occurred

AccurateRip summary

Track 1 not present in database
Track 2 not present in database
Track 3 not present in database
Track 4 not present in database
Track 5 not present in database
Track 6 not present in database
Track 7 not present in database
Track 8 not present in database
Track 9 not present in database
Track 10 not present in database
Track 11 not present in database
Track 12 not present in database
Track 13 not present in database
Track 14 not present in database
Track 15 not present in database
Track 16 not present in database
Track 17 not present in database
Track 18 not present in database

None of the tracks are present in the AccurateRip database

End of status report

---- CUETools DB Plugin V2.1.6

[CTDB TOCID: 3zK8WxCcnKWtgDiSV4TP6b9HoZI-] disk not present in database
Submit result: 3zK8WxCcnKWtgDiSV4TP6b9HoZI- has been uploaded

==== Log checksum 72E5E3DC64328D355745403B38936370A3A63F4CE219EABC23DE7B9E1259AE17 ====
CD 5 Volume Five
01. Bolan’s Zip Gun 02:01
02. Lock Into Your Love 05:02
03. I Never Told Me 02:50
04. Every Lady 00:53
05. Do I Love Thee 05:30
06. (By The Light Of A) Magical Moon 03:54
07. Sparrow 03:25
08. Sanctified 03:39
09. Two Tone Lady (She’ll Be Good To Me) 07:22
10. Video Drama 04:59
11. Love For Me 02:54
12. Jet Tambourine 02;03
13. 11.15 (Jam) 11:27
Extended Play:
14. (By The Light Of A) Magical Moon 03:07
15. Video Drama (Extracts) 02:46
16. Do I Love Thee 02:58

eac
Exact Audio Copy V1.1 from 23. June 2015

EAC extraction logfile from 30. November 2015, 18:47

Marc Bolan & T. Rex / Unchained CD5 1974

Used drive : PLEXTOR BD-R PX-B950SA Adapter: 1 ID: 1

Read mode : Secure
Utilize accurate stream : Yes
Defeat audio cache : Yes
Make use of C2 pointers : No

Read offset correction : 6
Overread into Lead-In and Lead-Out : No
Fill up missing offset samples with silence : Yes
Delete leading and trailing silent blocks : No
Null samples used in CRC calculations : Yes
Used interface : Native Win32 interface for Win NT & 2000

Used output format : Internal WAV Routines
Sample format : 44.100 Hz; 16 Bit; Stereo

TOC of the extracted CD

Track | Start | Length | Start sector | End sector
---------------------------------------------------------
1 | 0:00.00 | 2:01.05 | 0 | 9079
2 | 2:01.05 | 5:02.28 | 9080 | 31757
3 | 7:03.33 | 2:50.70 | 31758 | 44577
4 | 9:54.28 | 0:53.59 | 44578 | 48611
5 | 10:48.12 | 5:30.11 | 48612 | 73372
6 | 16:18.23 | 3:54.19 | 73373 | 90941
7 | 20:12.42 | 3:25.43 | 90942 | 106359
8 | 23:38.10 | 3:39.03 | 106360 | 122787
9 | 27:17.13 | 7:22.43 | 122788 | 155980
10 | 34:39.56 | 4:59.06 | 155981 | 178411
11 | 39:38.62 | 2:54.37 | 178412 | 191498
12 | 42:33.24 | 2:03.03 | 191499 | 200726
13 | 44:36.27 | 11:27.52 | 200727 | 252303
14 | 56:04.04 | 3:07.15 | 252304 | 266343
15 | 59:11.19 | 2:46.69 | 266344 | 278862
16 | 61:58.13 | 2:58.05 | 278863 | 292217

Range status and errors

Selected range

Filename C:UsersMeijinDesktopLossless Galaxy ALLexxessMarc Bolan & T. Rex2015 Unchained (8CD Box Set Edsel Records)CD5Marc Bolan & T. Rex - Unchained CD5 1974.wav

Peak level 99.9 %
Extraction speed 7.6 X
Range quality 100.0 %
Test CRC 59DBF1A7
Copy CRC 59DBF1A7
Copy OK

No errors occurred

AccurateRip summary

Track 1 not present in database
Track 2 not present in database
Track 3 not present in database
Track 4 not present in database
Track 5 not present in database
Track 6 not present in database
Track 7 not present in database
Track 8 not present in database
Track 9 not present in database
Track 10 not present in database
Track 11 not present in database
Track 12 not present in database
Track 13 not present in database
Track 14 not present in database
Track 15 not present in database
Track 16 not present in database

None of the tracks are present in the AccurateRip database

End of status report

---- CUETools DB Plugin V2.1.6

[CTDB TOCID: JRUzGDTKGNKnOp9oBAau8zJNpEc-] disk not present in database
Submit result: JRUzGDTKGNKnOp9oBAau8zJNpEc- has been uploaded

==== Log checksum A2B85829B1AFB9AA44D821FBDEDE9BC7F05A6E7F439CF628D4B4BC1F910A520E ====
CD 6 Volume Six
01. Pale Horse Ridin’ 01:00
02. Funky London Childhood 02:23
03. Depth Charge 01:03
04. Brain Police 02:38
05. I Could Have Loved You 01:03
06. Bust My Ball 02:34
07. King Of The Mountain Cometh 02:04
08. Statement Of Utopia 00:55
09. Swahili Boogie Woogie 04:56
10. Hey Little Girl 00:35
11. Petticoat Lane 02:45
12. I Believe 03:08
13. Change Change 01:16
14. Oh Boy 04:59
15. Savage Beethoven 02:00
16. Voice Poem 03:18
17. Dynamo 00:48
18. Baby Please, Baby Squeeze 01:16
19. Ain’t That A Shame 05:23
20. Teenage Boy Child 03:34
21. Electric Stew (Acoustic) 00:59
22. Reelin’ & A Wheelin’ & A Boppin’ & A Bolan 01:03
23. You Ought To Know 02:09
24. It’s My City 02:23
25. Christmas Bop 04:01
Extended Play:
26. Funky London Childhood 02:27
27. I Could Have Loved You 01:07
28. King Of The Mountain Cometh 02:42
29. Swahili Boogie Woogie 02:59
30. I Believe 07:34
31. Petticoat Lane 00:35
32. Petticoat Lane (Take 2) 00:40
33. Dynamo (Takes 1, 2, 3) 01:56
34. Baby Please, Baby Squeeze 00:25

eac
Exact Audio Copy V1.1 from 23. June 2015

EAC extraction logfile from 30. November 2015, 18:01

Marc Bolan & T. Rex / Unchained CD6 1975

Used drive : PLEXTOR BD-R PX-B950SA Adapter: 1 ID: 1

Read mode : Secure
Utilize accurate stream : Yes
Defeat audio cache : Yes
Make use of C2 pointers : No

Read offset correction : 6
Overread into Lead-In and Lead-Out : No
Fill up missing offset samples with silence : Yes
Delete leading and trailing silent blocks : No
Null samples used in CRC calculations : Yes
Used interface : Native Win32 interface for Win NT & 2000

Used output format : Internal WAV Routines
Sample format : 44.100 Hz; 16 Bit; Stereo

TOC of the extracted CD

Track | Start | Length | Start sector | End sector
---------------------------------------------------------
1 | 0:00.00 | 1:00.05 | 0 | 4504
2 | 1:00.05 | 2:23.45 | 4505 | 15274
3 | 3:23.50 | 1:03.32 | 15275 | 20031
4 | 4:27.07 | 2:38.45 | 20032 | 31926
5 | 7:05.52 | 1:03.69 | 31927 | 36720
6 | 8:09.46 | 2:34.14 | 36721 | 48284
7 | 10:43.60 | 2:04.28 | 48285 | 57612
8 | 12:48.13 | 0:55.62 | 57613 | 61799
9 | 13:44.00 | 4:56.49 | 61800 | 84048
10 | 18:40.49 | 0:35.30 | 84049 | 86703
11 | 19:16.04 | 2:45.21 | 86704 | 99099
12 | 22:01.25 | 3:08.38 | 99100 | 113237
13 | 25:09.63 | 1:16.33 | 113238 | 118970
14 | 26:26.21 | 4:59.70 | 118971 | 141465
15 | 31:26.16 | 2:00.32 | 141466 | 150497
16 | 33:26.48 | 3:18.51 | 150498 | 165398
17 | 36:45.24 | 0:48.17 | 165399 | 169015
18 | 37:33.41 | 1:16.01 | 169016 | 174716
19 | 38:49.42 | 5:23.62 | 174717 | 199003
20 | 44:13.29 | 3:34.36 | 199004 | 215089
21 | 47:47.65 | 0:59.43 | 215090 | 219557
22 | 48:47.33 | 1:03.18 | 219558 | 224300
23 | 49:50.51 | 2:09.52 | 224301 | 234027
24 | 52:00.28 | 2:23.69 | 234028 | 244821
25 | 54:24.22 | 4:01.40 | 244822 | 262936
26 | 58:25.62 | 2:27.00 | 262937 | 273961
27 | 60:52.62 | 1:07.06 | 273962 | 278992
28 | 61:59.68 | 2:42.02 | 278993 | 291144
29 | 64:41.70 | 2:59.28 | 291145 | 304597
30 | 67:41.23 | 7:34.54 | 304598 | 338701
31 | 75:16.02 | 0:35.69 | 338702 | 341395
32 | 75:51.71 | 0:40.40 | 341396 | 344435
33 | 76:32.36 | 1:56.07 | 344436 | 353142
34 | 78:28.43 | 0:25.12 | 353143 | 355029

Range status and errors

Selected range

Filename C:UsersMeijinDesktopLossless Galaxy ALLexxessMarc Bolan & T. Rex2015 Unchained (8CD Box Set Edsel Records)CD6Marc Bolan & T. Rex - Unchained CD6 1975.wav

Peak level 100.0 %
Extraction speed 8.5 X
Range quality 100.0 %
Test CRC E1E38287
Copy CRC E1E38287
Copy OK

No errors occurred

AccurateRip summary

Track 1 not present in database
Track 2 not present in database
Track 3 not present in database
Track 4 not present in database
Track 5 not present in database
Track 6 not present in database
Track 7 not present in database
Track 8 not present in database
Track 9 not present in database
Track 10 not present in database
Track 11 not present in database
Track 12 not present in database
Track 13 not present in database
Track 14 not present in database
Track 15 not present in database
Track 16 not present in database
Track 17 not present in database
Track 18 not present in database
Track 19 not present in database
Track 20 not present in database
Track 21 not present in database
Track 22 not present in database
Track 23 not present in database
Track 24 not present in database
Track 25 not present in database
Track 26 not present in database
Track 27 not present in database
Track 28 not present in database
Track 29 not present in database
Track 30 not present in database
Track 31 not present in database
Track 32 not present in database
Track 33 not present in database
Track 34 not present in database

None of the tracks are present in the AccurateRip database

End of status report

---- CUETools DB Plugin V2.1.6

[CTDB TOCID: 8AMb_rJtk0SxVQVNz3d9QM9aZYo-] disk not present in database
Submit result: 8AMb_rJtk0SxVQVNz3d9QM9aZYo- has been uploaded

==== Log checksum 3CB547CB65A14B836E1EF1712A2E5D90B08FBED9740183055183EC07393219CE ====
CD 7 Volume Seven
01. Riff 01:32
02. Freeway 00:57
03. I’m A Voodoo Man 02:55
04. Decadent Priestess 02:34
05. Midnight Creeps Across Your Window 01:13
06. Demon Grave 03:31
07. Memphis Highway 01:03
08. Bombs Out Of London 00:43
09. Funky London Childhood 02:15
10. London Boys 01:55
11. Savage Deception Of Love 00:32
12. Angel When I’m Mad 01:26
13. Over You Babe 02:23
14. Mellow Love (Solo) 02:50
15. Love Drunk (Solo) 02:59
16. 20th Century Baby (Solo) 01:21
17. Shy Boy 02:37
18. Love Drunk 03:40
19. Foxy Boy 02:17
20. 20th Century Baby 02:19
21. Hot George 01:43
22. Write Me A Song 02:52
23. Mellow Love 03:19
24. Endless Sleep 02:54
25. Sing Me A Song 03:09
26. Riff 00:42

eac
Exact Audio Copy V1.1 from 23. June 2015

EAC extraction logfile from 30. November 2015, 11:04

Marc Bolan & T. Rex / Unchained CD7 1975-1977

Used drive : PLEXTOR BD-R PX-B950SA Adapter: 1 ID: 1

Read mode : Secure
Utilize accurate stream : Yes
Defeat audio cache : Yes
Make use of C2 pointers : No

Read offset correction : 6
Overread into Lead-In and Lead-Out : No
Fill up missing offset samples with silence : Yes
Delete leading and trailing silent blocks : No
Null samples used in CRC calculations : Yes
Used interface : Native Win32 interface for Win NT & 2000

Used output format : Internal WAV Routines
Sample format : 44.100 Hz; 16 Bit; Stereo

TOC of the extracted CD

Track | Start | Length | Start sector | End sector
---------------------------------------------------------
1 | 0:00.00 | 1:32.49 | 0 | 6948
2 | 1:32.49 | 0:57.62 | 6949 | 11285
3 | 2:30.36 | 2:55.36 | 11286 | 24446
4 | 5:25.72 | 2:34.01 | 24447 | 35997
5 | 7:59.73 | 1:13.26 | 35998 | 41498
6 | 9:13.24 | 3:31.10 | 41499 | 57333
7 | 12:44.34 | 1:03.13 | 57334 | 62071
8 | 13:47.47 | 0:43.28 | 62072 | 65324
9 | 14:31.00 | 2:15.44 | 65325 | 75493
10 | 16:46.44 | 1:55.19 | 75494 | 84137
11 | 18:41.63 | 0:32.74 | 84138 | 86611
12 | 19:14.62 | 1:26.26 | 86612 | 93087
13 | 20:41.13 | 2:23.65 | 93088 | 103877
14 | 23:05.03 | 2:50.59 | 103878 | 116686
15 | 25:55.62 | 2:59.11 | 116687 | 130122
16 | 28:54.73 | 1:21.38 | 130123 | 136235
17 | 30:16.36 | 2:37.20 | 136236 | 148030
18 | 32:53.56 | 2:40.57 | 148031 | 160087
19 | 35:34.38 | 2:17.57 | 160088 | 170419
20 | 37:52.20 | 2:19.39 | 170420 | 180883
21 | 40:11.59 | 1:43.31 | 180884 | 188639
22 | 41:55.15 | 2:52.05 | 188640 | 201544
23 | 44:47.20 | 3:19.48 | 201545 | 216517
24 | 48:06.68 | 2:54.51 | 216518 | 229618
25 | 51:01.44 | 3:09.25 | 229619 | 243818
26 | 54:10.69 | 0:42.53 | 243819 | 247021

Range status and errors

Selected range

Filename C:UsersMeijinDesktopLossless Galaxy ALLexxessMarc Bolan & T. Rex2015 Unchained (8CD Box Set Edsel Records)CD7Marc Bolan & T. Rex - Unchained CD7 1975-1977.wav

Peak level 100.0 %
Extraction speed 7.2 X
Range quality 100.0 %
Test CRC 4162E61B
Copy CRC 4162E61B
Copy OK

No errors occurred

AccurateRip summary

Track 1 not present in database
Track 2 not present in database
Track 3 not present in database
Track 4 not present in database
Track 5 not present in database
Track 6 not present in database
Track 7 not present in database
Track 8 not present in database
Track 9 not present in database
Track 10 not present in database
Track 11 not present in database
Track 12 not present in database
Track 13 not present in database
Track 14 not present in database
Track 15 not present in database
Track 16 not present in database
Track 17 not present in database
Track 18 not present in database
Track 19 not present in database
Track 20 not present in database
Track 21 not present in database
Track 22 not present in database
Track 23 not present in database
Track 24 not present in database
Track 25 not present in database
Track 26 not present in database

None of the tracks are present in the AccurateRip database

End of status report

---- CUETools DB Plugin V2.1.6

[CTDB TOCID: cmM1egMgLAffQzYGoMsgkS4YCHA-] disk not present in database
Submit result: cmM1egMgLAffQzYGoMsgkS4YCHA- has been uploaded

==== Log checksum 39A00BBBFA0A153C05D8BBD8781CA1BF62BB355C1BA4861EF11809CBC442A069 ====
CD 8 Volume Eight
01. Everybody Needs Somebody 01:51
02. Teenage Angel 01:48
03. Every Single Day (When I Was A Child) 01:42
04. Bad Love Woman 01:31
05. Sad Man 01:55
06. Skateboard 02:11
07. You Got The Taste 04:13
08. Fine Little Baby 00:56
09. Auto Destruct 02:12
10. Young Boy Of Love 01:12
11. Wherever You Go 00:55
12. It’s Alright 00:50
13. Love Charm 01:50
14. Stay Hungry 01:30
15. Sometimes You Rock Me 01:15
16. Be Not Afraid Of Love 02:03
17. Young Girl Of Love 01:49
18. Gimme Some Lovin’ 00:48
19. Little Brother 02:04
20. All The Rage 00:57
21. Shadow Shaker 01:49
22. Boogie With Your Baby 01:32
23. When Will I Be Loved 01:04
24. 21st Century Stance 02:22
25. Purple Prince Of Pleasure 01:16
26. Like A Warrior 00:33
27. Think Zinc Lady 00:32
28. Messing With The Mystic 01:13
29. When Was A Child 03:11
30. Ghetto Baby Blue 03:27
31. Sailors Of The Highway 02:57
32. Get Down 08:12
33. Classic Rap 02:17

eac
Exact Audio Copy V1.1 from 23. June 2015

EAC extraction logfile from 30. November 2015, 10:34

Marc Bolan & T. Rex / Unchained CD8 1977

Used drive : PLEXTOR BD-R PX-B950SA Adapter: 1 ID: 1

Read mode : Secure
Utilize accurate stream : Yes
Defeat audio cache : Yes
Make use of C2 pointers : No

Read offset correction : 6
Overread into Lead-In and Lead-Out : No
Fill up missing offset samples with silence : Yes
Delete leading and trailing silent blocks : No
Null samples used in CRC calculations : Yes
Used interface : Native Win32 interface for Win NT & 2000

Used output format : Internal WAV Routines
Sample format : 44.100 Hz; 16 Bit; Stereo

TOC of the extracted CD

Track | Start | Length | Start sector | End sector
---------------------------------------------------------
1 | 0:00.00 | 1:51.03 | 0 | 8327
2 | 1:51.03 | 1:48.67 | 8328 | 16494
3 | 3:39.70 | 1:42.13 | 16495 | 24157
4 | 5:22.08 | 1:31.08 | 24158 | 30990
5 | 6:53.16 | 1:55.56 | 30991 | 39671
6 | 8:48.72 | 2:11.58 | 39672 | 49554
7 | 11:00.55 | 4:13.22 | 49555 | 68551
8 | 15:14.02 | 0:56.12 | 68552 | 72763
9 | 16:10.14 | 2:12.72 | 72764 | 82735
10 | 18:23.11 | 1:12.51 | 82736 | 88186
11 | 19:35.62 | 0:55.07 | 88187 | 92318
12 | 20:30.69 | 0:50.42 | 92319 | 96110
13 | 21:21.36 | 1:50.74 | 96111 | 104434
14 | 23:12.35 | 1:30.67 | 104435 | 111251
15 | 24:43.27 | 1:15.04 | 111252 | 116880
16 | 25:58.31 | 2:03.13 | 116881 | 126118
17 | 28:01.44 | 1:49.24 | 126119 | 134317
18 | 29:50.68 | 0:48.66 | 134318 | 137983
19 | 30:39.59 | 2:04.36 | 137984 | 147319
20 | 32:44.20 | 0:57.25 | 147320 | 151619
21 | 33:41.45 | 1:49.40 | 151620 | 159834
22 | 35:31.10 | 1:32.51 | 159835 | 166785
23 | 37:03.61 | 1:04.14 | 166786 | 171599
24 | 38:08.00 | 2:22.44 | 171600 | 182293
25 | 40:30.44 | 1:16.36 | 182294 | 188029
26 | 41:47.05 | 0:33.31 | 188030 | 190535
27 | 42:20.36 | 0:32.47 | 190536 | 192982
28 | 42:53.08 | 1:13.06 | 192983 | 198463
29 | 44:06.14 | 3:11.46 | 198464 | 212834
30 | 47:17.60 | 3:27.43 | 212835 | 228402
31 | 50:45.28 | 2:57.72 | 228403 | 241749
32 | 53:43.25 | 8:12.54 | 241750 | 278703
33 | 61:56.04 | 2:17.23 | 278704 | 289001

Range status and errors

Selected range

Filename C:UsersMeijinDesktopLossless Galaxy ALLexxessMarc Bolan & T. Rex2015 Unchained (8CD Box Set Edsel Records)CD8Marc Bolan & T. Rex - Unchained CD8 1977.wav

Peak level 100.0 %
Extraction speed 7.5 X
Range quality 100.0 %
Test CRC C89E299E
Copy CRC C89E299E
Copy OK

No errors occurred

AccurateRip summary

Track 1 not present in database
Track 2 not present in database
Track 3 not present in database
Track 4 not present in database
Track 5 not present in database
Track 6 not present in database
Track 7 not present in database
Track 8 not present in database
Track 9 not present in database
Track 10 not present in database
Track 11 not present in database
Track 12 not present in database
Track 13 not present in database
Track 14 not present in database
Track 15 not present in database
Track 16 not present in database
Track 17 not present in database
Track 18 not present in database
Track 19 not present in database
Track 20 not present in database
Track 21 not present in database
Track 22 not present in database
Track 23 not present in database
Track 24 not present in database
Track 25 not present in database
Track 26 not present in database
Track 27 not present in database
Track 28 not present in database
Track 29 not present in database
Track 30 not present in database
Track 31 not present in database
Track 32 not present in database
Track 33 not present in database

None of the tracks are present in the AccurateRip database

End of status report

---- CUETools DB Plugin V2.1.6

[CTDB TOCID: bqApox8g9Z_lK2KZVfchkGcVpnY-] disk not present in database
Submit result: bqApox8g9Z_lK2KZVfchkGcVpnY- has been uploaded

==== Log checksum C1EA66BDB0F0DD89783FE82D8E11ED26270951F55DAC6F1AF1639CE0216FD9BF ====


Доп. информация:
Об издании
(8CD Deluxe Box Set Edsel Records 2015)

Edsel Records / Demon Music Group
Catalog Box: UNCHBOX01
Catalog All CDs: UNCHBOX01
Made in EU
Музыка / Lossless / Рок, Панк, Метал, Альтернатива.
СКАЧАТЬ БЕСПЛАТНО  [2.8 GB]


14
мая
2010

Marc Bolan & T.Rex - Discography [1967 - 2006, Glam Rock, Folk Rock, Psychedelic Rock, APE, FLAC]

Формат: APE, FLAC, (image + .cue), lossless
Год выпуска: 1967 - 2006
Страна: England
Жанр: Glam Rock, Folk Rock, Psychedelic Rock
Продолжительность: 44:08:42
Описание: Studio albums: 1967 - Smashed Blocked! (Marc Bolan & John's Children) 45
Трэклист: 01. Smashed Blocked 02:59 02. Just What You Want - Just What You'll Get 03:02 03. Strange Affair 02:04 04. But She's Mine 01:56] 05. Hippy Gumbo 02:35 06. Jagged Time Lapse 02:46 07. Midsummer Night's Scene (alternate version) 02:35 08. Not The Sort Of Girl You Take To Bed 02:26 09. Mustang Ford 02:20 10. The Love I Thought I'd Found 03:01 11 ...

06
июн
2010

Marc Bolan T.Rex - Born to Boogie (Special Edition)[ 2005, Glam Rock, 2xDVD 9]

Субтитры: Английские / Французские / Итальянские / Немецкие / Испанские
Формат: DVD9, DVD Video, MPEG2, AC3
Концерт: Born to Boogie
Жанр: Glam Rock
Продолжительность: 02:14:13 + 03:15:31 Год выпуска DVD: Sanctuary Records © 2005
Режиссер: Ринго Старр / Ringo Starr
В ролях: Марк Болан, Ринго Старр, Элтон Джон
Доп. информация: Музыкальный фильм о концерте легендарных T.Rex, состоявшемся на пике их славы, в 1972-м году, вскоре после выхода альбома «Electric Warrior». «Born To Boogie» был отснят от начала до конца самим Ринго Старом. Это издание включает множество ранее не изданных видеоматериало ...

14
дек
2015

Marc Bolan T.Rex - For All The Cats (The Best Of) 2CD [2015, Rock, Glam-Rock, FLAC]

Формат: FLAC, (image + .cue), lossless
Год выпуска: 2015
Страна: UK
Жанр: Rock, Glam-Rock
Продолжительность: 02:24:40
Описание: CD 1 0101. Debora 02. One Inch Rock 03. Pewter Suitor 04. King of the Rumbling Spires 05. By the Light of a Magical Moon 06. Ride a White Swan 07. Hot Love 08. Get It on 09. Jepster 10. Telegram Sam 11. Metal Guru 12. Chariot Choogle 13. Children of the Revolution 14. Solid Gold Easy Action 15. 20th Century Boy 16. The Groover 17. Truck on (Tyke) 18. Teenage Dream 19. Zip Gun Boogie 20. Girl in the Thunderbolt Suit 21. New York City 22. Dreamy Lady 23. Funky London Ch ...

26
фев
2012

Marc Bolan T.Rex - Golden Hits (2CD) [2011, Rock, MP3]

Формат: MP3, tracks, 320kbps
Год выпуска: 2011
Страна: UK
Жанр: Rock
Продолжительность: 02:39:11
Описание: CD1 01. Solid Baby 02. Tame My Tiger 03. Teenage Dream 04. Metal Guru 05. Telegram Sam 06. The Soul Of My Suit 07. 20th Century Boy 08. All Alone 09. To Know You Is To Love You 10. Woodland Rock 11. Light Of Love 12. Born To Boogie 13. Dandy In The Underworld 14. Celebrate Summer 15. I Love To Boogie 16. Get It On 17. Life's A Gas 18. Sunken Rags 19. Cosmic Dancer 20. The Groover 21. Groove A Little 22. Do You Wanna Dance? 23. Hot Love 24. Jeepster 25. Dock Of The Bay CD2 01. Chrome Sit ...

05
июл
2018

Marc Bolan and T-Rex - 20th Century Boy [1977, 2007, Rock, DVD5]

Формат: DVD5, DVD Video, MPEG2, AC3
Песня: 20th Century Boy
Жанр: Rock
Продолжительность: 02:16:44
Год выпуска: 1977, 2007
Видео: 720х576 (PAL 4:3), 25,000 fps, MPEG-2, ~4110 kbps avg, 0.396 bit/pixel
Аудио: 48.0 КГц, Audio Coding 3, 2 ch, 192 kbps
Доп. информация: T.Rex - английская глэм-рок-группа с лидером Марком Боланом. Основана в 1960-х годах в Лондоне, достигла пика популярности в 1970-х годах (первые места в британских чартах), внесшая огромный вклад в развитие музыки, и оказавшим влияние в т.ч. и на отечественных музыкантов, таких как Б.Г., в чем Б.Г. признавался, в т.ч. и в песнях ...

20
ноя
2012

Marc Bolan - The Celebration Concert 1967, 1977, 2007 [2012, Rock, DVD9]

Формат: DVD9, DVD Video, MPEG2, AC3
Песня: The Celebration Concert
Жанр: Rock
Продолжительность: 02:28:02
Год выпуска: 2012
Видео: 720 x 480 (NTSC 16:9) at 29.970 fps, MPEG2 Video at 6478 Kbps, 0.625 bit/pixel
Аудио: Dolby AC3, 2 ch, 192 Kbps, 48.0 KHz
Доп. информация: Описание Трибъют концерт памяти Марка Болана проходил в Shepherds Bush Empire 15 сентября 2007 года. В концерте приняли участие: T.Rextasy, Andy Ellison, Clem Burke, Ray Dorset, Marc Almond, Neal X, Tony Visconti, Dirty Pretty Strings, Howie Casey, Dr. Robert, Linda Lewis, Gloria Jones. Треклист 01. T.Rextasy - Grover 02. ...

22
июн
2008

Pink Floyd --- Studio Outtakes Demos (1971-72, 1987-1994) (1972) [685]

Страна: Англия
Год выпуска: 1972
Жанр: Прогрессивный рок
Продолжительность: 53:29
Битрейт аудио: 685 kbps
Трэклист: CD-1 01. Pink Floyd - [1971-72 Studio Outtakes & Demos #01] On The Run (Outtake) 02. Pink Floyd - [1971-72 Studio Outtakes & Demos #02] Time (Demo) 03. Pink Floyd - [1971-72 Studio Outtakes & Demos #03] Money (Acoustic Demo) 04. Pink Floyd - [1971-72 Studio Outtakes & Demos #04] Us And Them (Demo) 05. Pink Floyd - [1971-72 Studio Outtakes & Demos #05] Brain Damage / Eclipse (Demo) 06. Pink Floyd - [1971-72 Studio Outtakes & Demos #06] Brain Damage (Outtake, part 1) 07. Pink Floyd ...

11
мая
2018

Marc Bolan - Marс (T-Rex) [1977, Glam Rock, DVD5]

Формат: DVD5, DVD Video, MPEG2, AC3
Песня: Marс (T-Rex)
Жанр: Glam Rock
Продолжительность: 01:04:08
Год выпуска: 1977
Видео: 720х576 (PAL 4:3), 25 fps, MPEG-2, ~6091 kbps avg, 0.588 bit/pixel
Аудио: 48,0 kHz, Audio Coding 3, 2 ch, 192.00 kbps avg
Доп. информация: Концерт записан летом 1977 года в телестудии Гранада. В эфир передача вышла уже после трагической смерти Марка Болана в автомобильной катастрофе. Marc Bolan – настоящее имя - Marc Feld [birth name], Toby Tyler Родился - 30 сентября 1947, Hackney, Greater London, United Kingdom Погиб в автокатастрофе - 16 сентября 1977 // London, Eng ...

17
дек
2015

Marc Bolan - The Beginning Of Doves [2002, Rock, Folk-Rock, FLAC]

Формат: FLAC, (image + .cue), lossless
Год выпуска: 2002
Страна: UK
Жанр: Rock, Folk-Rock
Продолжительность: 01:17:52
Описание: Треклист01. Jasper C. Debussy 2:08 02. Hippy Gumbo 2:04 03. Misfit 1:52 04. The Lilac Hand Of Menthol Dan 1:52 05. Black And White Incident 1:43 06. Jasmine '49 2:25 07. Cat Black 1:20 08. You Got The Power 1:48 09. Eastern Spell 1:27 10. Charlie 1:54 11. I'm Weird 1:18 12. Pictures Of Purple People 2:19 13. Horrible Breath 1:44 14. Hippy Gumbo (Alt. Version) 1:53 15. Mustang Ford 1:39 16. Hot Rod Mama 2:35 17. Observations 2:17 18. The Perfumed Garden Of Gulliver Smi ...

20
окт
2017

Marc Bolan - Acoustic Warrior [1996, Rock, Acoustic, Glam, FLAC]

Формат: FLAC,(image + .cue), lossless
Год выпуска: 1996
Страна: England
Жанр: Rock, Acoustic, Glam
Продолжительность: 01:06:05
Описание: 01. Spaceball Ricochet (4:59) 1972 02. Metal Guru (1:44) 1972 03. The Slider (3:48 ) 1972 04. Jeepster (5:20) 1971 05. Cosmic Dancer (6:07) 1971 06. Mainman (6:08 ) 1972 07. Ballrooms Of Mars (4:09) 1972 08. Mystic Lady (2:35) 1972 09. Girl (3:35) 1971 10. Telegram Sam (3:52) 1972 11. Seagull Woman (2:29) 1970 12. Get It On (5:06) 1971 13. Laser Love (3:44) 1976 14. 20th Century Boy (3:54) 1971 15. Debora (8:14) 1968
Доп. информация: СоставCongas, Bongos, P ...

04
сен
2014

Marc Bolan - Marc [1977, Rock, Glam rock, DVDRip]

Формат: DVDRip, AVI, XviD, MP3
Песня: Marc
Жанр: Rock, Glam Rock
Продолжительность: 00:46:42
Год выпуска: 1977
Видео: 720x544 (1.32:1), 25 fps, XviD MPEG-4 ~2490 kbps avg, 0.25 bit/pixel
Аудио: 44.100 kHz, MPEG Layer 3, 2 ch, ~192.00 kbps avg
Доп. информация: Концерт записан летом 1977 года в телестудии Гранада. В эфир передача вышла уже после трагической смерти Марка Болана в автомобильной катастрофе.
Треклист: 01. Sing Me A Song 02. I Love To Boogie 03. Celebrate Summer 04. Jeepster 05. Celebrate Summer II 06. Ride A White Swan 07. Endless Sleep 08. Groove A Little 09. Let's dance 10. ...

01
мар
2013

Mournblade - Live and Loud - Studio Outtakes [2013, Hard Rock, MP3]

Формат: MP3, tracks, 320kbps
Год выпуска: 2013
Страна: UK
Жанр: Hard Rock
Продолжительность: 01:01:17
Описание: 01 - American Dream 04:44 02 - Burning Ambition 05:47 03 - Desdemona 03:10 04 - If You Can't Be Good 03:22 05 - Laughter From The Mask 04:00 06 - Neat Neat Neat 04:39 07 - Off The Rails 06:01 08 - Paradise 05:24 09 - Red Hot Reputation 03:01 10 - Sidewinder 03:09 11 - The Nearer The Bone (The Sweeter The Meat) 04:31 12 - Titanium Hero 03:56 13 - Whizzkid 05:39 14 - Bomber 03:48
Доп. информация: http://mournblade1.bandcamp.com/

20
окт
2017

T.Rex - The Best Of T.Rex Volume 1 [2006, Rock, Glam, FLAC]

Формат: FLAC, (image + .cue), lossless
Год выпуска: 2006
Страна: UK
Жанр: Rock, Glam
Продолжительность: 01:01:43
Описание: 01. Telegram Sam 02. Metal Guru 03. Children Of The Revolution 04. Solid Gold, Easy Action 05. 20th Century Boy 06. Truck On (Tyke) 07. Teenage Dream 08. Light Of Love 09. New York City 10. London Boys 11. I Love To Boogie 12. Laser Love 13. Lady 14. Born To Boogie 15. Dandy In The Underground 16. Life's An Elevator 17. All Alone 18. Celebrate Summer 19. Buick MacKane 20. Chariot Choogle
Доп. информация: eac Exact Audio Copy V1.3 from 2. September 2016 EAC extraction lo ...

22
окт
2017

Widowmaker - Running Free: The Jet Recordings 1976-1977 (2CD) [2017, Rock, Hard Rock, FLAC]

Формат: FLAC, (image + .cue), lossless
Год выпуска: 2017
Страна: England
Жанр: Rock, Hard Rock
Продолжительность: 01:23:22
Описание: 1976 Widowmaker 00 01. Such A Shame 02. Pin A Rose On Me 03. On The Road 04. Straight Faced Fighter 05. Ain't Telling you Nothing 06. When I Met You 07. Leave The Kids Alone 08. Shine A Light on Me 09. Running Free 10. Got A Dream eacExact Audio Copy V1.3 from 2. September 2016 EAC extraction logfile from 16. October 2017, 18:11 Widowmaker / Widowmaker Used drive : ATAPI iHAS122 C Adapter: 1 ID: 0 Read mode : Secure Utilize accurate stream : Yes Defeat audio ...

23
окт
2014

Foreigner - The Complete Atlantic Studio Albums 1977-1991 (Collection) [2014, Melodic Hard Rock , AOR, AAC]

Формат: AAC, tracks, 256kbps
Год выпуска: 2014
Страна: USA
Жанр: Melodic Hard Rock, AOR
Продолжительность: 05:31:08
Описание: CD I 1 Feels Like the First Time 3.21 2 Cold As Ice 3.34 3 Starrider 4.05 4 Headknocker 2.99 5 The Damage Is Done (Single Version) 4.37 6 Long, Long Way From Home (Single Version) 2.88 7 Woman Oh Woman 3.8 8 At War With the World 4.46 9 Fool For You Anyway 4.35 10 I Need You 5.21 11 Feels Like the First Time (Stereo Demo Version) 3.72 12 Woman Oh Woman (Stereo Demo Version) 4.29 13 At War With the World (Stereo Demo Version) 4.99 14 Take Me To Your Leader (Stereo Demo V ...