14
мая
2010

Marc Bolan & T.Rex - Discography [1967 - 2006, Glam Rock, Folk Rock, Psychedelic Rock, APE, FLAC]

Marc Bolan & T.Rex - Discography

Формат: APE, FLAC, (image + .cue), lossless
Год выпуска: 1967 - 2006
Страна: England
Жанр: Glam Rock, Folk Rock, Psychedelic Rock
Продолжительность: 44:08:42
Описание:

Studio albums:



Marc Bolan T.Rex - Discography
Трэклист:

01. Smashed Blocked 02:59
02. Just What You Want - Just What You'll Get 03:02
03. Strange Affair 02:04
04. But She's Mine 01:56]
05. Hippy Gumbo 02:35
06. Jagged Time Lapse 02:46
07. Midsummer Night's Scene (alternate version) 02:35
08. Not The Sort Of Girl You Take To Bed 02:26
09. Mustang Ford 02:20
10. The Love I Thought I'd Found 03:01
11. Remember Thomas A'Beckett 02:35
12. Come And Play With Me In The Garden (Inst) 02:09
13. Daddy Rolling Stone (BBC) 02:10
14. Hot Rod Mama (BBC) 03:09
15. Perfumed Garden Of Gulliver Smith (BBC) 03:32
16. Jagged Time Lapse (BBC) 02:40
17. Sally Was An Angel (Inst) 03:11






John's Children - Smashed Blocked!

Exact Audio Copy V0.99 prebeta 4 from 23. January 2008

Отчёт EAC об извлечении, выполненном 31. июля 2008, 21:21

John's Children / Smashed Blocked!

Дисковод: _NEC DVD_RW ND-3520A Adapter: 0 ID: 1

Режим чтения : Достоверность
Использование точного потока : Да
Отключение кэша аудио : Да
Использование указателей C2 : Нет

Коррекция смещения при чтении : 48
Способность читать области Lead-in и Lead-out : Нет
Заполнение пропущенных сэмплов тишиной : Да
Удаление блоков с тишиной в начале и конце : Нет
При вычислениях CRC использовались нулевые сэмплы : Нет
Интерфейс : Встроенный Win32-интерфейс для Win NT/2000

Выходной формат : Внутренние WAV-операции
Формат сэмплов : 44.100 Гц; 16 бит; стерео

TOC извлечённого CD

Трек | Старт | Длительность | Начальный сектор | Конечный сектор
---------------------------------------------------------------------
1 | 0:00.00 | 3:02.37 | 0 | 13686
2 | 3:02.37 | 3:04.73 | 13687 | 27559
3 | 6:07.35 | 2:06.55 | 27560 | 37064
4 | 8:14.15 | 1:59.30 | 37065 | 46019
5 | 10:13.45 | 2:37.55 | 46020 | 57849
6 | 12:51.25 | 2:49.30 | 57850 | 70554
7 | 15:40.55 | 2:37.60 | 70555 | 82389
8 | 18:18.40 | 2:28.30 | 82390 | 93519
9 | 20:46.70 | 2:22.50 | 93520 | 104219
10 | 23:09.45 | 3:04.10 | 104220 | 118029
11 | 26:13.55 | 2:37.17 | 118030 | 129821
12 | 28:50.72 | 2:11.18 | 129822 | 139664
13 | 31:02.15 | 2:13.00 | 139665 | 149639
14 | 33:15.15 | 3:11.50 | 149640 | 164014
15 | 36:26.65 | 3:34.02 | 164015 | 180066
16 | 40:00.67 | 2:42.35 | 180067 | 192251
17 | 42:43.27 | 3:10.63 | 192252 | 206564

Характеристики диапазона извлечения и сообщения об ошибках

Выбранный диапазон

Имя файла E:_NewMarc BolanJohn's ChildrenJohn's Children - Smashed Blocked!.wav

Пиковый уровень 100.0 %
Качество диапазона 99.7 %
CRC копии C1CA5854
Копирование... OK

Ошибок не произошло

Конец отчёта





Marc Bolan T.Rex - Discography
Трэклист:

01. Hot Rod Mama 03:07
02. Scenescof 01:38
03. Child Star 02:49
04. Strange Orchestras 01:44
05. Chateau in Virginia Waters 02:36
06. Dwarfish Trumpet Blues 02:45
07. Mustang Ford 02:56
08. Afhgan Woman 01:56
09. Knight 02:35
10. Graceful Fat Sheba 01:26
11. Weilder of Words 03:17
12. Frowning Atahuallpa (My Inca Love) 05:53






Tyrannosaurus Rex - My People Were Fair And Had Sky In Thier Hair But Now They're Content To Wear Stars On Their Brows

Exact Audio Copy V0.99 prebeta 4 from 23. January 2008

Отчёт EAC об извлечении, выполненном 5. мая 2010, 13:04

Tyrannosaurus Rex / My People Were Fair And Had Sky In Thier Hair But Now They're Content To Wear Stars On Their Brows

Дисковод: _NEC DVD_RW ND-3540A Adapter: 2 ID: 0

Режим чтения : Достоверность
Использование точного потока : Да
Отключение кэша аудио : Да
Использование указателей C2 : Нет

Коррекция смещения при чтении : 48
Способность читать области Lead-in и Lead-out : Нет
Заполнение пропущенных сэмплов тишиной : Да
Удаление блоков с тишиной в начале и конце : Нет
При вычислениях CRC использовались нулевые сэмплы : Да
Интерфейс : Установленный внешний ASPI-интерфейс

Выходной формат : Пользовательский кодировщик
Выбранный битрейт : 1024 kBit/s
Качество : Высокий
Добавление ID3-тэга : Нет
Утилита сжатия : C:Program FilesExact Audio CopyFLACFLAC.EXE
Дополнительные параметры : -6 -V -T "ARTIST=%a" -T "TITLE=%t" -T "ALBUM=%g" -T "DATE=%y" -T "TRACKNUMBER=%n" -T "GENRE=%m" -T "COMMENT=%e" %s -o %d

TOC извлечённого CD

Трек | Старт | Длительность | Начальный сектор | Конечный сектор
---------------------------------------------------------------------
1 | 0:00.00 | 3:07.29 | 0 | 14053
2 | 3:07.29 | 1:38.31 | 14054 | 21434
3 | 4:45.60 | 2:48.58 | 21435 | 34092
4 | 7:34.43 | 1:44.23 | 34093 | 41915
5 | 9:18.66 | 2:35.53 | 41916 | 53593
6 | 11:54.44 | 2:44.61 | 53594 | 65954
7 | 14:39.30 | 2:56.19 | 65955 | 79173
8 | 17:35.49 | 1:55.54 | 79174 | 87852
9 | 19:31.28 | 2:35.20 | 87853 | 99497
10 | 22:06.48 | 1:25.67 | 99498 | 105939
11 | 23:32.40 | 3:16.56 | 105940 | 120695
12 | 26:49.21 | 5:53.01 | 120696 | 147171

Характеристики диапазона извлечения и сообщения об ошибках

Выбранный диапазон

Имя файла J:AUDIOROCKT.REX1968 - My People Were Fair And Had Sky In Thier Hair But Now They're Content To Wear Stars On Their BrowsTyrannosaurus Rex - My People Were Fair And Had Sky In Thier Hair But Now They're Content To Wear Stars On Their Bro

Пиковый уровень 99.8 %
Качество диапазона 100.0 %
CRC копии 95ACDD75
Копирование... OK

Ошибок не произошло

Конец отчёта





Marc Bolan T.Rex - Discography
Трэклист:

01. Deboraarobed 03:33
02. Stacey Grove 02:00
03. Wind Quartets 02:57
04. Conesuela 02:25
05. Trelawney Lawn 01:46
06. Aznageel The Mage 02:00
07. Friends 01:20
08. Salamanda Palaganda 02:15
09. Our Wonderful Brownskin Man 00:52
10. O Harley (The Saltimbaques) 02:20
11. Eastern Spell 01:41
12. The Travelling Tragition 01:49
13. Juniper Suction 01:13
14. Scenescof Dynasty 04:12
15. One Inch Rock (Single 'A' Side) 01:49
16. Nickelodeon (Take 1) 02:06
17. Wind Quartets (Take 1) 02:56
18. Conesuela (Take 9) 02:26
19. Trelawney Lawn (Take 1) 01:51
20. Aznageel The Mage (Take 1) 01:58
21. Salamanda Palaganda (Take 4) 02:16
22. Our Wonderful Brownskin Man (Take 2) 00:53
23. O Harley (The Saltimbaques) (Take 4) 02:24
24. Eastern Spell (Take 5) 01:44
25. The Travelling Tragition (Take 2) 01:48
26. Juniper Suction (Take 4) 01:16
27. Scenescof Dynasty (Take 4) 04:08
28. One Inch Rock (Take 3) 01:51






Tyrannosaurus Rex - Prophets, Seers & Sages The Angel Of The Ages (Expanded Edition)

Exact Audio Copy V0.99 prebeta 3 from 28. July 2007

Отчёт EAC об извлечении, выполненном 30. марта 2008, 13:22

Tyrannosaurus Rex / Prophets, Seers & Sages The Angel Of The Ages (Expanded Edition)

Дисковод: _NEC DVD_RW ND-3520AW Adapter: 1 ID: 2

Режим чтения : Достоверность
Использование точного потока : Да
Отключение кэша аудио : Да
Использование указателей C2 : Нет

Коррекция смещения при чтении : 48
Способность читать области Lead-in и Lead-out : Нет
Заполнение пропущенных сэмплов тишиной : Да
Удаление блоков с тишиной в начале и конце : Нет
При вычислениях CRC использовались нулевые сэмплы : Да
Интерфейс : Встроенный Win32-интерфейс для Win NT/2000

Выходной формат : Monkey's Audio Lossless Encoder v3.99 DLL
Формат сэмплов : Fast Lossless Compression

TOC извлечённого CD

Трек | Старт | Длительность | Начальный сектор | Конечный сектор
---------------------------------------------------------------------
1 | 0:00.00 | 3:33.35 | 0 | 16009
2 | 3:33.35 | 1:59.44 | 16010 | 24978
3 | 5:33.04 | 2:57.33 | 24979 | 38286
4 | 8:30.37 | 2:24.39 | 38287 | 49125
5 | 10:55.01 | 1:46.72 | 49126 | 57147
6 | 12:41.73 | 1:59.49 | 57148 | 66121
7 | 14:41.47 | 1:19.73 | 66122 | 72119
8 | 16:01.45 | 2:15.18 | 72120 | 82262
9 | 18:16.63 | 0:51.52 | 82263 | 86139
10 | 19:08.40 | 2:19.36 | 86140 | 96600
11 | 21:28.01 | 1:41.43 | 96601 | 104218
12 | 23:09.44 | 1:48.36 | 104219 | 112354
13 | 24:58.05 | 1:13.62 | 112355 | 117891
14 | 26:11.67 | 4:11.52 | 117892 | 136768
15 | 30:23.44 | 1:48.39 | 136769 | 144907
16 | 32:12.08 | 2:06.25 | 144908 | 154382
17 | 34:18.33 | 2:55.55 | 154383 | 167562
18 | 37:14.13 | 2:26.40 | 167563 | 178552
19 | 39:40.53 | 1:51.00 | 178553 | 186877
20 | 41:31.53 | 1:57.28 | 186878 | 195680
21 | 43:29.06 | 2:16.05 | 195681 | 205885
22 | 45:45.11 | 0:53.24 | 205886 | 209884
23 | 46:38.35 | 2:23.41 | 209885 | 220650
24 | 49:02.01 | 1:44.44 | 220651 | 228494
25 | 50:46.45 | 1:47.70 | 228495 | 236589
26 | 52:34.40 | 1:15.44 | 236590 | 242258
27 | 53:50.09 | 4:08.12 | 242259 | 260870
28 | 57:58.21 | 1:51.47 | 260871 | 269242

Характеристики диапазона извлечения и сообщения об ошибках

Выбранный диапазон

Имя файла E:Music LosslessTyrannosaurus Rex - Prophets, Seers & Sages The Angel Of The Ages (Expanded Edition)Tyrannosaurus Rex - Prophets, Seers & Sages The Angel Of The Ages (Expanded Edition).ape

Пиковый уровень 100.0 %
Качество диапазона 99.9 %
CRC теста 75B136C0
CRC копии 75B136C0
Копирование... OK

Ошибок не произошло

Конец отчёта





Marc Bolan T.Rex - Discography
Трэклист:

01. Chariots Of Silk 02:26
02. 'Pon a Hill 01:16
03. The Seal of Seasons 01:46
04. The Throat of Winter 01:57
05. Cat Black (the Wizard's Hat) 02:52
06. Stones for Avalon 01:36
07. She Was Born to Be My Unicorn 02:35
08. Like a White Star, Tangled and Far, Tulip That's What You Are 03:48
09. Warlord of the Royal Crocodiles 02:09
10. Evenings of Damask 02:25
11. The Sea Beasts 02:24
12. Iscariot 02:52
13. Nijinsky Hind 02:17
14. The Pilgrim's Tale 02:05
15. The Misty Coast of Albany 05:05
16. Romany Soup 02:15






Tyrannosaurus Rex - Unicorn

Exact Audio Copy V0.99 prebeta 4 from 23. January 2008

Отчёт EAC об извлечении, выполненном 7. мая 2010, 15:16

Tyrannosaurus Rex / Unicorn

Дисковод: _NEC DVD_RW ND-3540A Adapter: 2 ID: 0

Режим чтения : Достоверность
Использование точного потока : Да
Отключение кэша аудио : Да
Использование указателей C2 : Нет

Коррекция смещения при чтении : 48
Способность читать области Lead-in и Lead-out : Нет
Заполнение пропущенных сэмплов тишиной : Да
Удаление блоков с тишиной в начале и конце : Нет
При вычислениях CRC использовались нулевые сэмплы : Да
Интерфейс : Установленный внешний ASPI-интерфейс

Выходной формат : Пользовательский кодировщик
Выбранный битрейт : 1024 kBit/s
Качество : Высокий
Добавление ID3-тэга : Нет
Утилита сжатия : C:Program FilesExact Audio CopyFLACFLAC.EXE
Дополнительные параметры : -6 -V -T "ARTIST=%a" -T "TITLE=%t" -T "ALBUM=%g" -T "DATE=%y" -T "TRACKNUMBER=%n" -T "GENRE=%m" -T "COMMENT=%e" %s -o %d

TOC извлечённого CD

Трек | Старт | Длительность | Начальный сектор | Конечный сектор
---------------------------------------------------------------------
1 | 0:00.00 | 2:26.62 | 0 | 11011
2 | 2:26.62 | 1:15.18 | 11012 | 16654
3 | 3:42.05 | 1:46.22 | 16655 | 24626
4 | 5:28.27 | 1:57.08 | 24627 | 33409
5 | 7:25.35 | 2:52.37 | 33410 | 46346
6 | 10:17.72 | 1:35.48 | 46347 | 53519
7 | 11:53.45 | 2:35.07 | 53520 | 65151
8 | 14:28.52 | 3:47.30 | 65152 | 82206
9 | 18:16.07 | 2:09.43 | 82207 | 91924
10 | 20:25.50 | 2:24.47 | 91925 | 102771
11 | 22:50.22 | 2:24.30 | 102772 | 113601
12 | 25:14.52 | 2:51.35 | 113602 | 126461
13 | 28:06.12 | 2:17.40 | 126462 | 136776
14 | 30:23.52 | 2:05.08 | 136777 | 146159
15 | 32:28.60 | 5:04.37 | 146160 | 168996
16 | 37:33.22 | 2:14.53 | 168997 | 179099

Характеристики диапазона извлечения и сообщения об ошибках

Выбранный диапазон

Имя файла D:TempDCT.REXTyrannosaurus Rex - Unicorn.wav

Пиковый уровень 64.4 %
Качество диапазона 100.0 %
CRC копии 2F7633AB
Копирование... OK

Ошибок не произошло

Конец отчёта





Marc Bolan T.Rex - Discography
Трэклист:

01. Prelude 01:03
02. A Day Laye 01:57
03. Woodland Bop 01:36
04. First Heart MIght Dawn Dart 02:42
05. Pavilions of Sun 02:49
06. Organ Blues 02:45
07. By The Light of The Magical Moon 02:49
08. Wind Cheetah 02:36
09. A Beard of Stars 01:37
10. Great Horsy 01:42
11. Dragon's Ear 02:35
12. Lofty Skies 02:52
13. Dove 02:03
14. Elemental Child 05:31






Tyrannosaurus Rex - A Beard Of Stars

Exact Audio Copy V0.99 prebeta 4 from 23. January 2008

Отчёт EAC об извлечении, выполненном 5. мая 2010, 21:26

Tyrannosaurus Rex / A Beard Of Stars

Дисковод: _NEC DVD_RW ND-3540A Adapter: 2 ID: 0

Режим чтения : Достоверность
Использование точного потока : Да
Отключение кэша аудио : Да
Использование указателей C2 : Нет

Коррекция смещения при чтении : 48
Способность читать области Lead-in и Lead-out : Нет
Заполнение пропущенных сэмплов тишиной : Да
Удаление блоков с тишиной в начале и конце : Нет
При вычислениях CRC использовались нулевые сэмплы : Да
Интерфейс : Установленный внешний ASPI-интерфейс

Выходной формат : Пользовательский кодировщик
Выбранный битрейт : 1024 kBit/s
Качество : Высокий
Добавление ID3-тэга : Нет
Утилита сжатия : C:Program FilesExact Audio CopyFLACFLAC.EXE
Дополнительные параметры : -6 -V -T "ARTIST=%a" -T "TITLE=%t" -T "ALBUM=%g" -T "DATE=%y" -T "TRACKNUMBER=%n" -T "GENRE=%m" -T "COMMENT=%e" %s -o %d

TOC извлечённого CD

Трек | Старт | Длительность | Начальный сектор | Конечный сектор
---------------------------------------------------------------------
1 | 0:00.00 | 1:03.44 | 0 | 4768
2 | 1:03.44 | 1:56.36 | 4769 | 13504
3 | 3:00.05 | 1:36.30 | 13505 | 20734
4 | 4:36.35 | 2:42.32 | 20735 | 32916
5 | 7:18.67 | 2:48.73 | 32917 | 45589
6 | 10:07.65 | 2:44.72 | 45590 | 57961
7 | 12:52.62 | 2:48.58 | 57962 | 70619
8 | 15:41.45 | 2:35.35 | 70620 | 82279
9 | 18:17.05 | 1:36.71 | 82280 | 89550
10 | 19:54.01 | 1:42.66 | 89551 | 97266
11 | 21:36.67 | 2:34.69 | 97267 | 108885
12 | 24:11.61 | 2:51.15 | 108886 | 121725
13 | 27:03.01 | 2:03.38 | 121726 | 130988
14 | 29:06.39 | 5:31.68 | 130989 | 155881

Характеристики диапазона извлечения и сообщения об ошибках

Выбранный диапазон

Имя файла D:TempDCT.REX1970 - A Beard Of StarsTyrannosaurus Rex - A Beard Of Stars.wav

Пиковый уровень 100.0 %
Качество диапазона 99.9 %
CRC копии BC9E3B61
Копирование... OK

Ошибок не произошло

Конец отчёта





Marc Bolan T.Rex - Discography
Трэклист:

01. The Children Of Rarn 00:53
02. Jewel 02:46
03. The Visit 01:55
04. Childe 01:37
05. The Time Of Love Is Now 02:43
06. Diamond Meadows 01:59
07. Root Of Star 02:31
08. Beltane Walk 02:29
09. Is It Love? 02:36
10. One Inch Rock 02:28
11. Summer Deep 01:45
12. Seagull Woman 02:20
13. Suneye 02:07
14. The Wizard 08:53
15. The Children Of Rarn 00:38
Bonus Tracks
16. Ride A White Swan (Single 'A' Side) 02:32
17. Summertime Blues (Single 'B' Side) 02:44
18. Poem 00:36
19. The Visit (Take 4) 01:59
20. Diamond Meadows (Take 6) 01:59
21. One Inch Rock 02:28
22. Seagull Woman 02:21
23. The Wizard 08:35
24. The Children Of Rarn 00:42






T. Rex - T. Rex (Expanded Edition)

EAC extraction logfile from 3. March 2006, 16:46 for CD
T. Rex / T. Rex (2004 Remaster)

Used drive : _NEC DVD_RW ND-3540A Adapter: 1 ID: 0
Read mode : Secure with NO C2, accurate stream, disable cache
Read offset correction : 48
Overread into Lead-In and Lead-Out : No

Used output format : D:ToolsAudioCodecswapet.exe (User Defined Encoder)
320 kBit/s
Additional command line options : %d -t "Artist=%a" -t "Title=%g" -t "Album=%g" -t "Year=%y" -t "Track=1" -t "Genre=%m" -t "Comment=EAC (Secure Mode) / Monkey's Audio 3.99" d:toolsaudiocodecsmac.exe %s %d -c2000

Other options :
Fill up missing offset samples with silence : Yes
Delete leading and trailing silent blocks : No
Installed external ASPI interface

Range status and errors
Selected range
Filename G:AudioCDRipT. Rex - [1970] - T. Rex (2004 Remaster)T. Rex.wav

Peak level 97.8 %
Range quality 99.9 %
CRC B79C1D31
Copy OK

No errors occured

End of status report





Marc Bolan T.Rex - Discography
Трэклист:

01. Mambo Sun 03:39
02. Cosmic Dancer 04:28
03. Jeepster 04:11
04. Monolith 03:47
05. Lean Woman Blues 03:01
06. Get It On 04:25
07. Planet Queen 03:12
08. Girl 02:31
09. The Motivator 03:59
10. Life's A Gas 02:24
11. Rip Off 03:43
Bonus Tracks
12. Rip Off (Work In Progress) 02:30
13. Mambo Sun (Work In Progress) 03:57
14. Cosmic Dancer (Work In Progress) 05:15
15. Monolith (Work In Progress) 04:48
16. Get It On (Work In Progress) 04:44
17. Planet Queen (Work In Progress) 00:56
18. The Motivator (Work In Progress) 04:20
19. Life's A Gas (Work In Progress) 03:14






T.Rex - Electric Warrior (30th Anniversary Special Edition)

Exact Audio Copy V0.99 prebeta 4 from 23. January 2008

Отчёт EAC об извлечении, выполненном 31. июля 2008, 22:17

T.Rex / Electric Warrior (30th Anniversary Special Edition)

Дисковод: _NEC DVD_RW ND-3520A Adapter: 0 ID: 1

Режим чтения : Достоверность
Использование точного потока : Да
Отключение кэша аудио : Да
Использование указателей C2 : Нет

Коррекция смещения при чтении : 48
Способность читать области Lead-in и Lead-out : Нет
Заполнение пропущенных сэмплов тишиной : Да
Удаление блоков с тишиной в начале и конце : Нет
При вычислениях CRC использовались нулевые сэмплы : Нет
Интерфейс : Встроенный Win32-интерфейс для Win NT/2000

Выходной формат : Внутренние WAV-операции
Формат сэмплов : 44.100 Гц; 16 бит; стерео

TOC извлечённого CD

Трек | Старт | Длительность | Начальный сектор | Конечный сектор
---------------------------------------------------------------------
1 | 0:00.00 | 3:41.31 | 0 | 16605
2 | 3:41.31 | 4:30.22 | 16606 | 36877
3 | 8:11.53 | 4:12.34 | 36878 | 55811
4 | 12:24.12 | 3:49.30 | 55812 | 73016
5 | 16:13.42 | 3:02.41 | 73017 | 86707
6 | 19:16.08 | 4:27.48 | 86708 | 106780
7 | 23:43.56 | 3:13.62 | 106781 | 121317
8 | 26:57.43 | 2:33.14 | 121318 | 132806
9 | 29:30.57 | 4:00.49 | 132807 | 150855
10 | 33:31.31 | 2:25.68 | 150856 | 161798
11 | 35:57.24 | 3:44.63 | 161799 | 178661
12 | 39:42.12 | 2:32.11 | 178662 | 190072
13 | 42:14.23 | 3:59.19 | 190073 | 208016
14 | 46:13.42 | 5:17.07 | 208017 | 231798
15 | 51:30.49 | 4:49.52 | 231799 | 253525
16 | 56:20.26 | 4:45.59 | 253526 | 274959
17 | 61:06.10 | 0:58.58 | 274960 | 279367
18 | 62:04.68 | 4:21.12 | 279368 | 298954
19 | 66:26.05 | 3:14.63 | 298955 | 313567

Характеристики диапазона извлечения и сообщения об ошибках

Выбранный диапазон

Имя файла E:_NewMarc BolanElectric WarriorT.Rex - Electric Warrior (30th Anniversary Special Edition).wav

Пиковый уровень 100.0 %
Качество диапазона 99.9 %
CRC копии E4AB5634
Копирование... OK

Ошибок не произошло

Конец отчёта





Marc Bolan T.Rex - Discography
Disc 1
Трэклист:

01. Bang a Gong (Get It On) 06:12
02. Monolith 04:55
03. Cosmic Dancer 04:24
04. Life's a Gas 02:46
05. Honey Don't 06:47
06. Woodland Rock 02:20
07. Monolith [Second Version] 02:25
08. Summertime Blues 03:30
09. Jeepster 03:42
10. Baby Strange 02:25
11. Jewel 05:02
12. Bang a Gong (Get It On) [Second Version] 05:37

Disc 2 - Bonus Disc
Трэклист:

01. Bang a Gong (Get It On) [Version 3] 04:28
02. Interview With Marc on the "Electric Warrior" album 1971 11:58
03. Interview With Marc Bolan 14:45
04. Life's a Gas [Electric Version] 02:16
05. Mambo Sun 00:23






Marc Bolan & T. Rex - Electric Warrior Sessions (2CD)

Marc Bolan & T. Rex - Electric Warrior Sessions (Disc 1)

Exact Audio Copy V0.99 prebeta 5 from 4. May 2009

Отчёт EAC об извлечении, выполненном 7. июня 2009, 22:06

Marc Bolan & T. Rex / Electric Warrior Sessions (Disc 1)

Дисковод: PLEXTOR CD-R PREMIUM2 Adapter: 1 ID: 0

Режим чтения : Достоверность
Использование точного потока : Да
Отключение кэша аудио : Да
Использование указателей C2 : Нет

Коррекция смещения при чтении : 30
Способность читать области Lead-in и Lead-out : Да
Заполнение пропущенных сэмплов тишиной : Да
Удаление блоков с тишиной в начале и конце : Нет
При вычислениях CRC использовались нулевые сэмплы : Да
Интерфейс : Установленный внешний ASPI-интерфейс

Выходной формат : Пользовательский кодировщик
Выбранный битрейт : 1024 kBit/s
Качество : Высокий
Добавление ID3-тэга : Нет
Утилита сжатия : C:Program FilesExact Audio CopyFLACFLAC.EXE
Дополнительные параметры : -6 -V -T "ARTIST=%a" -T "TITLE=%t" -T "ALBUM=%g" -T "DATE=%y" -T "TRACKNUMBER=%n" -T "GENRE=%m" -T "COMMENT=%e" %s -o %d

TOC извлечённого CD

Трек | Старт | Длительность | Начальный сектор | Конечный сектор
---------------------------------------------------------------------
1 | 0:00.00 | 6:14.35 | 0 | 28084
2 | 6:14.35 | 4:54.57 | 28085 | 50191
3 | 11:09.17 | 4:25.63 | 50192 | 70129
4 | 15:35.05 | 2:48.40 | 70130 | 82769
5 | 18:23.45 | 6:48.30 | 82770 | 113399
6 | 25:12.00 | 2:22.20 | 113400 | 124069
7 | 27:34.20 | 2:26.60 | 124070 | 135079
8 | 30:01.05 | 3:32.17 | 135080 | 150996
9 | 33:33.22 | 3:43.73 | 150997 | 167794
10 | 37:17.20 | 2:27.02 | 167795 | 178821
11 | 39:44.22 | 5:04.05 | 178822 | 201626
12 | 44:48.27 | 5:37.35 | 201627 | 226936

Характеристики диапазона извлечения и сообщения об ошибках

Выбранный диапазон

Имя файла C:Documents and SettingsAnatoliyМои документыT.RexT.Rex - Electric Warrior Sessions(1971-1996)Marc Bolan & T. Rex - Electric Warrior Sessions (Disc 1).wav

Пиковый уровень 99.7 %
Качество диапазона 100.0 %
CRC копии C02AED11
Копирование... OK

Ошибок не произошло

Конец отчёта

Marc Bolan & T. Rex - Electric Warrior Sessions (Disc 2)

Exact Audio Copy V0.99 prebeta 5 from 4. May 2009

Отчёт EAC об извлечении, выполненном 7. июня 2009, 22:15

Marc Bolan & T. Rex / Electric Warrior Sessions (Bonus Disc)

Дисковод: PLEXTOR CD-R PREMIUM2 Adapter: 1 ID: 0

Режим чтения : Достоверность
Использование точного потока : Да
Отключение кэша аудио : Да
Использование указателей C2 : Нет

Коррекция смещения при чтении : 30
Способность читать области Lead-in и Lead-out : Да
Заполнение пропущенных сэмплов тишиной : Да
Удаление блоков с тишиной в начале и конце : Нет
При вычислениях CRC использовались нулевые сэмплы : Да
Интерфейс : Установленный внешний ASPI-интерфейс

Выходной формат : Пользовательский кодировщик
Выбранный битрейт : 1024 kBit/s
Качество : Высокий
Добавление ID3-тэга : Нет
Утилита сжатия : C:Program FilesExact Audio CopyFLACFLAC.EXE
Дополнительные параметры : -6 -V -T "ARTIST=%a" -T "TITLE=%t" -T "ALBUM=%g" -T "DATE=%y" -T "TRACKNUMBER=%n" -T "GENRE=%m" -T "COMMENT=%e" %s -o %d

TOC извлечённого CD

Трек | Старт | Длительность | Начальный сектор | Конечный сектор
---------------------------------------------------------------------
1 | 0:00.00 | 4:30.20 | 0 | 20269
2 | 4:30.20 | 11:59.72 | 20270 | 74266
3 | 16:30.17 | 14:47.23 | 74267 | 140814
4 | 31:17.40 | 2:17.62 | 140815 | 151151
5 | 33:35.27 | 0:23.03 | 151152 | 152879

Характеристики диапазона извлечения и сообщения об ошибках

Выбранный диапазон

Имя файла C:Documents and SettingsAnatoliyМои документыT.RexT.Rex - Electric Warrior Sessions(1971-1996)Marc Bolan & T. Rex - Electric Warrior Sessions (Bonus Disc).wav

Пиковый уровень 100.0 %
Качество диапазона 100.0 %
CRC копии E62B371D
Копирование... OK

Ошибок не произошло

Конец отчёта





Marc Bolan T.Rex - Discography
Трэклист:

01. Get It On 04:25
02. Beltane Walk 02:20
03. King Of The Mountain Cometh 03:52
04. Jewel 02:48
05. She Was Born To My Unicorn 02:36
06. Dove 02:04
07. Woodland Rock 02:23
08. Ride A White Swan 02:15
09. Raw Ramp 05:15
10. Jeepster 04:12
11. Fist Heart Mighty Dawn Dart 02:44
12. By The Light Of Magical Moon 02:50
13. Summertime Blues 02:42
14. Hot Love 05:00






T. Rex - Bolan Boogie

Exact Audio Copy V0.99 prebeta 5 from 4. May 2009

Отчёт EAC об извлечении, выполненном 29. мая 2009, 15:52

T. Rex / Bolan Boogie

Дисковод: _NEC DVD_RW ND-3540A Adapter: 2 ID: 0

Режим чтения : Достоверность
Использование точного потока : Да
Отключение кэша аудио : Да
Использование указателей C2 : Нет

Коррекция смещения при чтении : 48
Способность читать области Lead-in и Lead-out : Нет
Заполнение пропущенных сэмплов тишиной : Да
Удаление блоков с тишиной в начале и конце : Нет
При вычислениях CRC использовались нулевые сэмплы : Да
Интерфейс : Установленный внешний ASPI-интерфейс

Выходной формат : Пользовательский кодировщик
Выбранный битрейт : 768 kBit/s
Качество : Высокий
Добавление ID3-тэга : Нет
Утилита сжатия : C:Program FilesExact Audio CopyFLACFLAC.EXE
Дополнительные параметры : -6 -V -T "ARTIST=%a" -T "TITLE=%t" -T "ALBUM=%g" -T "DATE=%y" -T "TRACKNUMBER=%n" -T "GENRE=%m" -T "COMMENT=%e" %s -o %d

TOC извлечённого CD

Трек | Старт | Длительность | Начальный сектор | Конечный сектор
---------------------------------------------------------------------
1 | 0:00.32 | 4:26.50 | 32 | 20031
2 | 4:27.07 | 2:21.45 | 20032 | 30651
3 | 6:48.52 | 3:53.20 | 30652 | 48146
4 | 10:41.72 | 2:48.65 | 48147 | 60811
5 | 13:30.62 | 2:36.48 | 60812 | 72559
6 | 16:07.35 | 2:05.00 | 72560 | 81934
7 | 18:12.35 | 2:24.27 | 81935 | 92761
8 | 20:36.62 | 2:15.53 | 92762 | 102939
9 | 22:52.40 | 5:15.12 | 102940 | 126576
10 | 28:07.52 | 4:12.48 | 126577 | 145524
11 | 32:20.25 | 2:45.35 | 145525 | 157934
12 | 35:05.60 | 2:52.15 | 157935 | 170849
13 | 37:58.00 | 2:43.30 | 170850 | 183104
14 | 40:41.30 | 5:00.02 | 183105 | 205606

Характеристики диапазона извлечения и сообщения об ошибках

Выбранный диапазон

Имя файла E:AUDIOROCKT.REX1972 _ Bolan BoogieT. Rex - Bolan Boogie.wav

Пиковый уровень 100.0 %
Качество диапазона 100.0 %
CRC копии E83CB084
Копирование... OK

Ошибок не произошло

Конец отчёта





Marc Bolan T.Rex - Discography
Трэклист:

01. Metal Guru 02:26
02. Mystic Lady 03:11
03. Rock On 03:27
04. The Slider 03:20
05. Baby Boomerang 02:18
06. Spaceball Ricochet 03:35
07. Buick Mackane 03:31
08. Telegram Sam 03:44
09. Rabbit Fighter 03:56
10. Baby Strange 03:03
11. Ballrooms Of Mars 04:08
12. Chariot Choogle 02:44
13. Main Man 04:12






T. Rex - The Slider

Exact Audio Copy V0.99 prebeta 5 from 4. May 2009

Отчёт EAC об извлечении, выполненном 7. июня 2009, 21:56

T. Rex / The Slider

Дисковод: PLEXTOR CD-R PREMIUM2 Adapter: 1 ID: 0

Режим чтения : Достоверность
Использование точного потока : Да
Отключение кэша аудио : Да
Использование указателей C2 : Нет

Коррекция смещения при чтении : 30
Способность читать области Lead-in и Lead-out : Да
Заполнение пропущенных сэмплов тишиной : Да
Удаление блоков с тишиной в начале и конце : Нет
При вычислениях CRC использовались нулевые сэмплы : Да
Интерфейс : Установленный внешний ASPI-интерфейс

Выходной формат : Пользовательский кодировщик
Выбранный битрейт : 1024 kBit/s
Качество : Высокий
Добавление ID3-тэга : Нет
Утилита сжатия : C:Program FilesExact Audio CopyFLACFLAC.EXE
Дополнительные параметры : -6 -V -T "ARTIST=%a" -T "TITLE=%t" -T "ALBUM=%g" -T "DATE=%y" -T "TRACKNUMBER=%n" -T "GENRE=%m" -T "COMMENT=%e" %s -o %d

TOC извлечённого CD

Трек | Старт | Длительность | Начальный сектор | Конечный сектор
---------------------------------------------------------------------
1 | 0:00.32 | 2:27.68 | 32 | 11124
2 | 2:28.25 | 3:13.70 | 11125 | 25669
3 | 5:42.20 | 3:29.02 | 25670 | 41346
4 | 9:11.22 | 3:23.05 | 41347 | 56576
5 | 12:34.27 | 2:18.70 | 56577 | 66996
6 | 14:53.22 | 3:36.00 | 66997 | 83196
7 | 18:29.22 | 3:32.03 | 83197 | 99099
8 | 22:01.25 | 3:45.00 | 99100 | 115974
9 | 25:46.25 | 3:57.02 | 115975 | 133751
10 | 29:43.27 | 3:04.35 | 133752 | 147586
11 | 32:47.62 | 4:09.35 | 147587 | 166296
12 | 36:57.22 | 2:45.00 | 166297 | 178671
13 | 39:42.22 | 4:12.15 | 178672 | 197586

Характеристики диапазона извлечения и сообщения об ошибках

Выбранный диапазон

Имя файла C:Documents and SettingsAnatoliyМои документыT.RexT.Rex - The Slider(1972-1987)T. Rex - The Slider.wav

Пиковый уровень 100.0 %
Качество диапазона 100.0 %
CRC копии 37A72E4A
Копирование... OK

Ошибок не произошло

AccurateRip: сводка

Трек 1 точное извлечение (доверие 2)
Трек 2 точное извлечение (доверие 2) [02B28CA3]
Трек 3 точное извлечение (доверие 2) [F47460BB]
Трек 4 точное извлечение (доверие 2) [F69323CB]
Трек 5 точное извлечение (доверие 2) [F636BD0E]
Трек 6 точное извлечение (доверие 2) [2289AAFD]
Трек 7 точное извлечение (доверие 2) [C232D5D2]
Трек 8 точное извлечение (доверие 2) [3B5AD4FC]
Трек 9 точное извлечение (доверие 2) [83E558C7]
Трек 10 точное извлечение (доверие 2) [ADB1B939]
Трек 11 точное извлечение (доверие 2) [47E7B4E8]
Трек 12 точное извлечение (доверие 2) [465A51C2]
Трек 13 точное извлечение (доверие 2) [7E868B9A]

Все треки извлечены точно

Конец отчёта




1972 - Rabbit Fighter (The Alternate Slider) 53

Marc Bolan T.Rex - Discography
Трэклист:

01. Metal Guru 02:30
02. Mystic Lady 03:21
03. Rock On 03:35
04. The Slider 03:25
05. Thunderwing 02:56
06. Spaceball Ricochet 03:41
07. Buick Mckane 03:47
08. Telegram Sam 02:28
09. Rabbit Fighter 03:59
10. Baby Strange 02:58
11. Ballrooms Of Mars 04:11
12. Cadilac 03:29
13. Main Man 06:04
14. Lady 01:59
15. Sunken Rags 04:00




Log EAC


T.Rex - The Slider (The Alternate Slider - Rabbit Fighter)

Exact Audio Copy V0.99 prebeta 4 from 23. January 2008

Отчёт EAC об извлечении, выполненном 31. июля 2008, 21:41

T.Rex / The Slider (The Alternate Slider "Rabbit Fighter")

Дисковод: _NEC DVD_RW ND-3520A Adapter: 0 ID: 1

Режим чтения : Достоверность
Использование точного потока : Да
Отключение кэша аудио : Да
Использование указателей C2 : Нет

Коррекция смещения при чтении : 48
Способность читать области Lead-in и Lead-out : Нет
Заполнение пропущенных сэмплов тишиной : Да
Удаление блоков с тишиной в начале и конце : Нет
При вычислениях CRC использовались нулевые сэмплы : Нет
Интерфейс : Встроенный Win32-интерфейс для Win NT/2000

Выходной формат : Внутренние WAV-операции
Формат сэмплов : 44.100 Гц; 16 бит; стерео

TOC извлечённого CD

Трек | Старт | Длительность | Начальный сектор | Конечный сектор
---------------------------------------------------------------------
1 | 0:00.00 | 2:32.72 | 0 | 11471
2 | 2:32.72 | 3:22.65 | 11472 | 26686
3 | 5:55.62 | 3:37.30 | 26687 | 42991
4 | 9:33.17 | 3:28.30 | 42992 | 58621
5 | 13:01.47 | 2:58.40 | 58622 | 72011
6 | 16:00.12 | 3:43.45 | 72012 | 88781
7 | 19:43.57 | 3:49.30 | 88782 | 105986
8 | 23:33.12 | 2:30.73 | 105987 | 117309
9 | 26:04.10 | 4:02.05 | 117310 | 135464
10 | 30:06.15 | 3:00.45 | 135465 | 149009
11 | 33:06.60 | 4:13.25 | 149010 | 168009
12 | 37:20.10 | 3:31.57 | 168010 | 183891
13 | 40:51.67 | 6:06.55 | 183892 | 211396
14 | 46:58.47 | 2:01.63 | 211397 | 220534
15 | 49:00.35 | 3:59.47 | 220535 | 238506

Характеристики диапазона извлечения и сообщения об ошибках

Выбранный диапазон

Имя файла E:_NewMarc BolanRabbit FighterT.Rex - The Slider (The Alternate Slider Rabbit Fighter ).wav

Пиковый уровень 100.0 %
Качество диапазона 99.9 %
CRC копии 1405A9EA
Копирование... OK

Ошибок не произошло

Конец отчёта




1973 - Tanx 51

Marc Bolan T.Rex - Discography
Трэклист:

01. Tenement Lady 02:55
02. Rapids 02:48
03. Mister Mister 03:30
04. Broken Hearted Blues 02:02
05. Shock Rock 01:41
06. Country Honey 01:46
07. Electric Slim & The Factory Hen 03:02
08. Mad Donna 02:16
09. Born To Boogie 02:04
10. Life Is Strange 02:30
11. The Street & Babe Shadow 02:17
12. Highway Knees 02:32
13. Left Hand Luke & The Beggar Boys 05:15
Extended Play
14. Children Of The Revolution 02:27
15. Jitterbug Love 02:56
16. Sunken Rags 02:52
17. Solid Gold Easy Action 02:20
18. Xmas Riff 00:12
19. 20th Century Boy 03:38
20. Free Angel 02:13




Log EAC


T. Rex - Tanx

Exact Audio Copy V0.99 prebeta 5 from 4. May 2009

Отчёт EAC об извлечении, выполненном 7. июня 2009, 21:27

T Rex / Tanx

Дисковод: PLEXTOR CD-R PREMIUM2 Adapter: 1 ID: 0

Режим чтения : Достоверность
Использование точного потока : Да
Отключение кэша аудио : Да
Использование указателей C2 : Нет

Коррекция смещения при чтении : 30
Способность читать области Lead-in и Lead-out : Да
Заполнение пропущенных сэмплов тишиной : Да
Удаление блоков с тишиной в начале и конце : Нет
При вычислениях CRC использовались нулевые сэмплы : Да
Интерфейс : Установленный внешний ASPI-интерфейс

Выходной формат : Пользовательский кодировщик
Выбранный битрейт : 1024 kBit/s
Качество : Высокий
Добавление ID3-тэга : Нет
Утилита сжатия : C:Program FilesExact Audio CopyFLACFLAC.EXE
Дополнительные параметры : -6 -V -T "ARTIST=%a" -T "TITLE=%t" -T "ALBUM=%g" -T "DATE=%y" -T "TRACKNUMBER=%n" -T "GENRE=%m" -T "COMMENT=%e" %s -o %d

TOC извлечённого CD

Трек | Старт | Длительность | Начальный сектор | Конечный сектор
---------------------------------------------------------------------
1 | 0:00.32 | 2:55.10 | 32 | 13166
2 | 2:55.42 | 2:49.30 | 13167 | 25871
3 | 5:44.72 | 3:30.40 | 25872 | 41661
4 | 9:15.37 | 2:03.03 | 41662 | 50889
5 | 11:18.40 | 1:43.60 | 50890 | 58674
6 | 13:02.25 | 1:47.45 | 58675 | 66744
7 | 14:49.70 | 3:06.45 | 66745 | 80739
8 | 17:56.40 | 2:15.67 | 80740 | 90931
9 | 20:12.32 | 2:04.08 | 90932 | 100239
10 | 22:16.40 | 2:30.57 | 100240 | 111546
11 | 24:47.22 | 2:17.68 | 111547 | 121889
12 | 27:05.15 | 2:34.40 | 121890 | 133479
13 | 29:39.55 | 5:22.52 | 133480 | 157681
14 | 35:02.32 | 2:30.10 | 157682 | 168941
15 | 37:32.42 | 2:59.03 | 168942 | 182369
16 | 40:31.45 | 2:54.52 | 182370 | 195471
17 | 43:26.22 | 2:20.05 | 195472 | 205976
18 | 45:46.27 | 0:11.70 | 205977 | 206871
19 | 45:58.22 | 3:41.18 | 206872 | 223464
20 | 49:39.40 | 2:12.67 | 223465 | 233431

Характеристики диапазона извлечения и сообщения об ошибках

Выбранный диапазон

Имя файла C:Documents and SettingsAnatoliyМои документыT.RexT.Rex - Tanx(1972,1973-1997)T Rex - Tanx.wav

Пиковый уровень 100.0 %
Качество диапазона 99.9 %
CRC копии E5831466
Копирование... OK

Ошибок не произошло

AccurateRip: сводка

Трек 1 точное извлечение (доверие 4)
Трек 2 точное извлечение (доверие 4) [727DCBE9]
Трек 3 точное извлечение (доверие 4) [42DA7840]
Трек 4 точное извлечение (доверие 4) [3ED7AD48]
Трек 5 точное извлечение (доверие 4) [3BAB9AA6]
Трек 6 точное извлечение (доверие 4) [E31F6FE2]
Трек 7 точное извлечение (доверие 4) [165F6A6F]
Трек 8 точное извлечение (доверие 4) [A6EF0287]
Трек 9 точное извлечение (доверие 4) [9A7BCD54]
Трек 10 точное извлечение (доверие 4) [40C06743]
Трек 11 точное извлечение (доверие 4) [8B3A7655]
Трек 12 точное извлечение (доверие 4) [E9A47B6C]
Трек 13 точное извлечение (доверие 4) [53A8C53F]
Трек 14 точное извлечение (доверие 4) [849B1CE1]
Трек 15 точное извлечение (доверие 4) [F86881BE]
Трек 16 точное извлечение (доверие 4) [AAB75396]
Трек 17 точное извлечение (доверие 4) [C3CE8490]
Трек 18 точное извлечение (доверие 4) [D08183B8]
Трек 19 точное извлечение (доверие 4) [44008830]
Трек 20 точное извлечение (доверие 4) [D8D563CB]

Все треки извлечены точно

Конец отчёта




1973 - Left Hand Luke (The Alternative Tanx) 53

Marc Bolan T.Rex - Discography
Трэклист:

01. Tenement Lady + Darling 02:46
02. Rapids 01:57
03. Mister Mister 02:46
04. Broken Hearted Blues 02:05
05. Country Honey 01:48
06. Mad Donna 02:16
07. Born to Boogie 02:07
08. Life Is Strange 01:44
09. The Street and Babe Shadow 02:17
10. Highway Knees 02:29
11. Left Hand Luke 05:15
12. Children of the Revolution [Incomplete] 01:02
13. Solid Gold Easy Action 02:10
14. Free Angel 02:12
15. Mister Mister (Acoustic And Base Demo) 03:32
16. Broken Hearted Blues (Acoustic And Base Demo) 02:08
17. The Street and Babe Shadow (Acoustic And Base Demo) 02:14
18. Tenement Lady (Acoustic And Base Demo) 01:36
19. Tenement Lady (Acoustic Demo) 01:53
20. Broken Hearted Blues (Acoustic Demo) 01:50
21. Mad Donna (Acoustic Demo, Different Lyrics) 01:45
22. The Street and Babe Shadow (Acoustic Demo) 02:36
23. Left Hand Luke (Acoustic Demo) 01:58




Log EAC


T. Rex - Left Hand Luke (The Alternative Tanx)

Exact Audio Copy V0.99 prebeta 5 from 4. May 2009

EAC extraction logfile from 13. January 2010, 12:37

T. Rex / Tanx (Bonus Disc - "Left Hand Luke")

Used drive : HL-DT-STDVD-RAM GSA-H55N Adapter: 1 ID: 0

Read mode : Secure
Utilize accurate stream : Yes
Defeat audio cache : Yes
Make use of C2 pointers : No

Read offset correction : 102
Overread into Lead-In and Lead-Out : No
Fill up missing offset samples with silence : Yes
Delete leading and trailing silent blocks : No
Null samples used in CRC calculations : Yes
Used interface : Installed external ASPI interface

Used output format : User Defined Encoder
Selected bitrate : 768 kBit/s
Quality : High
Add ID3 tag : No
Command line compressor : C:Program FilesExact Audio CopyFlacflac.exe
Additional command line options : -8 -V -T "ARTIST=%a" -T "TITLE=%t" -T "ALBUM=%g" -T "DATE=%y" -T "TRACKNUMBER=%n" -T "GENRE=%m" -T "COMMENT=EAC FLAC -8" %s

TOC of the extracted CD

Track | Start | Length | Start sector | End sector
---------------------------------------------------------
1 | 0:00.00 | 2:49.25 | 0 | 12699
2 | 2:49.25 | 1:59.35 | 12700 | 21659
3 | 4:48.60 | 2:48.60 | 21660 | 34319
4 | 7:37.45 | 2:08.07 | 34320 | 43926
5 | 9:45.52 | 1:50.10 | 43927 | 52186
6 | 11:35.62 | 2:18.65 | 52187 | 62601
7 | 13:54.52 | 2:09.23 | 62602 | 72299
8 | 16:04.00 | 1:47.00 | 72300 | 80324
9 | 17:51.00 | 2:20.27 | 80325 | 90851
10 | 20:11.27 | 2:32.03 | 90852 | 102254
11 | 22:43.30 | 5:17.35 | 102255 | 126064
12 | 28:00.65 | 1:04.32 | 126065 | 130896
13 | 29:05.22 | 2:13.18 | 130897 | 140889
14 | 31:18.40 | 2:14.25 | 140890 | 150964
15 | 33:32.65 | 3:31.55 | 150965 | 166844
16 | 37:04.45 | 2:08.20 | 166845 | 176464
17 | 39:12.65 | 2:14.07 | 176465 | 186521
18 | 41:26.72 | 1:35.08 | 186522 | 193654
19 | 43:02.05 | 1:53.35 | 193655 | 202164
20 | 44:55.40 | 1:50.20 | 202165 | 210434
21 | 46:45.60 | 1:44.72 | 210435 | 218306
22 | 48:30.57 | 2:35.50 | 218307 | 229981
23 | 51:06.32 | 1:58.15 | 229982 | 238846

Range status and errors

Selected range

Filename E:NukrautiFLACT.Rex-Left Hand LukeT. Rex - Tanx (Bonus Disc - Left Hand Luke ).wav

Peak level 100.0 %
Range quality 99.9 %
Test CRC 131BF5AA
Copy CRC 131BF5AA
Copy OK

No errors occurred

End of status report




1974 - Zinc Alloy And The Hidden Riders Of Tomorrow 60

Marc Bolan T.Rex - Discography
Трэклист:

01. Venus Loon 03:01
02. Sound Pit 02:51
03. Explosive Mouth 02:26
04. Galaxy 01:49
05. Change 02:47
06. Nameless Wildness 03:07
07. Teenage Dream 05:46
08. Liquid Gang 03:17
09. Carsmile Smith & The Old One 03:16
10. You've Got to Jive to Stay Alive - Spanish 02:35
11. Interstellar Soul 03:27
12. Painless Persuasion V. The Meathawk... 03:26
13. The Avengers (Superbad) 04:29
14. The Leopards Featuring Gardenia and the... 03:36
Extended Play
15. The Groover 03:22
16. Midnight 02:46
17. Truck On (Tyke) 03:07
18. Sitting Here 02:19
19. Satisfaction Pony 02:49




Log EAC


Marc Bolan & T. Rex - Zinc Alloy And The Hidden Riders Of Tomorrow

Exact Audio Copy V0.99 prebeta 5 from 4. May 2009

Отчёт EAC об извлечении, выполненном 7. июня 2009, 21:17

Marc Bolan & T. Rex / Zinc Alloy And The Hidden Riders Of Tomorrow

Дисковод: PLEXTOR CD-R PREMIUM2 Adapter: 1 ID: 0

Режим чтения : Достоверность
Использование точного потока : Да
Отключение кэша аудио : Да
Использование указателей C2 : Нет

Коррекция смещения при чтении : 30
Способность читать области Lead-in и Lead-out : Да
Заполнение пропущенных сэмплов тишиной : Да
Удаление блоков с тишиной в начале и конце : Нет
При вычислениях CRC использовались нулевые сэмплы : Да
Интерфейс : Установленный внешний ASPI-интерфейс

Выходной формат : Пользовательский кодировщик
Выбранный битрейт : 1024 kBit/s
Качество : Высокий
Добавление ID3-тэга : Нет
Утилита сжатия : C:Program FilesExact Audio CopyFLACFLAC.EXE
Дополнительные параметры : -6 -V -T "ARTIST=%a" -T "TITLE=%t" -T "ALBUM=%g" -T "DATE=%y" -T "TRACKNUMBER=%n" -T "GENRE=%m" -T "COMMENT=%e" %s -o %d

TOC извлечённого CD

Трек | Старт | Длительность | Начальный сектор | Конечный сектор
---------------------------------------------------------------------
1 | 0:00.32 | 3:03.33 | 32 | 13789
2 | 3:03.65 | 2:51.35 | 13790 | 26649
3 | 5:55.25 | 2:28.27 | 26650 | 37776
4 | 8:23.52 | 1:50.23 | 37777 | 46049
5 | 10:14.00 | 2:47.72 | 46050 | 58646
6 | 13:01.72 | 3:07.60 | 58647 | 72731
7 | 16:09.57 | 5:50.25 | 72732 | 99006
8 | 22:00.07 | 3:18.23 | 99007 | 113879
9 | 25:18.30 | 3:16.10 | 113880 | 128589
10 | 28:34.40 | 2:35.15 | 128590 | 140229
11 | 31:09.55 | 3:28.62 | 140230 | 155891
12 | 34:38.42 | 3:29.50 | 155892 | 171616
13 | 38:08.17 | 4:32.35 | 171617 | 192051
14 | 42:40.52 | 3:43.58 | 192052 | 208834
15 | 46:24.35 | 3:24.25 | 208835 | 224159
16 | 49:48.60 | 2:48.55 | 224160 | 236814
17 | 52:37.40 | 3:09.20 | 236815 | 251009
18 | 55:46.60 | 2:20.72 | 251010 | 261581
19 | 58:07.57 | 2:48.50 | 261582 | 274231

Характеристики диапазона извлечения и сообщения об ошибках

Выбранный диапазон

Имя файла C:Documents and SettingsAnatoliyМои документыT.RexT.Rex - Zinc Alloy And The Hidden Riders Of Tomorrow(1973,1974-1997)Marc Bolan & T. Rex - Zinc Alloy And The Hidden Riders Of Tomorrow.wav

Пиковый уровень 100.0 %
Качество диапазона 100.0 %
CRC копии F2860701
Копирование... OK

Ошибок не произошло

AccurateRip: сводка

Трек 1 точное извлечение (доверие 1) [FC0D9746]
Трек 2 точное извлечение (доверие 1) [15130A1A]
Трек 3 точное извлечение (доверие 1) [AD1B5EC1]
Трек 4 точное извлечение (доверие 1) [298E9051]
Трек 5 точное извлечение (доверие 1) [AD1C2968]
Трек 6 точное извлечение (доверие 1) [54E26D8A]
Трек 7 точное извлечение (доверие 1) [916CE842]
Трек 8 точное извлечение (доверие 1) [754BBB0F]
Трек 9 точное извлечение (доверие 1) [AE4747EF]
Трек 10 точное извлечение (доверие 1)
Трек 11 точное извлечение (доверие 1) [41D8379F]
Трек 12 точное извлечение (доверие 1) [D61FFF1A]
Трек 13 точное извлечение (доверие 1) [F3F773DF]
Трек 14 точное извлечение (доверие 1)
Трек 15 точное извлечение (доверие 1) [D206C8A0]
Трек 16 точное извлечение (доверие 1) [2E5389BD]
Трек 17 точное извлечение (доверие 1) [4D95AD67]
Трек 18 точное извлечение (доверие 1) [A22BF7DA]
Трек 19 точное извлечение (доверие 1) [DB6EC071]

Все треки извлечены точно

Конец отчёта




1975 - Bolan's Zip Gun 33

Marc Bolan T.Rex - Discography
Трэклист:

01. Light of Love 03:16
02. Solid Baby 02:39
03. Precious Star 02:53
04. Token of My Love 03:40
05. Space Boss 02:49
06. Think Zinc 03:26
07. Till Dawn 03:02
08. Girl in the Thunderbolt Suit 02:21
09. I Really Love You Babe 03:34
10. Golden Belt 02:41
11. Zip Gun Boogie 03:19




Log EAC


T. Rex - Bolan's Zip Gun

Exact Audio Copy V0.99 prebeta 4 from 23. January 2008

Отчёт EAC об извлечении, выполненном 6. мая 2010, 12:37

T. Rex / Bolan's Zip-Gun

Дисковод: _NEC DVD_RW ND-3540A Adapter: 2 ID: 0

Режим чтения : Достоверность
Использование точного потока : Да
Отключение кэша аудио : Да
Использование указателей C2 : Нет

Коррекция смещения при чтении : 48
Способность читать области Lead-in и Lead-out : Нет
Заполнение пропущенных сэмплов тишиной : Да
Удаление блоков с тишиной в начале и конце : Нет
При вычислениях CRC использовались нулевые сэмплы : Да
Интерфейс : Установленный внешний ASPI-интерфейс

Выходной формат : Пользовательский кодировщик
Выбранный битрейт : 1024 kBit/s
Качество : Высокий
Добавление ID3-тэга : Нет
Утилита сжатия : C:Program FilesExact Audio CopyFLACFLAC.EXE
Дополнительные параметры : -6 -V -T "ARTIST=%a" -T "TITLE=%t" -T "ALBUM=%g" -T "DATE=%y" -T "TRACKNUMBER=%n" -T "GENRE=%m" -T "COMMENT=%e" %s -o %d

TOC извлечённого CD

Трек | Старт | Длительность | Начальный сектор | Конечный сектор
---------------------------------------------------------------------
1 | 0:00.00 | 3:16.55 | 0 | 14754
2 | 3:16.55 | 2:38.35 | 14755 | 26639
3 | 5:55.15 | 2:52.63 | 26640 | 39602
4 | 8:48.03 | 3:40.20 | 39603 | 56122
5 | 12:28.23 | 2:49.40 | 56123 | 68837
6 | 15:17.63 | 3:25.17 | 68838 | 84229
7 | 18:43.05 | 3:02.30 | 84230 | 97909
8 | 21:45.35 | 2:21.00 | 97910 | 108484
9 | 24:06.35 | 3:33.68 | 108485 | 124527
10 | 27:40.28 | 2:41.32 | 124528 | 136634
11 | 30:21.60 | 3:19.00 | 136635 | 151559

Характеристики диапазона извлечения и сообщения об ошибках

Выбранный диапазон

Имя файла E:TempDCT.REXT. Rex - Bolan's Zip-Gun.wav

Пиковый уровень 73.7 %
Качество диапазона 100.0 %
CRC копии F972C38C
Копирование... OK

Ошибок не произошло

Конец отчёта

20
мая
2019
Виктор
Так держать! Таких как я уже мало. От себя и таких как я ДАЙ БОГ ВАМ САМОГО ЛУЧШЕГО!

цитировать | ответить
20-05-2019 05:14:13


06
июн
2010

Marc Bolan T.Rex - Born to Boogie (Special Edition)[ 2005, Glam Rock, 2xDVD 9]

Субтитры: Английские / Французские / Итальянские / Немецкие / Испанские
Формат: DVD9, DVD Video, MPEG2, AC3
Концерт: Born to Boogie
Жанр: Glam Rock
Продолжительность: 02:14:13 + 03:15:31 Год выпуска DVD: Sanctuary Records © 2005
Режиссер: Ринго Старр / Ringo Starr
В ролях: Марк Болан, Ринго Старр, Элтон Джон
Доп. информация: Музыкальный фильм о концерте легендарных T.Rex, состоявшемся на пике их славы, в 1972-м году, вскоре после выхода альбома «Electric Warrior». «Born To Boogie» был отснят от начала до конца самим Ринго Старом. Это издание включает множество ранее не изданных видеоматериало ...

14
дек
2015

Marc Bolan T.Rex - For All The Cats (The Best Of) 2CD [2015, Rock, Glam-Rock, FLAC]

Формат: FLAC, (image + .cue), lossless
Год выпуска: 2015
Страна: UK
Жанр: Rock, Glam-Rock
Продолжительность: 02:24:40
Описание: CD 1 0101. Debora 02. One Inch Rock 03. Pewter Suitor 04. King of the Rumbling Spires 05. By the Light of a Magical Moon 06. Ride a White Swan 07. Hot Love 08. Get It on 09. Jepster 10. Telegram Sam 11. Metal Guru 12. Chariot Choogle 13. Children of the Revolution 14. Solid Gold Easy Action 15. 20th Century Boy 16. The Groover 17. Truck on (Tyke) 18. Teenage Dream 19. Zip Gun Boogie 20. Girl in the Thunderbolt Suit 21. New York City 22. Dreamy Lady 23. Funky London Ch ...

05
июл
2018

Marc Bolan and T-Rex - 20th Century Boy [1977, 2007, Rock, DVD5]

Формат: DVD5, DVD Video, MPEG2, AC3
Песня: 20th Century Boy
Жанр: Rock
Продолжительность: 02:16:44
Год выпуска: 1977, 2007
Видео: 720х576 (PAL 4:3), 25,000 fps, MPEG-2, ~4110 kbps avg, 0.396 bit/pixel
Аудио: 48.0 КГц, Audio Coding 3, 2 ch, 192 kbps
Доп. информация: T.Rex - английская глэм-рок-группа с лидером Марком Боланом. Основана в 1960-х годах в Лондоне, достигла пика популярности в 1970-х годах (первые места в британских чартах), внесшая огромный вклад в развитие музыки, и оказавшим влияние в т.ч. и на отечественных музыкантов, таких как Б.Г., в чем Б.Г. признавался, в т.ч. и в песнях ...

26
фев
2012

Marc Bolan T.Rex - Golden Hits (2CD) [2011, Rock, MP3]

Формат: MP3, tracks, 320kbps
Год выпуска: 2011
Страна: UK
Жанр: Rock
Продолжительность: 02:39:11
Описание: CD1 01. Solid Baby 02. Tame My Tiger 03. Teenage Dream 04. Metal Guru 05. Telegram Sam 06. The Soul Of My Suit 07. 20th Century Boy 08. All Alone 09. To Know You Is To Love You 10. Woodland Rock 11. Light Of Love 12. Born To Boogie 13. Dandy In The Underworld 14. Celebrate Summer 15. I Love To Boogie 16. Get It On 17. Life's A Gas 18. Sunken Rags 19. Cosmic Dancer 20. The Groover 21. Groove A Little 22. Do You Wanna Dance? 23. Hot Love 24. Jeepster 25. Dock Of The Bay CD2 01. Chrome Sit ...

05
дек
2015

Marc Bolan T. Rex - Unchained: Home Recordings Studio Outtakes 1972-1977 [2015, Rock, Glam, Psychedelic Rock, FLAC]

Формат: FLAC, (image + .cue), lossless
Год выпуска: 2015
Страна: England
Жанр: Rock, Glam, Psychedelic Rock
Продолжительность: 07:51:07
Описание: CD 1 Volume One01. Over The Flats 01:46 02. Sugar Baby 01:41 03. Children Of The World 02:21 04. Did You Ever 03:03 05. Alligator Man 02:13 06. Shame On You 01:44 07. Guitar Blues 01:54 08. Shadow Babe 02:16 09. Cry Baby (Acoustic) 00:49 10. Cry Baby (Electric) 00:37 11. Rollin’ Stone 02:28 12. What Do I See 01:18 13. Shame On You (Little Girl) 00:45 14. Always 01;05 15. Auto Machine 01:39 16. Unicorn Horn (A Thousand Mark Feld Charms) 09:26 17. Jam ...

17
июл
2012

T-REX Discography [1967 2011, Glam Rock,Hard Rock, Psychedelic, MP3]

Формат: MP3, tracks, 320kbps
Год выпуска: 1967 – 2011
Страна: UK
Жанр: Glam Rock, Hard Rock, Psychedelic
Продолжительность: 34:26:46
Описание: Tyrannosaurus Rex 1968 - My People Were Fair And Had Sky In Their Hair 01 1. Hot Rod Mama (mono) (3:11) 2. Scenescof (mono) (1:40) 3. Child Star (mono) (2:51) 4. Strange Orchestras (mono) (1:47) 5. Chateau In Virginia Waters (mono) (2:40) 6. Dwarfish Trumpet Blues (mono) (2:46) 7. Mustang Ford (mono) (3:01) 8. Afghan Woman (mono) (1:59) 9. Knight (mono) (2:40) 10. Graceful Fat Sheba (mono) (1:29) 11. Weilder Of Words (mono) (3:19) 12. Frowning Atahua ...

11
мая
2018

Marc Bolan - Marс (T-Rex) [1977, Glam Rock, DVD5]

Формат: DVD5, DVD Video, MPEG2, AC3
Песня: Marс (T-Rex)
Жанр: Glam Rock
Продолжительность: 01:04:08
Год выпуска: 1977
Видео: 720х576 (PAL 4:3), 25 fps, MPEG-2, ~6091 kbps avg, 0.588 bit/pixel
Аудио: 48,0 kHz, Audio Coding 3, 2 ch, 192.00 kbps avg
Доп. информация: Концерт записан летом 1977 года в телестудии Гранада. В эфир передача вышла уже после трагической смерти Марка Болана в автомобильной катастрофе. Marc Bolan – настоящее имя - Marc Feld [birth name], Toby Tyler Родился - 30 сентября 1947, Hackney, Greater London, United Kingdom Погиб в автокатастрофе - 16 сентября 1977 // London, Eng ...

17
дек
2015

Marc Bolan - The Beginning Of Doves [2002, Rock, Folk-Rock, FLAC]

Формат: FLAC, (image + .cue), lossless
Год выпуска: 2002
Страна: UK
Жанр: Rock, Folk-Rock
Продолжительность: 01:17:52
Описание: Треклист01. Jasper C. Debussy 2:08 02. Hippy Gumbo 2:04 03. Misfit 1:52 04. The Lilac Hand Of Menthol Dan 1:52 05. Black And White Incident 1:43 06. Jasmine '49 2:25 07. Cat Black 1:20 08. You Got The Power 1:48 09. Eastern Spell 1:27 10. Charlie 1:54 11. I'm Weird 1:18 12. Pictures Of Purple People 2:19 13. Horrible Breath 1:44 14. Hippy Gumbo (Alt. Version) 1:53 15. Mustang Ford 1:39 16. Hot Rod Mama 2:35 17. Observations 2:17 18. The Perfumed Garden Of Gulliver Smi ...

20
окт
2017

Marc Bolan - Acoustic Warrior [1996, Rock, Acoustic, Glam, FLAC]

Формат: FLAC,(image + .cue), lossless
Год выпуска: 1996
Страна: England
Жанр: Rock, Acoustic, Glam
Продолжительность: 01:06:05
Описание: 01. Spaceball Ricochet (4:59) 1972 02. Metal Guru (1:44) 1972 03. The Slider (3:48 ) 1972 04. Jeepster (5:20) 1971 05. Cosmic Dancer (6:07) 1971 06. Mainman (6:08 ) 1972 07. Ballrooms Of Mars (4:09) 1972 08. Mystic Lady (2:35) 1972 09. Girl (3:35) 1971 10. Telegram Sam (3:52) 1972 11. Seagull Woman (2:29) 1970 12. Get It On (5:06) 1971 13. Laser Love (3:44) 1976 14. 20th Century Boy (3:54) 1971 15. Debora (8:14) 1968
Доп. информация: СоставCongas, Bongos, P ...

04
сен
2014

Marc Bolan - Marc [1977, Rock, Glam rock, DVDRip]

Формат: DVDRip, AVI, XviD, MP3
Песня: Marc
Жанр: Rock, Glam Rock
Продолжительность: 00:46:42
Год выпуска: 1977
Видео: 720x544 (1.32:1), 25 fps, XviD MPEG-4 ~2490 kbps avg, 0.25 bit/pixel
Аудио: 44.100 kHz, MPEG Layer 3, 2 ch, ~192.00 kbps avg
Доп. информация: Концерт записан летом 1977 года в телестудии Гранада. В эфир передача вышла уже после трагической смерти Марка Болана в автомобильной катастрофе.
Треклист: 01. Sing Me A Song 02. I Love To Boogie 03. Celebrate Summer 04. Jeepster 05. Celebrate Summer II 06. Ride A White Swan 07. Endless Sleep 08. Groove A Little 09. Let's dance 10. ...

20
ноя
2012

Marc Bolan - The Celebration Concert 1967, 1977, 2007 [2012, Rock, DVD9]

Формат: DVD9, DVD Video, MPEG2, AC3
Песня: The Celebration Concert
Жанр: Rock
Продолжительность: 02:28:02
Год выпуска: 2012
Видео: 720 x 480 (NTSC 16:9) at 29.970 fps, MPEG2 Video at 6478 Kbps, 0.625 bit/pixel
Аудио: Dolby AC3, 2 ch, 192 Kbps, 48.0 KHz
Доп. информация: Описание Трибъют концерт памяти Марка Болана проходил в Shepherds Bush Empire 15 сентября 2007 года. В концерте приняли участие: T.Rextasy, Andy Ellison, Clem Burke, Ray Dorset, Marc Almond, Neal X, Tony Visconti, Dirty Pretty Strings, Howie Casey, Dr. Robert, Linda Lewis, Gloria Jones. Треклист 01. T.Rextasy - Grover 02. ...

20
окт
2017

T.Rex - The Best Of T.Rex Volume 1 [2006, Rock, Glam, FLAC]

Формат: FLAC, (image + .cue), lossless
Год выпуска: 2006
Страна: UK
Жанр: Rock, Glam
Продолжительность: 01:01:43
Описание: 01. Telegram Sam 02. Metal Guru 03. Children Of The Revolution 04. Solid Gold, Easy Action 05. 20th Century Boy 06. Truck On (Tyke) 07. Teenage Dream 08. Light Of Love 09. New York City 10. London Boys 11. I Love To Boogie 12. Laser Love 13. Lady 14. Born To Boogie 15. Dandy In The Underground 16. Life's An Elevator 17. All Alone 18. Celebrate Summer 19. Buick MacKane 20. Chariot Choogle
Доп. информация: eac Exact Audio Copy V1.3 from 2. September 2016 EAC extraction lo ...

22
фев
2011

T.REX - Get It On ( The Collection ) [2011, Rock, MP3]

Формат: MP3, tracks, 320kbps
Год выпуска: 2011
Страна: UK
Жанр: Rock
Продолжительность: 00:58:31
Описание: 01. Get It On Видео 02. Ride A White Swan 03. Mustang Ford 04. Cat Black (the wizards hat) 05. Jeepster Видео 06. A Beard Of Stars 07. Debora Видео 08. Salamanda Palaganda 09. Life's A Gas 10. Juniper Suction 11. Stacey Grove 12. Warlord Of The Royal Crocodiles 13. Cosmic Dancer 14. Beltane Walk 15. The Time Of Love Is Now 16. The Wizard 17. Summer Deep 18. Blessed Wild Apple nGirl 19. The Travelling Tragition 20. Desdemona
Доп. информация:
Википедия: T. Rex Релиз представлен группой -

05
янв
2012

Marc Rizzo - Discography [2005-2010, Progressive Metal, Shred, Flamenco, MP3]

Формат: MP3, tracks, 320kbps
Год выпуска: 2005-2010
Страна: USA
Жанр: Progressive Metal, Shred, Flamenco
Продолжительность: 03:19:20
Описание: 2005 Colossal Myopia 01] 01. Kilocycle Interval (05:59) 02. Introspection Of An Introvert (06:45) 03. Remember The Future (05:12) 04. Colossal Myopia (04:14) 05. Infinity (02:50) 06. S.P.Q.R. (06:27) 07. Synapse (04:33) 08. Pantheistic Utopia (05:35) 09. Isosceles (06:36) 10. The Pinata Hits Back (07:13) 11. Chupacabra (03:30) 12. Milagro (05:12) 2007 The Ultimate Devotion 01] 01. The Ultimate Devotion (08:58) 02. Ascension (07:28) 03. Sinceramente ...

26
сен
2017

T.Rex - Remixes [2017, Glam, Rock, FLAC]

Формат: FLAC, (image + .cue), lossless
Год выпуска: 2017
Страна: UK
Жанр: Glam, Rock
Продолжительность: 01:41:28
Описание: CD 1 00 01. Children Of Revolution (The Reflex Revision) (5:08 ) 02. 20th Century Boy (STOOF Remix) (4:42) 03. Metal Guru (Book Remix) (3:01) 04. Cadillac (Bil Bless Remix) (3:54) 05. Light Of Love (The Reflex Revision) (6:28 ) 06. Precious Star (We Are Dark Angels Remix) (3:03) 07. Telegram Sam (Kent Rockafeller Remix) (3:20) 08. New York City (Ra Ra Riot Remix) (3:25) 09. Children Of the Revolution (Jaxon Frank Remix) (3:37) 10. Calling All Destroyers (Infuze Remix) (2:3 ...