03
мар
2015

Пётр Ильич Чайковский - Симфонии №1-6, Славянский марш, Итальянское каприччио, Ромео и Джульетта, Манфред / Tchaikovsky - The Symphonies, Symphonic poems (Михаил Плетнев) [2010, Классика, FLAC]

Пётр Ильич Чайковский - Симфонии №1-6, Славянский марш, Итальянское каприччио, Ромео и Джульетта, Манфред / Tchaikovsky - The Symphonies, Symphonic poems
Формат: FLAC, (image + .cue), lossless
Год выпуска: 2010
Страна: Россия
Производитель: ЕС
Жанр: Классика
Продолжительность: 01:09:52+01:07:48+01:05:55+01:07:22+01:05:47+01:17:33+01:15:42

Описание:
CD1 (01
Symphony No.1 in G minor, Op.13 "Winter Reveries"
1. I. Allegro tranquillo [13:31]
2. II. Adagio cantabile ma non tanto [11:57]
3. III. Scherzo (Allegro scherzando giocoso) [08:30]
4. IV. Finale (Andante lugubre - Allegro maestoso) [13:40]

5. Slavonic March, Op.31 [09:34]

6. Festival Overture on the Danish National Anthem op.15 [12:41]
Отчет ЕАС
Exact Audio Copy V1.0 beta 1 from 15. November 2010

EAC extraction logfile from 3. March 2011, 23:45

Mikhail Pletnev, Russian National Orchestra / Tchaikovsky: The Symphonies (CD1)

Used drive : MATSHITADVD-RAM UJ880AS Adapter: 0 ID: 1

Read mode : Secure
Utilize accurate stream : Yes
Defeat audio cache : Yes
Make use of C2 pointers : No

Read offset correction : 102
Overread into Lead-In and Lead-Out : No
Fill up missing offset samples with silence : Yes
Delete leading and trailing silent blocks : No
Null samples used in CRC calculations : No
Used interface : Native Win32 interface for Win NT & 2000

Used output format : User Defined Encoder
Selected bitrate : 768 kBit/s
Quality : High
Add ID3 tag : No
Command line compressor : C:Program FilesExact Audio CopyFLACFLAC.EXE
Additional command line options : -6 -V -T "ARTIST=%a" -T "TITLE=%t" -T "ALBUM=%g" -T "DATE=%y" -T "TRACKNUMBER=%n" -T "GENRE=%m" -T "COMMENT=%e" %j--picture="%i"%j %s -o %d

TOC of the extracted CD

Track | Start | Length | Start sector | End sector
---------------------------------------------------------
1 | 0:00.00 | 13:31.00 | 0 | 60824
2 | 13:31.00 | 11:57.00 | 60825 | 114599
3 | 25:28.00 | 8:30.00 | 114600 | 152849
4 | 33:58.00 | 13:40.00 | 152850 | 214349
5 | 47:38.00 | 9:34.00 | 214350 | 257399
6 | 57:12.00 | 12:41.00 | 257400 | 314474

Range status and errors

Selected range

Filename C:UsersgrigorisUploadsTCHAIKOVSKY The Symphonies - Pletnev (7 CD)CD 1Mikhail Pletnev, Russian National Orchestra - Tchaikovsky- The Symphonies (CD1).wav

Peak level 99.9 %
Extraction speed 0.2 X
Range quality 100.0 %
Copy CRC 78EE5F3D
Copy OK

No errors occurred

AccurateRip summary

Track 1 not present in database
Track 2 not present in database
Track 3 not present in database
Track 4 not present in database
Track 5 not present in database
Track 6 not present in database

None of the tracks are present in the AccurateRip database

End of status report

==== Log checksum 9E229359DF4C0E1833CE09120807E40AE2D42151D39DA84ACD69B84EF7B0C6C9 ====

CD2 (01
Symphony No.2 in C minor, Op.17 "Little Russian"
1. I. Andante sostenuto - Allegro vivo [11:05]
2. II. Andantino marziale, quasi moderato [06:51]
3. III. Scherzo. Allegro molto vivace - Trio. L'istesso tempo [05:33]
4. IV. Finale. Moderato assai - Allegro vivo - Presto [09:46]

5. Fatum, Op.77 [18:46]

6. Ouverture solenelle "1812", Op.49 [15:47]
Отчет ЕАС
Exact Audio Copy V1.0 beta 1 from 15. November 2010

EAC extraction logfile from 3. March 2011, 22:43

Mikhail Pletnev, Russian National Orchestra / Tchaikovsky: The Symphonies (CD2)

Used drive : MATSHITADVD-RAM UJ880AS Adapter: 0 ID: 1

Read mode : Secure
Utilize accurate stream : Yes
Defeat audio cache : Yes
Make use of C2 pointers : No

Read offset correction : 102
Overread into Lead-In and Lead-Out : No
Fill up missing offset samples with silence : Yes
Delete leading and trailing silent blocks : No
Null samples used in CRC calculations : No
Used interface : Native Win32 interface for Win NT & 2000

Used output format : User Defined Encoder
Selected bitrate : 768 kBit/s
Quality : High
Add ID3 tag : No
Command line compressor : C:Program FilesExact Audio CopyFLACFLAC.EXE
Additional command line options : -6 -V -T "ARTIST=%a" -T "TITLE=%t" -T "ALBUM=%g" -T "DATE=%y" -T "TRACKNUMBER=%n" -T "GENRE=%m" -T "COMMENT=%e" %j--picture="%i"%j %s -o %d

TOC of the extracted CD

Track | Start | Length | Start sector | End sector
---------------------------------------------------------
1 | 0:00.00 | 11:05.00 | 0 | 49874
2 | 11:05.00 | 6:51.00 | 49875 | 80699
3 | 17:56.00 | 5:33.00 | 80700 | 105674
4 | 23:29.00 | 9:46.00 | 105675 | 149624
5 | 33:15.00 | 18:46.00 | 149625 | 234074
6 | 52:01.00 | 15:47.00 | 234075 | 305099

Range status and errors

Selected range

Filename C:UsersgrigorisUploadsTCHAIKOVSKY The Symphonies - Pletnev (7 CD)CD 2Mikhail Pletnev, Russian National Orchestra - Tchaikovsky- The Symphonies (CD2).wav

Peak level 99.9 %
Extraction speed 0.2 X
Range quality 100.0 %
Copy CRC 73D9B3DD
Copy OK

No errors occurred

AccurateRip summary

Track 1 not present in database
Track 2 not present in database
Track 3 not present in database
Track 4 not present in database
Track 5 not present in database
Track 6 not present in database

None of the tracks are present in the AccurateRip database

End of status report

==== Log checksum BA75D16EC63C1C3620D1F52ECE76D45658FA7F71E1BF6805796B491EEFE8081D ====

CD3 (01
Symphony No.3 in D, Op.29 Polish
1. I. introduzione e Allegro [15:26]
2. II. Alla tedesca (Allegro moderato) [06:41]
3. III. Andante elegiaco [09:16]
4. IV. Scherzo (Allegro vivo) [06:26]
5. V. Finale (Allegro con fuoco) [08:51]

6. Romeo and Juliet, Fantasy Overture [19:15]
Отчет ЕАС
Exact Audio Copy V1.0 beta 1 from 15. November 2010

EAC extraction logfile from 3. March 2011, 21:46

Mikhail Pletnev, Russian National Orchestra / Tchaikovsky: The Symphonies (CD 3)

Used drive : MATSHITADVD-RAM UJ880AS Adapter: 0 ID: 1

Read mode : Secure
Utilize accurate stream : Yes
Defeat audio cache : Yes
Make use of C2 pointers : No

Read offset correction : 102
Overread into Lead-In and Lead-Out : No
Fill up missing offset samples with silence : Yes
Delete leading and trailing silent blocks : No
Null samples used in CRC calculations : No
Used interface : Native Win32 interface for Win NT & 2000

Used output format : User Defined Encoder
Selected bitrate : 768 kBit/s
Quality : High
Add ID3 tag : No
Command line compressor : C:Program FilesExact Audio CopyFLACFLAC.EXE
Additional command line options : -6 -V -T "ARTIST=%a" -T "TITLE=%t" -T "ALBUM=%g" -T "DATE=%y" -T "TRACKNUMBER=%n" -T "GENRE=%m" -T "COMMENT=%e" %j--picture="%i"%j %s -o %d

TOC of the extracted CD

Track | Start | Length | Start sector | End sector
---------------------------------------------------------
1 | 0:00.00 | 15:26.00 | 0 | 69449
2 | 15:26.00 | 6:41.00 | 69450 | 99524
3 | 22:07.00 | 9:16.00 | 99525 | 141224
4 | 31:23.00 | 6:26.00 | 141225 | 170174
5 | 37:49.00 | 8:51.00 | 170175 | 209999
6 | 46:40.00 | 19:15.00 | 210000 | 296624

Range status and errors

Selected range

Filename C:UsersgrigorisUploadsTCHAIKOVSKY The Symphonies - Pletnev (7 CD)CD 3Mikhail Pletnev, Russian National Orchestra - Tchaikovsky- The Symphonies (CD 3).wav

Peak level 99.9 %
Extraction speed 0.3 X
Range quality 100.0 %
Copy CRC 250B66DB
Copy OK

No errors occurred

AccurateRip summary

Track 1 cannot be verified as accurate (confidence 3) [1D1CFE40], AccurateRip returned [19ACA510]
Track 2 cannot be verified as accurate (confidence 3) [82512063], AccurateRip returned
Track 3 cannot be verified as accurate (confidence 3) [F2AC2925], AccurateRip returned [E875CEEC]
Track 4 cannot be verified as accurate (confidence 3) [2F3364F8], AccurateRip returned [10DFB7E6]
Track 5 cannot be verified as accurate (confidence 3) [0842342E], AccurateRip returned [F105DDD8]
Track 6 cannot be verified as accurate (confidence 3) [C18F17F0], AccurateRip returned [436649D4]

No tracks could be verified as accurate
You may have a different pressing from the one(s) in the database

End of status report

==== Log checksum 0B731F8CF5D4561DFB19FA1552A39A1BF3A3F852E4B5D13D4C5EF6B2105F502A ====

CD4 (01
Symphony No.4 in F minor, Op.36
1. I. Andante sostenuto - Moderato con anima - Moderato assai, quasi Andante - Allegro vivo [18:49]
2. II. Andantino in modo di canzone [09:43]
3. III. Scherzo. Pizzicato ostinato - Allegro [05:44]
4. IV. Finale (Allegro con fuoco) [09:14]

5. Francesca da Rimini, Op.32 [23:52]
Отчет ЕАС
Exact Audio Copy V1.0 beta 1 from 15. November 2010

EAC extraction logfile from 3. March 2011, 18:14

Mikhail Pletnev, Russian National Orchestra / Tchaikovsky: The Symphonies (CD4)

Used drive : MATSHITADVD-RAM UJ880AS Adapter: 0 ID: 1

Read mode : Secure
Utilize accurate stream : Yes
Defeat audio cache : Yes
Make use of C2 pointers : No

Read offset correction : 102
Overread into Lead-In and Lead-Out : No
Fill up missing offset samples with silence : Yes
Delete leading and trailing silent blocks : No
Null samples used in CRC calculations : No
Used interface : Native Win32 interface for Win NT & 2000

Used output format : User Defined Encoder
Selected bitrate : 768 kBit/s
Quality : High
Add ID3 tag : No
Command line compressor : C:Program FilesExact Audio CopyFLACFLAC.EXE
Additional command line options : -6 -V -T "ARTIST=%a" -T "TITLE=%t" -T "ALBUM=%g" -T "DATE=%y" -T "TRACKNUMBER=%n" -T "GENRE=%m" -T "COMMENT=%e" %j--picture="%i"%j %s -o %d

TOC of the extracted CD

Track | Start | Length | Start sector | End sector
---------------------------------------------------------
1 | 0:00.00 | 18:49.00 | 0 | 84674
2 | 18:49.00 | 9:43.00 | 84675 | 128399
3 | 28:32.00 | 5:44.00 | 128400 | 154199
4 | 34:16.00 | 9:14.00 | 154200 | 195749
5 | 43:30.00 | 23:52.00 | 195750 | 303149

Range status and errors

Selected range

Filename C:UsersgrigorisUploadsTCHAIKOVSKY The Symphonies - Pletnev (7 CD)CD 4Mikhail Pletnev, Russian National Orchestra - Tchaikovsky- The Symphonies (CD4).wav

Peak level 99.9 %
Extraction speed 0.4 X
Range quality 100.0 %
Copy CRC 5665B8C0
Copy OK

No errors occurred

AccurateRip summary

Track 1 cannot be verified as accurate (confidence 5) [BCFEBBB1], AccurateRip returned [08B20837]
Track 2 cannot be verified as accurate (confidence 5) [1EB1C6D9], AccurateRip returned [2907A9D7]
Track 3 cannot be verified as accurate (confidence 5) [A73C396F], AccurateRip returned [0B511843]
Track 4 cannot be verified as accurate (confidence 5) [0D4A7D56], AccurateRip returned [527440C6]
Track 5 cannot be verified as accurate (confidence 5) [24BD7010], AccurateRip returned [86E00A6E]

No tracks could be verified as accurate
You may have a different pressing from the one(s) in the database

End of status report

==== Log checksum 9C4FBF272545A332FED3BB2AF17AE9743FD1D6D2EAE6AC9718BDCE0C634A4930 ====

CD5 (01
Symphony No.5 in E minor, Op.64
1. I. Andante - Allegro con anima [14:56]
2. II. Andante cantabile, con alcuna licenza - Moderato con anima [13:22]
3. III. Valse (Allegro moderato) [05:52]
4. IV. Finale (Andante maestoso - Allegro vivace) [12:32]

5. Hamlet - Overture-Fantasy after Shakespeare, Op.67 [19:05]
Отчет ЕАС
Exact Audio Copy V1.0 beta 1 from 15. November 2010

EAC extraction logfile from 3. March 2011, 16:41

Mikhail Pletnev, Russian National Orchestra / Tchaikovsky: The Symphonies (CD5)

Used drive : MATSHITADVD-RAM UJ880AS Adapter: 0 ID: 1

Read mode : Secure
Utilize accurate stream : Yes
Defeat audio cache : Yes
Make use of C2 pointers : No

Read offset correction : 102
Overread into Lead-In and Lead-Out : No
Fill up missing offset samples with silence : Yes
Delete leading and trailing silent blocks : No
Null samples used in CRC calculations : No
Used interface : Native Win32 interface for Win NT & 2000

Used output format : User Defined Encoder
Selected bitrate : 768 kBit/s
Quality : High
Add ID3 tag : No
Command line compressor : C:Program FilesExact Audio CopyFLACFLAC.EXE
Additional command line options : -6 -V -T "ARTIST=%a" -T "TITLE=%t" -T "ALBUM=%g" -T "DATE=%y" -T "TRACKNUMBER=%n" -T "GENRE=%m" -T "COMMENT=%e" %j--picture="%i"%j %s -o %d

TOC of the extracted CD

Track | Start | Length | Start sector | End sector
---------------------------------------------------------
1 | 0:00.00 | 14:56.00 | 0 | 67199
2 | 14:56.00 | 13:22.00 | 67200 | 127349
3 | 28:18.00 | 5:52.00 | 127350 | 153749
4 | 34:10.00 | 12:32.00 | 153750 | 210149
5 | 46:42.00 | 19:05.00 | 210150 | 296024

Range status and errors

Selected range

Filename C:UsersgrigorisUploadsTCHAIKOVSKY The Symphonies - Pletnev (7 CD)CD 5Mikhail Pletnev, Russian National Orchestra - Tchaikovsky- The Symphonies (CD5).wav

Peak level 99.9 %
Extraction speed 0.3 X
Range quality 100.0 %
Copy CRC 2EAF7441
Copy OK

No errors occurred

AccurateRip summary

Track 1 cannot be verified as accurate (confidence 3) [9268DE00], AccurateRip returned [23BC22FF]
Track 2 cannot be verified as accurate (confidence 3) [F73490FE], AccurateRip returned [168D3284]
Track 3 cannot be verified as accurate (confidence 3) [2E5B24BF], AccurateRip returned [08AFF7AD]
Track 4 cannot be verified as accurate (confidence 3) [F6C2F010], AccurateRip returned [8F82620C]
Track 5 cannot be verified as accurate (confidence 3) [087EA0BE], AccurateRip returned [34CA8767]

No tracks could be verified as accurate
You may have a different pressing from the one(s) in the database

End of status report

==== Log checksum 5BAD8816970107B6FBFBFF16796571CC531CAD92D2C84A5836A6468FE92AAEED ====

CD6 (01
1. The Voyevode, Op.78 [14:20]

2. Capriccio italien, Op.45 [17:15]

Symphony No.6 in B minor, Op.74 -"Pathétique"
3. I. Adagio - Allegro non troppo [18:49]
4. II. Allegro con grazia [07:29]
5. III. Allegro molto vivace [08:07]
6. IV. Finale (Adagio lamentoso - Andante) [11:33]
Отчет ЕАС
Exact Audio Copy V1.0 beta 1 from 15. November 2010

EAC extraction logfile from 3. March 2011, 14:08

Mikhail Pletnev / Tchaikovsky: The Symphonies (CD6)

Used drive : MATSHITADVD-RAM UJ880AS Adapter: 0 ID: 1

Read mode : Secure
Utilize accurate stream : Yes
Defeat audio cache : Yes
Make use of C2 pointers : No

Read offset correction : 102
Overread into Lead-In and Lead-Out : No
Fill up missing offset samples with silence : Yes
Delete leading and trailing silent blocks : No
Null samples used in CRC calculations : No
Used interface : Native Win32 interface for Win NT & 2000

Used output format : User Defined Encoder
Selected bitrate : 768 kBit/s
Quality : High
Add ID3 tag : No
Command line compressor : C:Program FilesExact Audio CopyFLACFLAC.EXE
Additional command line options : -6 -V -T "ARTIST=%a" -T "TITLE=%t" -T "ALBUM=%g" -T "DATE=%y" -T "TRACKNUMBER=%n" -T "GENRE=%m" -T "COMMENT=%e" %j--picture="%i"%j %s -o %d

TOC of the extracted CD

Track | Start | Length | Start sector | End sector
---------------------------------------------------------
1 | 0:00.00 | 14:20.00 | 0 | 64499
2 | 14:20.00 | 17:15.00 | 64500 | 142124
3 | 31:35.00 | 18:49.00 | 142125 | 226799
4 | 50:24.00 | 7:29.00 | 226800 | 260474
5 | 57:53.00 | 8:07.00 | 260475 | 296999
6 | 66:00.00 | 11:33.00 | 297000 | 348974

Range status and errors

Selected range

Filename C:UsersgrigorisUploadsTCHAIKOVSKY The Symphonies - Pletnev (7 CD)CD 6Mikhail Pletnev - Tchaikovsky- The Symphonies (CD6).wav

Peak level 99.9 %
Extraction speed 0.1 X
Range quality 100.0 %
Copy CRC 69954CF1
Copy OK

No errors occurred

AccurateRip summary

Track 1 cannot be verified as accurate (confidence 5) [07F78B72], AccurateRip returned [37397592]
Track 2 cannot be verified as accurate (confidence 5) [F401A3B0], AccurateRip returned [1FB5FB1F]
Track 3 cannot be verified as accurate (confidence 5) [3545A759], AccurateRip returned [13C19F33]
Track 4 cannot be verified as accurate (confidence 5) [29CFCDC5], AccurateRip returned [A3DB9D58]
Track 5 cannot be verified as accurate (confidence 5) [2151C2F0], AccurateRip returned [092280B3]
Track 6 cannot be verified as accurate (confidence 5) [BEE351C5], AccurateRip returned [73EA35AA]

No tracks could be verified as accurate
You may have a different pressing from the one(s) in the database

End of status report

==== Log checksum 3A0085EF456656B05A2A4031F95FE2C932D78DEBE11569C0B548981BC669F0CE ====

CD7 (01
1. The Tempest, Op.18 [21:49]

Manfred Symphony, Op.58
2. I. Lento lugubre - Moderato con moto - Andante [15:17]
3. II. Vivace con spirito [09:50]
4. III. Andante con moto [10:17]
5. IV. Allegro con fuoco [18:29]
Отчет ЕАС
Exact Audio Copy V1.0 beta 1 from 15. November 2010

EAC extraction logfile from 3. March 2011, 12:57

Mikhail Pletnev, Russian National Orchestra / Tchaikovsky: The Symphonies (CD7)

Used drive : MATSHITADVD-RAM UJ880AS Adapter: 0 ID: 1

Read mode : Secure
Utilize accurate stream : Yes
Defeat audio cache : Yes
Make use of C2 pointers : No

Combined read/write offset correction : 0
Overread into Lead-In and Lead-Out : No
Fill up missing offset samples with silence : Yes
Delete leading and trailing silent blocks : No
Null samples used in CRC calculations : No
Used interface : Native Win32 interface for Win NT & 2000

Used output format : User Defined Encoder
Selected bitrate : 768 kBit/s
Quality : High
Add ID3 tag : No
Command line compressor : C:Program FilesExact Audio CopyFLACFLAC.EXE
Additional command line options : -6 -V -T "ARTIST=%a" -T "TITLE=%t" -T "ALBUM=%g" -T "DATE=%y" -T "TRACKNUMBER=%n" -T "GENRE=%m" -T "COMMENT=%e" %j--picture="%i"%j %s -o %d

TOC of the extracted CD

Track | Start | Length | Start sector | End sector
---------------------------------------------------------
1 | 0:00.32 | 21:49.00 | 32 | 98206
2 | 21:49.32 | 15:17.00 | 98207 | 166981
3 | 37:06.32 | 9:50.00 | 166982 | 211231
4 | 46:56.32 | 10:17.00 | 211232 | 257506
5 | 57:13.32 | 18:29.00 | 257507 | 340681

Range status and errors

Selected range

Filename C:UsersgrigorisUploadsTCHAIKOVSKY The Symphonies - Pletnev (7 CD)CD 7Mikhail Pletnev, Russian National Orchestra - Tchaikovsky- The Symphonies (CD7).wav

Peak level 99.9 %
Extraction speed 0.3 X
Range quality 100.0 %
Copy CRC 04D8157B
Copy OK

No errors occurred

End of status report

==== Log checksum C0E13B97A18ED9F3C7FC9F495596E4C691C7A2BF0978F1F7E0C9D7AB8655799B ====
Музыка / Lossless / Классическая и Instrumental
СКАЧАТЬ БЕСПЛАТНО  [1.9 GB]


31
авг
2013

Чайковский Симфонии № 1-6/Tchaikovsky Symphonies Nos. 1-6 (Евгений Светланов) (Live in Tokyo 1990) [2002, Classical, MP3]

Формат: MP3, tracks, 320kbps
Год выпуска: 2002
Страна: Япония
Жанр: Classical
Продолжительность: 04:20:49
Описание: CD 1 Symphony No.1 in G minor, op.19 Winter Day Dreams (00Symphony No.1 in G minor, op.19 [Winter Day Dreams] 1. I. Allegro tranquillo 2. II. Adagio cantabile ma non tanto 3. III. Scherzo: Allegro scherzando giocoso 4. IV. Finale: Andante lugubre-Allegro maestoso Rec 21.05.1990CD 2 Symphony No.2 in C minor, op.17 Little Russian(00Symphony No.2 in C minor, op.17 [Little Russian] 1. I. Andante sostenuto-Allegro vivo 2. II. Andantino marziale, quasi moderato 3. III. Scherzo & Trio: ...

11
окт
2015

Чайковский (Tchaikovsky) - Symphonies 4, 5 6 (Gergiev - Wiener Philharmoniker) [2005, Classical, Romanticism, Symphony, FLAC]

Формат: FLAC, tracks, lossless
Год выпуска: 2005
Страна: EU
Жанр: Classical, Romanticism, Symphony
Продолжительность: 02:12:37
Описание: TracklistCD1: Symphony No. 4 in F minor, op. 36 (01:42:31) 01 (1) Andante sostenuto - Moderato con anima - Moderato assai, quasi Andante - Allegro vivo 02 (2) Andantino in modo di canzona 03 (3) Scherzo. Pizzicato ostinato - Allegro 04 (4) Finale. Allegro con fuoco CD2: Symphony No. 5 in E minor, op. 64 (00:46:07) 01 (1) Andante - Allegro con anima 02 (2) Andante cantabile, con alcuna licenza - Moderato con anima 03 (3) Valse. Allegro moderato 04 (4) Finale. ...

14
ноя
2015

Сергей Прокофьев - Симфонии № 5 6 / Prokofiev - Symphonies Nos. 5 6 [2009, Классика, Оркестр, FLAC]

Формат: FLAC, tracks, lossless
Год выпуска: 2009
Страна: Россия
Производитель: Франция
Жанр: Классика, Оркестр
Продолжительность: 01:18:49
Описание: Symphony № 5, op. 100 (1944) I. Andante (12:09) II. Allegro marcato (8:06) III. Adagio (12:07) IV. Allegro giocoso (9:20) Symphony № 6, op. 111 (1947) I. Allegro moderato (12:24) II. Largo (13:06) III. Vivace (11:37) Отчет ЕАСAUDIOCHECKER v2.0 beta (build 457) - by Dester - opdester@freemail.hu ~~~~~~~~~~~~~~~~~~~~~~~~~~~~~~~~~~ Started at: понедельник, 17. 08. 2015. - 12:40.39 7 files found 1 -===- C:Music!Classical MusicProkofiev - Symphonie ...

10
сен
2009

Ромео и Джульетта (русская версия) [2004, Мьюзикл, WMA]

Формат: WMA, tracks, 192kbps
Год выпуска: 2004
Страна: Россия
Жанр: Мьюзикл
Продолжительность: 01:56:59
Список песен: Раскрыть Ромео и Джульетта Акт1 (Romeo & Juliette) русская версия 01 Увертюра 02 Верона 03 Вражда 04 Предчувствие любви 05 Сватовство 06 Мужья - наша цель 07 Короли ночной Вероны 08 Судьба 09 Бал 10 Встреча на балу 11 Бал 12 Маска мести 13 На балконе 14 Просьба о венчании 15 Красавцы и уроды 16 Два крыла любви 17 Благославение Ромео и Джульетта Акт2 (Romeo & Juliette) русская версия диск 2 01 Ты нас предал 02 Пробил час 03 Дуэль 04 Смерть Меркуцио 05 Кто виноват 06 Бог, почем ...

05
мар
2007

Счастье из мьюзикла Ромео и Джульетта (клип)

Страна: Россия
Жанр: клип
Продолжительность: 00:03:15
Формат: MPEG
Битрейт аудио: 128 Kbps
Трэклист: Счастье
Доп. информация:
Видео: 720x576 (1,25:1), 25 fps, MPEG-2 ~ 7812 kbps avg, 0,77 bit/pixel
Аудио: 4800Hz, MPEG 1 Layer 2, 2 ch, ~128 kbps avg

05
мар
2007

Короли Мира из мьюзикла Ромео и Джульетта (клип)

Страна: Россия
Жанр: клип
Продолжительность: 00:03:27
Формат: MPEG
Битрейт аудио: 128 Kbps
Трэклист: Короли мира
Доп. информация:
Видео: 720x576 (1,25:1), 25 fps, MPEG-2 ~ 7812 kbps avg, 0,77 bit/pixel
Аудио: 4800Hz, MPEG 1 Layer 2, 2 ch, ~128 kbps avg

13
сен
2010

Сергей Прокофьев, Ромео и Джульетта . Геннадий Рождественский. [1959, Балеты, MP3]

Формат: MP3, tracks, 320kbps
Год выпуска: 1959
Страна: СССР
Жанр: Балеты
Продолжительность: 02:20:13
Описание: Акт I: 1) Вступление Картина 1: "Ромео" 2) - 8 Картина 2: "Бал" 9) - 21) Акт II: Картина 1: "Улицы Вероны" 22) - 27) Картина 2: "У падре Лоренцо" 28 - 29) Картина 3: "Тибальд и Меркуцио" 30) - 36) Акт III: Картина 1: "Разлука" 37) - 43) Картина 2: "У Лоренцо" 44) - 45) Картина 3: "Джульетта" 46) - 50)
Эпилог: 51) Похороны Джульетты 52) Смерть Джульетты РаскрытьNo 1 Introduction No 2 Romeo No 3 The street awakens No 4 Morning Dance No 5 The Quarrel No 6 The Fight No 7 The Prince gives ...

19
мар
2011

Владимир Сорокин с ансамблем Карусель - Ромео и Джульетта (Слава русским бардам) [1984, Шансон, MP3]

Формат: MP3, tracks, 320kbps
Год выпуска: 1984
Страна: СССР
Жанр: Шансон
Продолжительность: 01:38:43
Описание: Треклист01. А на кладбище, всё спокойненько! 02. Ромео и Джульетта 03. Ночь ленинградская 04. Штрафные батальоны 05. Жора-гармонист 06. Письмо на выставку 07. Ответ с выставки 08. На Колыме 09. Расцвела сирень в моём садочке... 10. Амстердам 11. Люба Фегельман 12. Милицейский протокол 13. Гамарджоби Сулико! 14. Мне бесконечно жаль 15. Азохен, Блюма дорогая 16. Ты не пришла провожать... 17. И портвейн и кагор... 18. Друг мой, Саша 19. Приморили, гады, приморили... 20. В старинной музы ...

20
мар
2008

Ромео+Джульетта (1995) [mp3, 192]

Год выпуска: 1995
Жанр: саундтрек
Продолжительность: 37.74
Формат: MP3
Битрейт аудио: 192
Трэклист: 1 Garbage/#1 Crush 04:46 6.56Mb 2 Everclear/Local God 03:55 5.40Mb 3 Gavin Friday/Angel 04:19 5.93Mb 4 One Inch Punch/Pretty Piece of Flesh 04:52 6.71Mb 5 Des'ree/Kissing You 04:58 6.82Mb 6 Butthole Surfers/Whatever 04:09 5.71Mb 7 The Cardigans/Lovefool 03:18 4.55Mb 8 Kym Mazelle/Young Hearts Run Free 04:16 5.86Mb 9 Quindon Tarver/Everybody's Free 01:43 2.37Mb 10 Mundy/To You I Bestow 03:58 5.46Mb 11 Radiohead/Talk Show Host 04:17 192/kbps 5.89Mb [mp3] [rar] [exe] [eml] 12 Stina Nordenstam/Littl ...

23
июл
2009

Слот - Alfa-Ромео + Beta-Джульетта (Single)[2009, Альтернатива]

Формат: MP3, tracks, 320kbps
Год выпуска: 2009
Страна: Россия
Жанр: Альтернатива
Продолжительность: 00:11:01
Описание: 01. Alfa-Ромео + Beta-Джульетта 02. Ля-Ля 03. Alfa-Ромео + Beta-Джульетта (Roman Rain remix)

27
авг
2009

Peter Ilyich Tchaikovsky - Golden Hall of the Tchaikovsky [2008, Classical, DTS 6.1]

Формат: DTS, (image + .cue), lossless
Год выпуска: 2008
Страна: China
Жанр: Classical
Продолжительность: 00:59:49
Описание: Треклист 01. Swan dance "Swan Lake" Act No. 8 02. Napoli dance "Swan Lake" Act II No. 13 03. Waltz of the Flower "The Nutcracker" for the second act the third No. 13 04. Intercalation dance "The Nutcracker" Act II No. 12 05. Pas de Deux "The Nutcracker" for the second act the third No. 14 06. Snowflake Waltz "The Nutcracker" Act II No. 9 07. "Marche Slave" 08. "Overture 1812"
Доп. информация: AUDIO: Формат : DTS-ES 6.1 Формат/Информация : Digital Theater Systems П ...

07
мая
2015

П. И. Чайковский - Спящая Красавица [1980, Классика, Опера, FLAC]

Формат: FLAC, (image + .cue), lossless
Год выпуска: 1980
Страна: СССР
Жанр: Классика, Опера
Продолжительность: 02:49:45
Описание:
ТреклистCD1: 01. Интродукция / Пролог 02. Марш 03. Сцена с танцами / Pas de six 04. Introduction 05. Adagio 06. Фея искренности 07. Фея цветущих колосьев 08. Фея, рассыпающая хлебные крошки 09. Фея - щебечущая канарейка 10. Фея пылких сильных страстей 11. Фея Сирени 12. Кода 13. Финал 14. Сцена 15. Вальс 16. Сцена / Pas d’action 17. Adagio 18. Танец фрейлин и пажей 19. Вариация Авроры 20. Кода 21. Финал CD2: 01. Антракт и сцена 02. Жмурки 03. Сцена 04. Танец герцог ...

25
мар
2013

Сергей Славянский - Новое и лучшее [2013, Шансон, MP3]

Формат: MP3, tracks, 320kbps
Год выпуска: 2013
Страна: Россия
Жанр: Шансон
Продолжительность: 00:58:37
Описание: 01. Стрела любви 02. Сто дорог 03. Зацелую 04. Жена 05. Скрипка 06. Подари мне любовь 07. Фата 08. Ягодка (версия 2012) 09. Удача (Дуэт с Леонидом Телешевым) (radio edit) 10. Розовые щечки 11. С днем рождения 12. Аленушка 13. Любимая женщина 14. Розовые щечки (караоке - версия) 15. Любимая женщина (караоке - версия)

14
авг
2015

Тихон Хренников - Симфонии №1-3 (Евгений Светланов) [2005, Классика, Симфония, FLAC]

Формат: FLAC, (image + .cue), lossless
Год выпуска: 2005
Страна: Россия
Жанр: Классика, Симфония
Продолжительность: 01:14:23
Описание: Symphony No.1 01. I. Allegro 02. II. Adagio. Molto espressivo 03. III. Allegro molto Symphony No.2 04. I. Allegro con fuoco 05. II. Adagio 06. III. Allegro molto 07. IV. Finale, Allegro marciale Symphony No.3 08. I. Fugue, Allegro con fuoco 09. II. Intermezzo, Andante sostenuto 10. III. Finale, Allegro con fuoco Отчет ЕАСExact Audio Copy V0.99 prebeta 5 from 4. May 2009 Отчёт EAC об извлечении, выполненном 24. мая 2010, 22:48 Tikhon Khrennikov / Three Sympho ...

24
дек
2015

Сергей Танеев - Симфонии №1-4 [2002, Классика, FLAC]

Формат: FLAC, (image + .cue), lossless
Год выпуска: 2002
Производитель: EU
Жанр: Классика
Продолжительность: 01:03:47+01:15:23
Описание: ТреклистСимфония ми минор (№1) 1. I. Allegro 2. II. Andantino quasi allegretto 3. III. Vivace assai 4. IV. Allegro molto Симфония ре минор (№3) 5. I. Allegro con spirito 6. II. Allegro vivace alla marcia 7. III. Intermezzo. Andantino grazioso 8. IV. Allegro con brio Симфония си-бемоль мажор (№2) 1. I. Introduction and Allegro 2. II. Andante 3. III. Allegro Симфония №4 до минор 4. I. Allegro molto 5. II. Adagio 6. III. Scherzo. Vivace 7. IV. Finale. Allegro e ...