22
янв
2014

VA - 333 лучшие детские песни [2004, Детская песня, WAVPack]

VA - 333 лучшие детские песни
Формат: WAVPack, (image + .cue), lossless
Год выпуска: 2004
Страна: Россия
Жанр: Детская песня
Продолжительность: 11:17:27
Описание:
CD 1 00

1. А может быть, ворона?
2. Голубой вагон
3. Песня Водяного
4. Розовый слон
5. Мальчик стричься не желает
6. Кабы не было зимы
7. Песня мастеров
8. Блоха
9. Веселая песенка
10. Частушки Бабок-Ежек
11. Если добрый ты
12. Песня привидений
13. Невезучий Саушкин
14. Зимняя сказка
15. Песня Царевны Забавы
16. Азбука
17. Дуэт Доброго Моряка и Голубого щенка
18. Песенка Винтика и Шпунтика
19. Песенка рыжехвостенькой
20. Песня Вани-печника
21. Дуэт Короля и Принцессы
22. Песенка Кота в сапогах
23. Жила-была песенка
24. Песенка паучка Ананси
25. Когда поют светофоры
26. Песенка врачей
27. Про жирафу
CD 2 00

1. Прилетели восемь галок
2. Человек собаке друг
3. Песенка Чиполлино
4. И я того же мнения
5. Необитаемый остров
6. Песня Гениального Сыщика
7. Песенка Огуречика
8. Песня Иохима Лиса
9. Дельфины
10. Песенка страхов
11. Будьте добры
12. Песенка Винни-Пуха
13. Песенка альпинистов
14. Песенка Верблюжонка и Слоненка
15. Кто справляется с делами
16. Я прививки не боюсь
17. Песенка Буратино (Это очень хорошо, даже очень хорошо...)
18. Игра
19. Снеженика
20. Стал сапожником енот
21. Песенка про чибиса
22. Песенка про патефон
23. Песня диких зверей
24. Небылицы
25. Книжка, с днем рожденья!
26. Мне скучно
27. Под дождем
28. Песня о звездах
CD 3 00

1. Чунга-Чанга
2. Ничего на свете лучше нету
3. Из чего только сделаны мальчики...
4. Мани-мани
5. Мы бандито-гангстерито
6. Осьминожки
7. Вместе весело шагать
8. Мы к вам заехали на час
9. Песенка директора зоопарка
10. Песня Паука и Буратино
11. Песенка почтальона
12. Ни кола, ни двора
13. Песня сорняков
14. Робин-красношейка
15. Веселые путешественники
16. Песня злых кошек
17. Песенка Куклы
18. Песенка пана Трулялинского
19. Юла
20. Песенка дворовых собак (Голубой, голубой...)
21. Ярмарка чудес
22. Песенка обезьяны
23. Песенка о времени
24. Если б я стал королем
25. Если все наоборот
26. Песня Пирата
27. Живи в волшебном ящичке
CD 4 00

1. Чебурашка
2. Точка, точка, запятая
3. Расскажи, Снегурочка
4. Колыбельная
5. Морозный денек
6. Песня Рыбы-Пилы
7. Романс Тортиллы
8. Песня бродячих гимнастов
9. Песенка про "хорошо!"
10. Утро в лесу
11. Песенка Дюймовочки
12. Песня Волка и Козлят
13. Шелковая кисточка
14. Белые снежинки
15. Песенка Зайца
16. Песенка страусенка Роки
17. Песня Голубого Щенка
18. Папа - хоккеист
19. Тень
20. Песенка сказочных ослов
21. Бим-бом
22. Был бы только музыкант
23. Пусть всегда будет солнце
24. Помогите бегемоту
25. Вкусные загадки
26. Колыбельная медведицы
27. Песенка капитана Врунгеля
CD 5 01


1. Тридцать три коровы
2. Небылицы
3. Очки
4. Да здравствует сюрприз
5. Песня Шапокляк
6. А ты знаешь?
7. Первоклашка
8. Песня о Хоттабыче
9. Лев и Брадобрей
10. Приметы
11. Песенка цыплят
12. Молодец
13. Длинношеее
14. Песня разбойников
15. Федя
16. Загадки автомобиля
17. Песенка о стране Мульти-пульти
18. Песенка про Машу
19. Что нам делать с гусаком
20. Мой день рождения
21. Подарки
22. Кручу педали, кручу
23. Песня Черного Кота
24. Песенка о ремонте
25. Песня Бонки
26. Песня о любознательном щенке
27. Ноль часов ноль минут
28. Цветные сны
CD 6 00

1. Рыжий, рыжий, конопатый
2. Начинаем передачу
3. Куда ты, тропинка, меня привела?
4. Мамонтенок
5. Дорога добра
6. Синяя вода
7. Бюро находок
8. Песня Дюдюки
9. Песенка Дракончика
10. Луч солнца золотого
11. Зачем верблюду апельсин?
12. Ох, рано встает охрана
13. Песня Барсука Бонифация
14. Все на свете можешь ты ...
15. Дед Мороз
16. Вот бы стать мне выше
17. Поздравительный пирог
18. Песенка Незнайки
19. До, ре, ми
20. Ломать, крушить, рвать на части...
21. Частушки Карлсона
22. Песенка Буратино
23. Цык-цык-цуцык
24. Удивительный слон
25. Обезьяна
26. Полный вперед
27. В мире много сказок
CD 7 00

1. Бу-ра-ти-но
2. В коробке с карандашами
3. Песня Синеглазки
4. Дважды два - четыре
5. Крейсер "Аврора"
6. Разлученные
7. Песенка поросят
8. Подарок для слона
9. Куплеты Злого и Доброго волшебников
10. Как тоску одолели
11. Песня волшебника Сулеймана
12. Сестрички-привычки
13. Хорошо, что снежок пошел
14. Дуэт Иохима Лиса и Лисы Амалии
15. Песенка Веселого Карандаша
16. Песенка о двух портфелях
17. Песенка Тома Сойера
18. Карусельные лошадки
19. Обжоры
20. Карусель
21. Почему, отчего? (Песня любопытного слоненка)
22. Про доктора Айболита
23. Врун
24. Колобок, колобок
25. Зимы я вовсе не боюсь
26. Спой нам, ветер
27. Песенка Умки
28. Все мы делим пополам
CD 8 00

1. Танец маленьких утят
2. Все сбывается на свете
3. Воспи-пи-пи-питание
4. Мы - маленькие дети
5. Картошка
6. Катерок
7. Песенка о волшебниках
8. Сдается квартира с ребенком
9. Песенка о дружбе
10. Анфиса
11. Мария-Мирабелла
12. Солнце и звезда
13. Это знает всякий
14. Заводные игрушки
15. Песенка Василис
16. Песенка Зайки-почтальона
17. Лучше папы друга нет
18. Не дразните собак
19. Песенка для карнавала
20. Такой хороший дед
21. Песенка моя
22. Поглажены все платья...
23. Воздушный шарик
24. Ссора
25. Сапожки
26. Как сладко спать
27. Чтобы нас услышали
28. Колыбельная кошки
CD 9 01

1. Лесной олень
2. Дождя не боимся
3. Чему учат в школе
4. Песенка Мышонка
5. Дуэт Пса и Болонки
6. Гимн Незнайки и его друзей
7. Песня Кота Матвея
8. Рассвет-чародей
9. Неприятность эту мы переживем
10. Вот бы если
11. Песенка о сказках
12. Птичий рынок
13. Дуэт Кота и Пирата
14. Давай дружить
15. Кошки-мышки
16. Что такое Новый год
17. Песенка Плюшевого Медвежонка
18. Песня Краги
19. Белые кораблики
20. Надо под руки шагать
21. Бармалей
22. Дуэт Буратино и Пьеро
23. Шуточная песенка
24. Песенка короля Бубей
25. На зарядку
26. Песня Черныша
27. Небылица
28. А, как известно, мы народ горячий
29. Из чего же, из чего же...
CD 10 01

1. Облака
2. Разве это не чудо
3. Крылатые качели
4. Трудный счет
5. Пропала собака
6. Песня Лисы Алисы и Кота Базилио
7. Кто на новенького
8. Спор Маши и Вити о сказках
9. Если б не было школ
10. Мистер Жук
11. Чуни-Муни
12. Лучше честным быть и добрым
13. Рыболов
14. Хвост за хвост
15. Рождественская песенка
16. Дадабай и будильник
17. В доме 8/16
18. Кукляндия
19. Не поется птицам без небес
20. Большой хоровод
21. Акробаты
22. Песня Суок
23. Ухти-Тухти
24. Поликлиника кота Леопольда
25. Песня о цирке
26. Купите крокодила
27. Ангина
28. Песенка паровозика
CD 11 00

1. Антошка
2. Песенка о лете
3. Песня Кошки
4. Дуэт Принцессы и Трубадура
5. Улыбка
6. Песенка кота Леопольда
7. Солнечный зайчик
8. Колокола
9. Умная собачка Соня
10. Самовар
11. Перышко
12. Ворон - черное крыло
13. Коты и овечки
14. Угадай-ка
15. Песенка про Барбацуцу
16. Нужно спортом заниматься
17. Аэробика
18. Песня Лешего
19. Песенка Шапокляк
20. Зову мышей на бой
21. Книжкин дом
22. Пляска
23. Шел по улице отряд
24. Не сразу забиваются футбольные голы
25. Если умным хочешь быть
26. Письмо
27. Крокодиленок
28. Песенка друзей
CD 12 00

1. Песенка Львенка и Черепахи
2. Песня Дуремара
3. В порту
4. Песня Красной Шапочки
5. Песня Диких Гитар
6. Лунная дорожка
7. Песенка про котенка
8. Необычайный барабанозверь
9. Двойка
10. Поле чудес
11. Говорят, мы Бяки-Буки
12. Аист
13. Песенка о летучих мышах
14. Танцуйте сидя
15. Сказки гуляют по свету
16. Ковер-самолет
17. Моя лошадка пони
18. Песенка Бельчонка
19. Прости, мой край
20. Прекрасное далеко
21. Что без чего не бывает
22. Грустный день
23. Песенка клоуна Фантика
24. Как приготовить яичницу
25. Песенка щенка-футболиста
26. Разноцветные моря
27. Карантин
28. Добрым быть на белом свете веселей

Доп. информация:
Отчет

CD 1

Exact Audio Copy V0.99 prebeta 5 from 4. May 2009

Отчёт EAC об извлечении, выполненном 7. сентября 2010, 14:26

Various / 333 Лучшие детские песни, vol.1

Дисковод: TOSHIBA DVD-ROM SD-R1202 Adapter: 1 ID: 0

Режим чтения : Достоверность
Использование точного потока : Да
Отключение кэша аудио : Да
Использование указателей C2 : Нет

Коррекция смещения при чтении : -472
Способность читать области Lead-in и Lead-out : Нет
Заполнение пропущенных сэмплов тишиной : Да
Удаление блоков с тишиной в начале и конце : Нет
При вычислениях CRC использовались нулевые сэмплы : Да
Интерфейс : Встроенный Win32-интерфейс для Win NT/2000

Выходной формат : Пользовательский кодировщик
Выбранный битрейт : 1024 kBit/s
Качество : Высокий
Добавление ID3-тэга : Да
Утилита сжатия : C:Documents and SettingsAdminРабочий столwavpack-4.60.1wavpack.exe

TOC извлечённого CD

Трек | Старт | Длительность | Начальный сектор | Конечный сектор
---------------------------------------------------------------------
1 | 0:00.00 | 4:27.14 | 0 | 20038
2 | 4:27.14 | 3:25.68 | 20039 | 35481
3 | 7:53.07 | 1:29.06 | 35482 | 42162
4 | 9:22.13 | 2:26.55 | 42163 | 53167
5 | 11:48.68 | 1:30.54 | 53168 | 59971
6 | 13:19.47 | 1:11.19 | 59972 | 65315
7 | 14:30.66 | 1:50.71 | 65316 | 73636
8 | 16:21.62 | 1:06.25 | 73637 | 78611
9 | 17:28.12 | 1:23.22 | 78612 | 84858
10 | 18:51.34 | 1:14.02 | 84859 | 90410
11 | 20:05.36 | 1:39.17 | 90411 | 97852
12 | 21:44.53 | 1:24.48 | 97853 | 104200
13 | 23:09.26 | 1:08.63 | 104201 | 109363
14 | 24:18.14 | 1:01.31 | 109364 | 113969
15 | 25:19.45 | 1:36.53 | 113970 | 121222
16 | 26:56.23 | 1:31.13 | 121223 | 128060
17 | 28:27.36 | 1:37.61 | 128061 | 135396
18 | 30:05.22 | 1:03.19 | 135397 | 140140
19 | 31:08.41 | 2:10.24 | 140141 | 149914
20 | 33:18.65 | 1:09.56 | 149915 | 155145
21 | 34:28.46 | 1:31.66 | 155146 | 162036
22 | 36:00.37 | 0:55.57 | 162037 | 166218
23 | 36:56.19 | 2:01.01 | 166219 | 175294
24 | 38:57.20 | 1:26.06 | 175295 | 181750
25 | 40:23.26 | 2:46.12 | 181751 | 194212
26 | 43:09.38 | 2:02.71 | 194213 | 203433
27 | 45:12.34 | 2:37.56 | 203434 | 215264

Характеристики диапазона извлечения и сообщения об ошибках

Выбранный диапазон

Имя файла C:Documents and SettingsAdminРабочий столVarious - 333 Лучшие детские песни, vol.1.wav

Пиковый уровень 100.0 %
Качество диапазона 100.0 %
CRC копии 4E5E22B6
Копирование... OK

Ошибок не произошло

AccurateRip: сводка

Трек 1 нет в базе данных
Трек 2 нет в базе данных
Трек 3 нет в базе данных
Трек 4 нет в базе данных
Трек 5 нет в базе данных
Трек 6 нет в базе данных
Трек 7 нет в базе данных
Трек 8 нет в базе данных
Трек 9 нет в базе данных
Трек 10 нет в базе данных
Трек 11 нет в базе данных
Трек 12 нет в базе данных
Трек 13 нет в базе данных
Трек 14 нет в базе данных
Трек 15 нет в базе данных
Трек 16 нет в базе данных
Трек 17 нет в базе данных
Трек 18 нет в базе данных
Трек 19 нет в базе данных
Трек 20 нет в базе данных
Трек 21 нет в базе данных
Трек 22 нет в базе данных
Трек 23 нет в базе данных
Трек 24 нет в базе данных
Трек 25 нет в базе данных
Трек 26 нет в базе данных
Трек 27 нет в базе данных

Ни одного трека нет в базе AccurateRip

Конец отчёта
CD 2

Exact Audio Copy V0.99 prebeta 5 from 4. May 2009

Отчёт EAC об извлечении, выполненном 15. апреля 2010, 12:07

Various / 333 Лучшие детские песни vol.2

Дисковод: TOSHIBA DVD-ROM SD-R1202 Adapter: 1 ID: 0

Режим чтения : Достоверность
Использование точного потока : Да
Отключение кэша аудио : Да
Использование указателей C2 : Нет

Коррекция смещения при чтении : -472
Способность читать области Lead-in и Lead-out : Нет
Заполнение пропущенных сэмплов тишиной : Да
Удаление блоков с тишиной в начале и конце : Нет
При вычислениях CRC использовались нулевые сэмплы : Да
Интерфейс : Встроенный Win32-интерфейс для Win NT/2000

Выходной формат : Пользовательский кодировщик
Выбранный битрейт : 1024 kBit/s
Качество : Высокий
Добавление ID3-тэга : Да
Утилита сжатия : C:Documents and SettingsAdminРабочий столwavpack-4.60.1wavpack.exe

TOC извлечённого CD

Трек | Старт | Длительность | Начальный сектор | Конечный сектор
---------------------------------------------------------------------
1 | 0:00.00 | 2:08.22 | 0 | 9621
2 | 2:08.22 | 2:16.00 | 9622 | 19821
3 | 4:24.22 | 1:21.11 | 19822 | 25907
4 | 5:45.33 | 1:14.30 | 25908 | 31487
5 | 6:59.63 | 1:59.22 | 31488 | 40434
6 | 8:59.10 | 1:28.39 | 40435 | 47073
7 | 10:27.49 | 1:49.65 | 47074 | 55313
8 | 12:17.39 | 2:02.26 | 55314 | 64489
9 | 14:19.65 | 4:31.22 | 64490 | 84836
10 | 18:51.12 | 1:03.63 | 84837 | 89624
11 | 19:55.00 | 1:25.67 | 89625 | 96066
12 | 21:20.67 | 0:59.07 | 96067 | 100498
13 | 22:19.74 | 2:45.13 | 100499 | 112886
14 | 25:05.12 | 1:07.42 | 112887 | 117953
15 | 26:12.54 | 1:14.67 | 117954 | 123570
16 | 27:27.46 | 1:35.49 | 123571 | 130744
17 | 29:03.20 | 1:03.11 | 130745 | 135480
18 | 30:06.31 | 2:24.31 | 135481 | 146311
19 | 32:30.62 | 2:23.69 | 146312 | 157105
20 | 34:54.56 | 1:11.51 | 157106 | 162481
21 | 36:06.32 | 1:47.32 | 162482 | 170538
22 | 37:53.64 | 2:02.73 | 170539 | 179761
23 | 39:56.62 | 1:16.14 | 179762 | 185475
24 | 41:13.01 | 1:34.37 | 185476 | 192562
25 | 42:47.38 | 1:17.65 | 192563 | 198402
26 | 44:05.28 | 1:39.26 | 198403 | 205853
27 | 45:44.54 | 2:56.12 | 205854 | 219065
28 | 48:40.66 | 4:16.35 | 219066 | 238300

Характеристики диапазона извлечения и сообщения об ошибках

Выбранный диапазон

Имя файла C:Documents and SettingsAdminМои документыVarious - 333 Лучшие детские песни.wav

Пиковый уровень 100.0 %
Качество диапазона 99.9 %
CRC копии D9962B9E
Копирование... OK

Ошибок не произошло

AccurateRip: сводка

Трек 1 нет в базе данных
Трек 2 нет в базе данных
Трек 3 нет в базе данных
Трек 4 нет в базе данных
Трек 5 нет в базе данных
Трек 6 нет в базе данных
Трек 7 нет в базе данных
Трек 8 нет в базе данных
Трек 9 нет в базе данных
Трек 10 нет в базе данных
Трек 11 нет в базе данных
Трек 12 нет в базе данных
Трек 13 нет в базе данных
Трек 14 нет в базе данных
Трек 15 нет в базе данных
Трек 16 нет в базе данных
Трек 17 нет в базе данных
Трек 18 нет в базе данных
Трек 19 нет в базе данных
Трек 20 нет в базе данных
Трек 21 нет в базе данных
Трек 22 нет в базе данных
Трек 23 нет в базе данных
Трек 24 нет в базе данных
Трек 25 нет в базе данных
Трек 26 нет в базе данных
Трек 27 нет в базе данных
Трек 28 нет в базе данных

Ни одного трека нет в базе AccurateRip

Конец отчёта
CD 3

Exact Audio Copy V0.99 prebeta 5 from 4. May 2009

Отчёт EAC об извлечении, выполненном 12. августа 2010, 15:02

Various / 333 Лучшие детские песни, №3

Дисковод: TSSTcorpDVD+-RW TS-H653F Adapter: 3 ID: 0

Режим чтения : Достоверность
Использование точного потока : Да
Отключение кэша аудио : Да
Использование указателей C2 : Нет

Коррекция смещения при чтении : 6
Способность читать области Lead-in и Lead-out : Нет
Заполнение пропущенных сэмплов тишиной : Да
Удаление блоков с тишиной в начале и конце : Нет
При вычислениях CRC использовались нулевые сэмплы : Да
Интерфейс : Встроенный Win32-интерфейс для Win NT/2000

Выходной формат : Пользовательский кодировщик
Выбранный битрейт : 1024 kBit/s
Качество : Высокий
Добавление ID3-тэга : Нет
Утилита сжатия : C:UsersDefaultDesktopwavpack.exe
Дополнительные параметры : -w "Artist=%a" -w "Title=%t" -w "Album=%g" -w "Year=%y" -w "Track=%n" -w "Genre=%m" -h %s %d

TOC извлечённого CD

Трек | Старт | Длительность | Начальный сектор | Конечный сектор
---------------------------------------------------------------------
1 | 0:00.00 | 2:15.27 | 0 | 10151
2 | 2:15.27 | 2:01.38 | 10152 | 19264
3 | 4:16.65 | 1:38.43 | 19265 | 26657
4 | 5:55.33 | 2:36.44 | 26658 | 38401
5 | 8:32.02 | 2:46.06 | 38402 | 50857
6 | 11:18.08 | 0:50.58 | 50858 | 54665
7 | 12:08.66 | 2:16.43 | 54666 | 64908
8 | 14:25.34 | 1:41.37 | 64909 | 72520
9 | 16:06.71 | 2:17.50 | 72521 | 82845
10 | 18:24.46 | 1:17.34 | 82846 | 88654
11 | 19:42.05 | 1:28.16 | 88655 | 95270
12 | 21:10.21 | 2:07.24 | 95271 | 104819
13 | 23:17.45 | 1:19.54 | 104820 | 110798
14 | 24:37.24 | 1:48.10 | 110799 | 118908
15 | 26:25.34 | 1:40.52 | 118909 | 126460
16 | 28:06.11 | 0:43.73 | 126461 | 129758
17 | 28:50.09 | 1:26.29 | 129759 | 136237
18 | 30:16.38 | 1:58.07 | 136238 | 145094
19 | 32:14.45 | 2:03.41 | 145095 | 154360
20 | 34:18.11 | 1:25.46 | 154361 | 160781
21 | 35:43.57 | 3:04.02 | 160782 | 174583
22 | 38:47.59 | 1:18.64 | 174584 | 180497
23 | 40:06.48 | 2:08.70 | 180498 | 190167
24 | 42:15.43 | 2:32.29 | 190168 | 201596
25 | 44:47.72 | 1:29.43 | 201597 | 208314
26 | 46:17.40 | 2:28.50 | 208315 | 219464
27 | 48:46.15 | 1:36.44 | 219465 | 226708

Характеристики диапазона извлечения и сообщения об ошибках

Выбранный диапазон

Имя файла C:UsersАдминистраторDesktopVarious - 333 Лучшие детские песни, №3.wav

Пиковый уровень 100.0 %
Качество диапазона 99.9 %
CRC теста E5067047
CRC копии E5067047
Копирование завершено

Ошибок не произошло

AccurateRip: сводка

Трек 1 точное извлечение (доверие 1)
Трек 2 точное извлечение (доверие 1) [48921062]
Трек 3 точное извлечение (доверие 1) [5A9C83B0]
Трек 4 точное извлечение (доверие 1) [C6709A6D]
Трек 5 точность не определена (достоверность 1) [D94CAD4B], AccurateRip вернул [3698D568]
Трек 6 точность не определена (достоверность 1) [FC77B2F3], AccurateRip вернул [71B48A94]
Трек 7 точное извлечение (доверие 1) [3D3DE26B]
Трек 8 точное извлечение (доверие 1) [4D2332A6]
Трек 9 точное извлечение (доверие 1) [D22BF4FA]
Трек 10 точное извлечение (доверие 1) [306AC372]
Трек 11 точное извлечение (доверие 1) [0B476184]
Трек 12 точное извлечение (доверие 1) [3B0472B2]
Трек 13 точное извлечение (доверие 1) [693F2A71]
Трек 14 точное извлечение (доверие 1) [95766DE0]
Трек 15 точное извлечение (доверие 1) [163E390B]
Трек 16 точное извлечение (доверие 1) [228FF5D7]
Трек 17 точное извлечение (доверие 1) [6C4D5DCD]
Трек 18 точное извлечение (доверие 1) [DAED2341]
Трек 19 точное извлечение (доверие 1) [C318C04A]
Трек 20 точность не определена (достоверность 1) [AA7977DC], AccurateRip вернул [9FD52ECD]
Трек 21 точное извлечение (доверие 1) [43A1CC42]
Трек 22 точное извлечение (доверие 1) [0F7A8990]
Трек 23 точное извлечение (доверие 1) [5B482F3A]
Трек 24 точное извлечение (доверие 1) [3144A69E]
Трек 25 точное извлечение (доверие 1) [A5E50315]
Трек 26 точное извлечение (доверие 1) [6F8145D7]
Трек 27 точное извлечение (доверие 1) [05FB841C]

24 трек(и) скопированы точно
3 трек(и) не удалось проверить на точность

Некоторые треки не прошли проверку на точность

Конец отчёта
CD 4

Exact Audio Copy V0.99 prebeta 5 from 4. May 2009

Отчёт EAC об извлечении, выполненном 19. апреля 2010, 14:12

Various / 333 Лучшие детские песни, vol.4

Дисковод: TOSHIBA DVD-ROM SD-R1202 Adapter: 1 ID: 0

Режим чтения : Достоверность
Использование точного потока : Да
Отключение кэша аудио : Да
Использование указателей C2 : Нет

Коррекция смещения при чтении : -472
Способность читать области Lead-in и Lead-out : Нет
Заполнение пропущенных сэмплов тишиной : Да
Удаление блоков с тишиной в начале и конце : Нет
При вычислениях CRC использовались нулевые сэмплы : Да
Интерфейс : Встроенный Win32-интерфейс для Win NT/2000

Выходной формат : Пользовательский кодировщик
Выбранный битрейт : 1024 kBit/s
Качество : Высокий
Добавление ID3-тэга : Да
Утилита сжатия : C:Documents and SettingsAdminРабочий столwavpack-4.60.1wavpack.exe

TOC извлечённого CD

Трек | Старт | Длительность | Начальный сектор | Конечный сектор
---------------------------------------------------------------------
1 | 0:00.00 | 1:33.72 | 0 | 7046
2 | 1:33.72 | 1:47.05 | 7047 | 15076
3 | 3:21.02 | 1:37.53 | 15077 | 22404
4 | 4:58.55 | 1:21.04 | 22405 | 28483
5 | 6:19.59 | 1:47.55 | 28484 | 36563
6 | 8:07.39 | 1:22.54 | 36564 | 42767
7 | 9:30.18 | 2:16.70 | 42768 | 53037
8 | 11:47.13 | 2:01.31 | 53038 | 62143
9 | 13:48.44 | 1:19.23 | 62144 | 68091
10 | 15:07.67 | 1:37.57 | 68092 | 75423
11 | 16:45.49 | 1:36.06 | 75424 | 82629
12 | 18:21.55 | 1:16.21 | 82630 | 88350
13 | 19:38.01 | 2:38.33 | 88351 | 100233
14 | 22:16.34 | 1:15.68 | 100234 | 105926
15 | 23:32.27 | 1:11.01 | 105927 | 111252
16 | 24:43.28 | 1:04.07 | 111253 | 116059
17 | 25:47.35 | 1:03.03 | 116060 | 120787
18 | 26:50.38 | 2:29.59 | 120788 | 132021
19 | 29:20.22 | 0:31.08 | 132022 | 134354
20 | 29:51.30 | 2:03.23 | 134355 | 143602
21 | 31:54.53 | 2:19.60 | 143603 | 154087
22 | 34:14.38 | 2:14.42 | 154088 | 164179
23 | 36:29.05 | 3:32.45 | 164180 | 180124
24 | 40:01.50 | 2:10.66 | 180125 | 189940
25 | 42:12.41 | 2:37.47 | 189941 | 201762
26 | 44:50.13 | 1:29.34 | 201763 | 208471
27 | 46:19.47 | 2:43.53 | 208472 | 220749

Характеристики диапазона извлечения и сообщения об ошибках

Выбранный диапазон

Имя файла C:Documents and SettingsAdminМои документыVarious - 333 Лучшие детские песни, vol.4.wav

Пиковый уровень 99.9 %
Качество диапазона 99.9 %
CRC копии 541FC2EB
Копирование... OK

Ошибок не произошло

AccurateRip: сводка

Трек 1 нет в базе данных
Трек 2 нет в базе данных
Трек 3 нет в базе данных
Трек 4 нет в базе данных
Трек 5 нет в базе данных
Трек 6 нет в базе данных
Трек 7 нет в базе данных
Трек 8 нет в базе данных
Трек 9 нет в базе данных
Трек 10 нет в базе данных
Трек 11 нет в базе данных
Трек 12 нет в базе данных
Трек 13 нет в базе данных
Трек 14 нет в базе данных
Трек 15 нет в базе данных
Трек 16 нет в базе данных
Трек 17 нет в базе данных
Трек 18 нет в базе данных
Трек 19 нет в базе данных
Трек 20 нет в базе данных
Трек 21 нет в базе данных
Трек 22 нет в базе данных
Трек 23 нет в базе данных
Трек 24 нет в базе данных
Трек 25 нет в базе данных
Трек 26 нет в базе данных
Трек 27 нет в базе данных

Ни одного трека нет в базе AccurateRip

Конец отчёта
CD 5

Exact Audio Copy V0.99 prebeta 5 from 4. May 2009

Отчёт EAC об извлечении, выполненном 10. августа 2010, 14:09

Various / 333 лучшие детские песни, vol.5

Дисковод: TSSTcorpDVD+-RW TS-H653F Adapter: 3 ID: 0

Режим чтения : Достоверность
Использование точного потока : Да
Отключение кэша аудио : Да
Использование указателей C2 : Нет

Коррекция смещения при чтении : 6
Способность читать области Lead-in и Lead-out : Нет
Заполнение пропущенных сэмплов тишиной : Да
Удаление блоков с тишиной в начале и конце : Нет
При вычислениях CRC использовались нулевые сэмплы : Да
Интерфейс : Встроенный Win32-интерфейс для Win NT/2000

Выходной формат : Пользовательский кодировщик
Выбранный битрейт : 1024 kBit/s
Качество : Высокий
Добавление ID3-тэга : Нет
Утилита сжатия : C:UsersDefaultDesktopwavpack.exe
Дополнительные параметры : -w "Artist=%a" -w "Title=%t" -w "Album=%g" -w "Year=%y" -w "Track=%n" -w "Genre=%m" -h %s %d

TOC извлечённого CD

Трек | Старт | Длительность | Начальный сектор | Конечный сектор
---------------------------------------------------------------------
1 | 0:00.00 | 2:32.00 | 0 | 11399
2 | 2:32.00 | 3:27.20 | 11400 | 26944
3 | 5:59.20 | 2:17.28 | 26945 | 37247
4 | 8:16.48 | 3:05.40 | 37248 | 51162
5 | 11:22.13 | 1:14.68 | 51163 | 56780
6 | 12:37.06 | 2:07.03 | 56781 | 66308
7 | 14:44.09 | 3:33.43 | 66309 | 82326
8 | 18:17.52 | 2:10.24 | 82327 | 92100
9 | 20:28.01 | 3:58.15 | 92101 | 109965
10 | 24:26.16 | 1:44.47 | 109966 | 117812
11 | 26:10.63 | 1:16.41 | 117813 | 123553
12 | 27:27.29 | 2:44.51 | 123554 | 135904
13 | 30:12.05 | 2:05.47 | 135905 | 145326
14 | 32:17.52 | 2:13.48 | 145327 | 155349
15 | 34:31.25 | 3:14.48 | 155350 | 169947
16 | 37:45.73 | 4:14.36 | 169948 | 189033
17 | 42:00.34 | 2:25.49 | 189034 | 199957
18 | 44:26.08 | 1:05.33 | 199958 | 204865
19 | 45:31.41 | 0:53.17 | 204866 | 208857
20 | 46:24.58 | 2:37.09 | 208858 | 220641
21 | 49:01.67 | 2:50.11 | 220642 | 233402
22 | 51:52.03 | 2:50.12 | 233403 | 246164
23 | 54:42.15 | 1:57.30 | 246165 | 254969
24 | 56:39.45 | 3:16.14 | 254970 | 269683
25 | 59:55.59 | 1:11.66 | 269684 | 275074
26 | 61:07.50 | 3:04.72 | 275075 | 288946
27 | 64:12.47 | 1:59.21 | 288947 | 297892
28 | 66:11.68 | 3:44.05 | 297893 | 314697

Характеристики диапазона извлечения и сообщения об ошибках

Выбранный диапазон

Имя файла C:UsersАдминистраторDesktopVarious - 333 лучшие детские песни, vol.5.wav

Пиковый уровень 100.0 %
Качество диапазона 99.9 %
CRC теста A4680ADE
CRC копии A4680ADE
Копирование... OK

Ошибок не произошло

AccurateRip: сводка

Трек 1 нет в базе данных
Трек 2 нет в базе данных
Трек 3 нет в базе данных
Трек 4 нет в базе данных
Трек 5 нет в базе данных
Трек 6 нет в базе данных
Трек 7 нет в базе данных
Трек 8 нет в базе данных
Трек 9 нет в базе данных
Трек 10 нет в базе данных
Трек 11 нет в базе данных
Трек 12 нет в базе данных
Трек 13 нет в базе данных
Трек 14 нет в базе данных
Трек 15 нет в базе данных
Трек 16 нет в базе данных
Трек 17 нет в базе данных
Трек 18 нет в базе данных
Трек 19 нет в базе данных
Трек 20 нет в базе данных
Трек 21 нет в базе данных
Трек 22 нет в базе данных
Трек 23 нет в базе данных
Трек 24 нет в базе данных
Трек 25 нет в базе данных
Трек 26 нет в базе данных
Трек 27 нет в базе данных
Трек 28 нет в базе данных

Ни одного трека нет в базе AccurateRip

Конец отчёта
CD 6

Exact Audio Copy V0.99 prebeta 5 from 4. May 2009

Отчёт EAC об извлечении, выполненном 7. сентября 2010, 15:23

VA / 333 лучшие детские песни, vol.6

Дисковод: TOSHIBA DVD-ROM SD-R1202 Adapter: 1 ID: 0

Режим чтения : Достоверность
Использование точного потока : Да
Отключение кэша аудио : Да
Использование указателей C2 : Нет

Коррекция смещения при чтении : -472
Способность читать области Lead-in и Lead-out : Нет
Заполнение пропущенных сэмплов тишиной : Да
Удаление блоков с тишиной в начале и конце : Нет
При вычислениях CRC использовались нулевые сэмплы : Да
Интерфейс : Встроенный Win32-интерфейс для Win NT/2000

Выходной формат : Пользовательский кодировщик
Выбранный битрейт : 1024 kBit/s
Качество : Высокий
Добавление ID3-тэга : Да
Утилита сжатия : C:Documents and SettingsAdminРабочий столwavpack-4.60.1wavpack.exe

TOC извлечённого CD

Трек | Старт | Длительность | Начальный сектор | Конечный сектор
---------------------------------------------------------------------
1 | 0:00.00 | 2:23.63 | 0 | 10787
2 | 2:23.63 | 1:28.37 | 10788 | 17424
3 | 3:52.25 | 1:17.06 | 17425 | 23205
4 | 5:09.31 | 2:02.59 | 23206 | 32414
5 | 7:12.15 | 2:10.54 | 32415 | 42218
6 | 9:22.69 | 2:21.54 | 42219 | 52847
7 | 11:44.48 | 1:21.41 | 52848 | 58963
8 | 13:06.14 | 1:25.17 | 58964 | 65355
9 | 14:31.31 | 0:47.01 | 65356 | 68881
10 | 15:18.32 | 2:32.40 | 68882 | 80321
11 | 17:50.72 | 1:09.44 | 80322 | 85540
12 | 19:00.41 | 1:29.09 | 85541 | 92224
13 | 20:29.50 | 2:25.18 | 92225 | 103117
14 | 22:54.68 | 2:20.12 | 103118 | 113629
15 | 25:15.05 | 3:22.37 | 113630 | 128816
16 | 28:37.42 | 3:11.02 | 128817 | 143143
17 | 31:48.44 | 0:38.55 | 143144 | 146048
18 | 32:27.24 | 1:28.16 | 146049 | 152664
19 | 33:55.40 | 2:30.24 | 152665 | 163938
20 | 36:25.64 | 2:10.35 | 163939 | 173723
21 | 38:36.24 | 1:38.20 | 173724 | 181093
22 | 40:14.44 | 0:56.00 | 181094 | 185293
23 | 41:10.44 | 2:12.06 | 185294 | 195199
24 | 43:22.50 | 2:11.41 | 195200 | 205065
25 | 45:34.16 | 2:33.13 | 205066 | 216553
26 | 48:07.29 | 3:45.27 | 216554 | 233455
27 | 51:52.56 | 2:42.42 | 233456 | 245647

Характеристики диапазона извлечения и сообщения об ошибках

Выбранный диапазон

Имя файла C:Documents and SettingsAdminРабочий столVA - 333 лучшие детские песни, vol.6.wav

Пиковый уровень 100.0 %
Качество диапазона 100.0 %
CRC копии CAFA5930
Копирование... OK

Ошибок не произошло

AccurateRip: сводка

Трек 1 нет в базе данных
Трек 2 нет в базе данных
Трек 3 нет в базе данных
Трек 4 нет в базе данных
Трек 5 нет в базе данных
Трек 6 нет в базе данных
Трек 7 нет в базе данных
Трек 8 нет в базе данных
Трек 9 нет в базе данных
Трек 10 нет в базе данных
Трек 11 нет в базе данных
Трек 12 нет в базе данных
Трек 13 нет в базе данных
Трек 14 нет в базе данных
Трек 15 нет в базе данных
Трек 16 нет в базе данных
Трек 17 нет в базе данных
Трек 18 нет в базе данных
Трек 19 нет в базе данных
Трек 20 нет в базе данных
Трек 21 нет в базе данных
Трек 22 нет в базе данных
Трек 23 нет в базе данных
Трек 24 нет в базе данных
Трек 25 нет в базе данных
Трек 26 нет в базе данных
Трек 27 нет в базе данных

Ни одного трека нет в базе AccurateRip

Конец отчёта
CD 7

Exact Audio Copy V0.99 prebeta 5 from 4. May 2009

Отчёт EAC об извлечении, выполненном 7. сентября 2010, 14:11

Various / 333 лучшие детские песни vol.7

Дисковод: TOSHIBA DVD-ROM SD-R1202 Adapter: 1 ID: 0

Режим чтения : Достоверность
Использование точного потока : Да
Отключение кэша аудио : Да
Использование указателей C2 : Нет

Коррекция смещения при чтении : -472
Способность читать области Lead-in и Lead-out : Нет
Заполнение пропущенных сэмплов тишиной : Да
Удаление блоков с тишиной в начале и конце : Нет
При вычислениях CRC использовались нулевые сэмплы : Да
Интерфейс : Встроенный Win32-интерфейс для Win NT/2000

Выходной формат : Пользовательский кодировщик
Выбранный битрейт : 1024 kBit/s
Качество : Высокий
Добавление ID3-тэга : Да
Утилита сжатия : C:Documents and SettingsAdminРабочий столwavpack-4.60.1wavpack.exe

TOC извлечённого CD

Трек | Старт | Длительность | Начальный сектор | Конечный сектор
---------------------------------------------------------------------
1 | 0:00.00 | 2:16.05 | 0 | 10204
2 | 2:16.05 | 3:17.51 | 10205 | 25030
3 | 5:33.56 | 2:06.28 | 25031 | 34508
4 | 7:40.09 | 2:58.37 | 34509 | 47895
5 | 10:38.46 | 2:59.54 | 47896 | 61374
6 | 13:38.25 | 2:20.69 | 61375 | 71943
7 | 15:59.19 | 0:58.59 | 71944 | 76352
8 | 16:58.03 | 2:05.20 | 76353 | 85747
9 | 19:03.23 | 2:53.74 | 85748 | 98796
10 | 21:57.22 | 0:50.55 | 98797 | 102601
11 | 22:48.02 | 2:32.02 | 102602 | 114003
12 | 25:20.04 | 1:08.39 | 114004 | 119142
13 | 26:28.43 | 1:16.44 | 119143 | 124886
14 | 27:45.12 | 2:19.57 | 124887 | 135368
15 | 30:04.69 | 0:50.06 | 135369 | 139124
16 | 30:55.00 | 1:49.38 | 139125 | 147337
17 | 32:44.38 | 1:27.19 | 147338 | 153881
18 | 34:11.57 | 2:06.20 | 153882 | 163351
19 | 36:18.02 | 1:56.54 | 163352 | 172105
20 | 38:14.56 | 0:32.04 | 172106 | 174509
21 | 38:46.60 | 1:24.58 | 174510 | 180867
22 | 40:11.43 | 1:11.56 | 180868 | 186248
23 | 41:23.24 | 2:09.60 | 186249 | 195983
24 | 43:33.09 | 4:16.03 | 195984 | 215186
25 | 47:49.12 | 1:58.73 | 215187 | 224109
26 | 49:48.10 | 3:51.18 | 224110 | 241452
27 | 53:39.28 | 1:09.59 | 241453 | 246686
28 | 54:49.12 | 1:17.20 | 246687 | 252481

Характеристики диапазона извлечения и сообщения об ошибках

Выбранный диапазон

Имя файла C:Documents and SettingsAdminРабочий столVarious - 333 лучшие детские песни vol.7.wav

Пиковый уровень 100.0 %
Качество диапазона 100.0 %
CRC копии 3D466212
Копирование... OK

Ошибок не произошло

AccurateRip: сводка

Трек 1 точное извлечение (доверие 1) [BC7F5447]
Трек 2 точное извлечение (доверие 1) [5DD34DFC]
Трек 3 точное извлечение (доверие 1) [EB7DFFF1]
Трек 4 точное извлечение (доверие 1)
Трек 5 точное извлечение (доверие 1) [7EF42B18]
Трек 6 точное извлечение (доверие 1) [CC9E7E09]
Трек 7 точное извлечение (доверие 1) [8F33901B]
Трек 8 точное извлечение (доверие 1) [7309ADA0]
Трек 9 точное извлечение (доверие 1) [A48A51F7]
Трек 10 точное извлечение (доверие 1) [5926B6CF]
Трек 11 точное извлечение (доверие 1) [FA7C4C54]
Трек 12 точное извлечение (доверие 1) [62F4E79D]
Трек 13 точное извлечение (доверие 1) [13A7E601]
Трек 14 точное извлечение (доверие 1) [5826A837]
Трек 15 точное извлечение (доверие 1) [5C376DB1]
Трек 16 точное извлечение (доверие 1) [4FE4938F]
Трек 17 точное извлечение (доверие 1) [4EA810E9]
Трек 18 точное извлечение (доверие 1) [DA01012A]
Трек 19 точное извлечение (доверие 1) [FB4EF78F]
Трек 20 точное извлечение (доверие 1) [FA1A13E2]
Трек 21 точное извлечение (доверие 1) [EC8CB0D9]
Трек 22 точное извлечение (доверие 1) [8E911878]
Трек 23 точное извлечение (доверие 1) [FC79B12E]
Трек 24 точное извлечение (доверие 1) [DADB300C]
Трек 25 точное извлечение (доверие 1) [841E1FE2]
Трек 26 точное извлечение (доверие 1) [3A56766D]
Трек 27 точное извлечение (доверие 1) [FE1DD0B6]
Трек 28 точное извлечение (доверие 1) [54E5C0A8]

Все треки извлечены точно

Конец отчёта
CD 8

Exact Audio Copy V0.99 prebeta 5 from 4. May 2009

Отчёт EAC об извлечении, выполненном 15. апреля 2010, 12:30

VA / 333 Лучшие детские песни, vol.8

Дисковод: TOSHIBA DVD-ROM SD-R1202 Adapter: 1 ID: 0

Режим чтения : Достоверность
Использование точного потока : Да
Отключение кэша аудио : Да
Использование указателей C2 : Нет

Коррекция смещения при чтении : -472
Способность читать области Lead-in и Lead-out : Нет
Заполнение пропущенных сэмплов тишиной : Да
Удаление блоков с тишиной в начале и конце : Нет
При вычислениях CRC использовались нулевые сэмплы : Да
Интерфейс : Встроенный Win32-интерфейс для Win NT/2000

Выходной формат : Пользовательский кодировщик
Выбранный битрейт : 1024 kBit/s
Качество : Высокий
Добавление ID3-тэга : Да
Утилита сжатия : C:Documents and SettingsAdminРабочий столwavpack-4.60.1wavpack.exe

TOC извлечённого CD

Трек | Старт | Длительность | Начальный сектор | Конечный сектор
---------------------------------------------------------------------
1 | 0:00.00 | 2:55.59 | 0 | 13183
2 | 2:55.59 | 2:49.63 | 13184 | 25921
3 | 5:45.47 | 1:19.73 | 25922 | 31919
4 | 7:05.45 | 1:58.43 | 31920 | 40812
5 | 9:04.13 | 1:22.21 | 40813 | 46983
6 | 10:26.34 | 2:14.23 | 46984 | 57056
7 | 12:40.57 | 1:45.21 | 57057 | 64952
8 | 14:26.03 | 1:56.21 | 64953 | 73673
9 | 16:22.24 | 1:04.47 | 73674 | 78520
10 | 17:26.71 | 1:50.19 | 78521 | 86789
11 | 19:17.15 | 2:09.28 | 86790 | 96492
12 | 21:26.43 | 1:49.63 | 96493 | 104730
13 | 23:16.31 | 1:40.46 | 104731 | 112276
14 | 24:57.02 | 2:05.10 | 112277 | 121661
15 | 27:02.12 | 0:51.39 | 121662 | 125525
16 | 27:53.51 | 1:48.13 | 125526 | 133638
17 | 29:41.64 | 2:33.49 | 133639 | 145162
18 | 32:15.38 | 2:34.52 | 145163 | 156764
19 | 34:50.15 | 2:22.52 | 156765 | 167466
20 | 37:12.67 | 2:11.41 | 167467 | 177332
21 | 39:24.33 | 2:49.29 | 177333 | 190036
22 | 42:13.62 | 1:21.03 | 190037 | 196114
23 | 43:34.65 | 2:40.56 | 196115 | 208170
24 | 46:15.46 | 1:10.73 | 208171 | 213493
25 | 47:26.44 | 1:52.11 | 213494 | 221904
26 | 49:18.55 | 2:06.24 | 221905 | 231378
27 | 51:25.04 | 2:02.32 | 231379 | 240560
28 | 53:27.36 | 1:54.03 | 240561 | 249113

Характеристики диапазона извлечения и сообщения об ошибках

Выбранный диапазон

Имя файла C:Documents and SettingsAdminМои документыVA - 333 Лучшие детские песни, vol.8.wav

Пиковый уровень 100.0 %
Качество диапазона 99.9 %
CRC копии 904D6CF3
Копирование... OK

Ошибок не произошло

AccurateRip: сводка

Трек 1 нет в базе данных
Трек 2 нет в базе данных
Трек 3 нет в базе данных
Трек 4 нет в базе данных
Трек 5 нет в базе данных
Трек 6 нет в базе данных
Трек 7 нет в базе данных
Трек 8 нет в базе данных
Трек 9 нет в базе данных
Трек 10 нет в базе данных
Трек 11 нет в базе данных
Трек 12 нет в базе данных
Трек 13 нет в базе данных
Трек 14 нет в базе данных
Трек 15 нет в базе данных
Трек 16 нет в базе данных
Трек 17 нет в базе данных
Трек 18 нет в базе данных
Трек 19 нет в базе данных
Трек 20 нет в базе данных
Трек 21 нет в базе данных
Трек 22 нет в базе данных
Трек 23 нет в базе данных
Трек 24 нет в базе данных
Трек 25 нет в базе данных
Трек 26 нет в базе данных
Трек 27 нет в базе данных
Трек 28 нет в базе данных

Ни одного трека нет в базе AccurateRip

Конец отчёта
CD 9

Exact Audio Copy V0.99 prebeta 5 from 4. May 2009

Отчёт EAC об извлечении, выполненном 7. сентября 2010, 14:53

VA / 333 лучшие детские песни, vol.9

Дисковод: TOSHIBA DVD-ROM SD-R1202 Adapter: 1 ID: 0

Режим чтения : Достоверность
Использование точного потока : Да
Отключение кэша аудио : Да
Использование указателей C2 : Нет

Коррекция смещения при чтении : -472
Способность читать области Lead-in и Lead-out : Нет
Заполнение пропущенных сэмплов тишиной : Да
Удаление блоков с тишиной в начале и конце : Нет
При вычислениях CRC использовались нулевые сэмплы : Да
Интерфейс : Встроенный Win32-интерфейс для Win NT/2000

Выходной формат : Пользовательский кодировщик
Выбранный битрейт : 1024 kBit/s
Качество : Высокий
Добавление ID3-тэга : Да
Утилита сжатия : C:Documents and SettingsAdminРабочий столwavpack-4.60.1wavpack.exe

TOC извлечённого CD

Трек | Старт | Длительность | Начальный сектор | Конечный сектор
---------------------------------------------------------------------
1 | 0:00.00 | 2:55.56 | 0 | 13180
2 | 2:55.56 | 2:40.11 | 13181 | 25191
3 | 5:35.67 | 2:01.60 | 25192 | 34326
4 | 7:37.52 | 1:59.18 | 34327 | 43269
5 | 9:36.70 | 1:00.11 | 43270 | 47780
6 | 10:37.06 | 1:32.68 | 47781 | 54748
7 | 12:09.74 | 1:51.22 | 54749 | 63095
8 | 14:01.21 | 4:01.44 | 63096 | 81214
9 | 18:02.65 | 2:03.20 | 81215 | 90459
10 | 20:06.10 | 3:12.53 | 90460 | 104912
11 | 23:18.63 | 1:27.57 | 104913 | 111494
12 | 24:46.45 | 4:18.63 | 111495 | 130907
13 | 29:05.33 | 1:47.24 | 130908 | 138956
14 | 30:52.57 | 1:25.36 | 138957 | 145367
15 | 32:18.18 | 4:01.25 | 145368 | 163467
16 | 36:19.43 | 1:11.60 | 163468 | 168852
17 | 37:31.28 | 1:25.00 | 168853 | 175227
18 | 38:56.28 | 2:06.23 | 175228 | 184700
19 | 41:02.51 | 2:43.25 | 184701 | 196950
20 | 43:46.01 | 2:17.30 | 196951 | 207255
21 | 46:03.31 | 4:08.72 | 207256 | 225927
22 | 50:12.28 | 2:22.20 | 225928 | 236597
23 | 52:34.48 | 1:28.72 | 236598 | 243269
24 | 54:03.45 | 1:22.02 | 243270 | 249421
25 | 55:25.47 | 1:41.65 | 249422 | 257061
26 | 57:07.37 | 1:28.64 | 257062 | 263725
27 | 58:36.26 | 1:20.66 | 263726 | 269791
28 | 59:57.17 | 1:29.24 | 269792 | 276490
29 | 61:26.41 | 2:14.42 | 276491 | 286582

Характеристики диапазона извлечения и сообщения об ошибках

Выбранный диапазон

Имя файла C:Documents and SettingsAdminРабочий столVA - 333 лучшие детские песни, vol.9.wav

Пиковый уровень 100.0 %
Качество диапазона 99.9 %
CRC копии 55DCE16D
Копирование... OK

Ошибок не произошло

AccurateRip: сводка

Трек 1 нет в базе данных
Трек 2 нет в базе данных
Трек 3 нет в базе данных
Трек 4 нет в базе данных
Трек 5 нет в базе данных
Трек 6 нет в базе данных
Трек 7 нет в базе данных
Трек 8 нет в базе данных
Трек 9 нет в базе данных
Трек 10 нет в базе данных
Трек 11 нет в базе данных
Трек 12 нет в базе данных
Трек 13 нет в базе данных
Трек 14 нет в базе данных
Трек 15 нет в базе данных
Трек 16 нет в базе данных
Трек 17 нет в базе данных
Трек 18 нет в базе данных
Трек 19 нет в базе данных
Трек 20 нет в базе данных
Трек 21 нет в базе данных
Трек 22 нет в базе данных
Трек 23 нет в базе данных
Трек 24 нет в базе данных
Трек 25 нет в базе данных
Трек 26 нет в базе данных
Трек 27 нет в базе данных
Трек 28 нет в базе данных
Трек 29 нет в базе данных

Ни одного трека нет в базе AccurateRip

Конец отчёта
CD 10

Exact Audio Copy V0.99 prebeta 5 from 4. May 2009

Отчёт EAC об извлечении, выполненном 17. августа 2010, 19:15

Various / 333 лучшие детские песни №10

Дисковод: HL-DT-STDVDRAM GE20NU10 Adapter: 3 ID: 0

Режим чтения : Достоверность
Использование точного потока : Да
Отключение кэша аудио : Да
Использование указателей C2 : Нет

Коррекция смещения при чтении : 667
Способность читать области Lead-in и Lead-out : Нет
Заполнение пропущенных сэмплов тишиной : Да
Удаление блоков с тишиной в начале и конце : Нет
При вычислениях CRC использовались нулевые сэмплы : Да
Интерфейс : Встроенный Win32-интерфейс для Win NT/2000

Выходной формат : Пользовательский кодировщик
Выбранный битрейт : 1024 kBit/s
Качество : Высокий
Добавление ID3-тэга : Нет
Утилита сжатия : C:Program Fileswavpack.exe
Дополнительные параметры : -hm -w "Year=%y" -w "Genre=%m" %s %d

TOC извлечённого CD

Трек | Старт | Длительность | Начальный сектор | Конечный сектор
---------------------------------------------------------------------
1 | 0:00.00 | 2:39.45 | 0 | 11969
2 | 2:39.45 | 3:30.18 | 11970 | 27737
3 | 6:09.63 | 3:14.62 | 27738 | 42349
4 | 9:24.50 | 2:51.73 | 42350 | 55247
5 | 12:16.48 | 3:33.04 | 55248 | 71226
6 | 15:49.52 | 3:00.21 | 71227 | 84747
7 | 18:49.73 | 2:46.30 | 84748 | 97227
8 | 21:36.28 | 1:36.72 | 97228 | 104499
9 | 23:13.25 | 2:06.60 | 104500 | 114009
10 | 25:20.10 | 2:20.03 | 114010 | 124512
11 | 27:40.13 | 0:52.01 | 124513 | 128413
12 | 28:32.14 | 0:50.50 | 128414 | 132213
13 | 29:22.64 | 2:47.03 | 132214 | 144741
14 | 32:09.67 | 2:14.37 | 144742 | 154828
15 | 34:24.29 | 2:17.54 | 154829 | 165157
16 | 36:42.08 | 2:35.47 | 165158 | 176829
17 | 39:17.55 | 1:35.38 | 176830 | 183992
18 | 40:53.18 | 3:31.42 | 183993 | 199859
19 | 44:24.60 | 3:33.44 | 199860 | 215878
20 | 47:58.29 | 3:16.39 | 215879 | 230617
21 | 51:14.68 | 2:03.31 | 230618 | 239873
22 | 53:18.24 | 2:45.36 | 239874 | 252284
23 | 56:03.60 | 1:00.34 | 252285 | 256818
24 | 57:04.19 | 1:35.23 | 256819 | 263966
25 | 58:39.42 | 3:03.61 | 263967 | 277752
26 | 61:43.28 | 1:35.60 | 277753 | 284937
27 | 63:19.13 | 1:55.41 | 284938 | 293603
28 | 65:14.54 | 1:15.26 | 293604 | 299254

Характеристики диапазона извлечения и сообщения об ошибках

Выбранный диапазон

Имя файла C:Documents and Settings...Рабочий столНовая папкаVarious - 333 лучшие детские песни №10.wav

Пиковый уровень 100.0 %
Качество диапазона 99.9 %
CRC копии 55FD763C
Копирование... OK

Ошибок не произошло

AccurateRip: сводка

Трек 1 нет в базе данных
Трек 2 нет в базе данных
Трек 3 нет в базе данных
Трек 4 нет в базе данных
Трек 5 нет в базе данных
Трек 6 нет в базе данных
Трек 7 нет в базе данных
Трек 8 нет в базе данных
Трек 9 нет в базе данных
Трек 10 нет в базе данных
Трек 11 нет в базе данных
Трек 12 нет в базе данных
Трек 13 нет в базе данных
Трек 14 нет в базе данных
Трек 15 нет в базе данных
Трек 16 точность не определена (достоверность 1) , AccurateRip вернул [2CAF16B1]
Трек 17 точное извлечение (доверие 1) [0E8C9B76]
Трек 18 точное извлечение (доверие 1) [E3FEC60C]
Трек 19 точность не определена (достоверность 1) [5689F76E], AccurateRip вернул [8567F988]
Трек 20 точное извлечение (доверие 1) [D049F6BD]
Трек 21 точность не определена (достоверность 1) [BEADE439], AccurateRip вернул [7A65FB84]
Трек 22 точность не определена (достоверность 1) [FB985853], AccurateRip вернул [1E65C47F]
Трек 23 точное извлечение (доверие 1) [E0541512]
Трек 24 точное извлечение (доверие 1) [F63EFD9A]
Трек 25 точное извлечение (доверие 1) [A6675150]
Трек 26 точное извлечение (доверие 1) [0150FFF9]
Трек 27 точное извлечение (доверие 1) [C8801910]
Трек 28 точное извлечение (доверие 1) [21F91C1C]

9 трек(и) скопированы точно
4 трек(и) не удалось проверить на точность
15 трек(и) не содержатся в базе AccurateRip

Некоторые треки не прошли проверку на точность

Конец отчёта
CD 11

Exact Audio Copy V0.99 prebeta 5 from 4. May 2009

Отчёт EAC об извлечении, выполненном 7. сентября 2010, 15:08

Various / 333 Лучшие детские песни, vol.11

Дисковод: TOSHIBA DVD-ROM SD-R1202 Adapter: 1 ID: 0

Режим чтения : Достоверность
Использование точного потока : Да
Отключение кэша аудио : Да
Использование указателей C2 : Нет

Коррекция смещения при чтении : -472
Способность читать области Lead-in и Lead-out : Нет
Заполнение пропущенных сэмплов тишиной : Да
Удаление блоков с тишиной в начале и конце : Нет
При вычислениях CRC использовались нулевые сэмплы : Да
Интерфейс : Встроенный Win32-интерфейс для Win NT/2000

Выходной формат : Пользовательский кодировщик
Выбранный битрейт : 1024 kBit/s
Качество : Высокий
Добавление ID3-тэга : Да
Утилита сжатия : C:Documents and SettingsAdminРабочий столwavpack-4.60.1wavpack.exe

TOC извлечённого CD

Трек | Старт | Длительность | Начальный сектор | Конечный сектор
---------------------------------------------------------------------
1 | 0:00.00 | 2:18.21 | 0 | 10370
2 | 2:18.21 | 1:26.46 | 10371 | 16866
3 | 3:44.67 | 1:25.10 | 16867 | 23251
4 | 5:10.02 | 1:35.04 | 23252 | 30380
5 | 6:45.06 | 2:19.43 | 30381 | 40848
6 | 9:04.49 | 1:33.49 | 40849 | 47872
7 | 10:38.23 | 1:00.37 | 47873 | 52409
8 | 11:38.60 | 2:42.00 | 52410 | 64559
9 | 14:20.60 | 1:35.47 | 64560 | 71731
10 | 15:56.32 | 2:24.50 | 71732 | 82581
11 | 18:21.07 | 1:26.45 | 82582 | 89076
12 | 19:47.52 | 0:53.60 | 89077 | 93111
13 | 20:41.37 | 0:35.20 | 93112 | 95756
14 | 21:16.57 | 0:59.59 | 95757 | 100240
15 | 22:16.41 | 2:20.24 | 100241 | 110764
16 | 24:36.65 | 2:53.51 | 110765 | 123790
17 | 27:30.41 | 3:05.60 | 123791 | 137725
18 | 30:36.26 | 1:17.68 | 137726 | 143568
19 | 31:54.19 | 1:54.23 | 143569 | 152141
20 | 33:48.42 | 1:53.51 | 152142 | 160667
21 | 35:42.18 | 1:27.41 | 160668 | 167233
22 | 37:09.59 | 2:45.02 | 167234 | 179610
23 | 39:54.61 | 1:52.46 | 179611 | 188056
24 | 41:47.32 | 3:08.38 | 188057 | 202194
25 | 44:55.70 | 2:26.42 | 202195 | 213186
26 | 47:22.37 | 2:02.01 | 213187 | 222337
27 | 49:24.38 | 1:48.12 | 222338 | 230449
28 | 51:12.50 | 2:27.47 | 230450 | 241521

Характеристики диапазона извлечения и сообщения об ошибках

Выбранный диапазон

Имя файла C:Documents and SettingsAdminРабочий столVarious - 333 Лучшие детские песни, vol.11.wav

Пиковый уровень 100.0 %
Качество диапазона 100.0 %
CRC копии 93AED820
Копирование... OK

Ошибок не произошло

AccurateRip: сводка

Трек 1 нет в базе данных
Трек 2 нет в базе данных
Трек 3 нет в базе данных
Трек 4 нет в базе данных
Трек 5 нет в базе данных
Трек 6 нет в базе данных
Трек 7 нет в базе данных
Трек 8 нет в базе данных
Трек 9 нет в базе данных
Трек 10 нет в базе данных
Трек 11 нет в базе данных
Трек 12 нет в базе данных
Трек 13 нет в базе данных
Трек 14 нет в базе данных
Трек 15 нет в базе данных
Трек 16 нет в базе данных
Трек 17 нет в базе данных
Трек 18 нет в базе данных
Трек 19 нет в базе данных
Трек 20 нет в базе данных
Трек 21 нет в базе данных
Трек 22 нет в базе данных
Трек 23 нет в базе данных
Трек 24 нет в базе данных
Трек 25 нет в базе данных
Трек 26 нет в базе данных
Трек 27 нет в базе данных
Трек 28 нет в базе данных

Ни одного трека нет в базе AccurateRip

Конец отчёта
CD 12

Exact Audio Copy V0.99 prebeta 5 from 4. May 2009

Отчёт EAC об извлечении, выполненном 12. августа 2010, 17:42

Various / 333 лучшие детские песни №12

Дисковод: TSSTcorpDVD+-RW TS-H653F Adapter: 3 ID: 0

Режим чтения : Достоверность
Использование точного потока : Да
Отключение кэша аудио : Да
Использование указателей C2 : Нет

Коррекция смещения при чтении : 6
Способность читать области Lead-in и Lead-out : Нет
Заполнение пропущенных сэмплов тишиной : Да
Удаление блоков с тишиной в начале и конце : Нет
При вычислениях CRC использовались нулевые сэмплы : Да
Интерфейс : Встроенный Win32-интерфейс для Win NT/2000

Выходной формат : Пользовательский кодировщик
Выбранный битрейт : 1024 kBit/s
Качество : Высокий
Добавление ID3-тэга : Нет
Утилита сжатия : C:UsersDefaultDesktopwavpack.exe
Дополнительные параметры : -w "Artist=%a" -w "Title=%t" -w "Album=%g" -w "Year=%y" -w "Track=%n" -w "Genre=%m" -h %s %d

TOC извлечённого CD

Трек | Старт | Длительность | Начальный сектор | Конечный сектор
---------------------------------------------------------------------
1 | 0:00.00 | 1:03.55 | 0 | 4779
2 | 1:03.55 | 2:23.56 | 4780 | 15560
3 | 3:27.36 | 2:35.44 | 15561 | 27229
4 | 6:03.05 | 2:21.30 | 27230 | 37834
5 | 8:24.35 | 1:30.05 | 37835 | 44589
6 | 9:54.40 | 1:32.23 | 44590 | 51512
7 | 11:26.63 | 1:24.09 | 51513 | 57821
8 | 12:50.72 | 1:13.54 | 57822 | 63350
9 | 14:04.51 | 1:38.12 | 63351 | 70712
10 | 15:42.63 | 1:55.14 | 70713 | 79351
11 | 17:38.02 | 1:57.57 | 79352 | 88183
12 | 19:35.59 | 2:32.23 | 88184 | 99606
13 | 22:08.07 | 0:45.20 | 99607 | 103001
14 | 22:53.27 | 4:31.48 | 103002 | 123374
15 | 27:25.00 | 2:13.34 | 123375 | 133383
16 | 29:38.34 | 2:23.09 | 133384 | 144117
17 | 32:01.43 | 0:51.51 | 144118 | 147993
18 | 32:53.19 | 0:55.70 | 147994 | 152188
19 | 33:49.14 | 1:16.55 | 152189 | 157943
20 | 35:05.69 | 3:13.45 | 157944 | 172463
21 | 38:19.39 | 2:33.21 | 172464 | 183959
22 | 40:52.60 | 2:31.30 | 183960 | 195314
23 | 43:24.15 | 3:17.15 | 195315 | 210104
24 | 46:41.30 | 1:52.48 | 210105 | 218552
25 | 48:34.03 | 1:15.46 | 218553 | 224223
26 | 49:49.49 | 3:27.33 | 224224 | 239781
27 | 53:17.07 | 1:42.24 | 239782 | 247455
28 | 54:59.31 | 2:24.23 | 247456 | 258278

Характеристики диапазона извлечения и сообщения об ошибках

Выбранный диапазон

Имя файла C:UsersАдминистраторDesktopVarious - 333 лучшие детские песни №12.wav

Пиковый уровень 94.3 %
Качество диапазона 99.8 %
CRC теста 2160D2AE
CRC копии 2160D2AE
Копирование завершено

Ошибок не произошло

AccurateRip: сводка

Трек 1 нет в базе данных
Трек 2 нет в базе данных
Трек 3 нет в базе данных
Трек 4 нет в базе данных
Трек 5 нет в базе данных
Трек 6 нет в базе данных
Трек 7 нет в базе данных
Трек 8 нет в базе данных
Трек 9 нет в базе данных
Трек 10 нет в базе данных
Трек 11 нет в базе данных
Трек 12 нет в базе данных
Трек 13 нет в базе данных
Трек 14 нет в базе данных
Трек 15 нет в базе данных
Трек 16 нет в базе данных
Трек 17 нет в базе данных
Трек 18 нет в базе данных
Трек 19 нет в базе данных
Трек 20 нет в базе данных
Трек 21 нет в базе данных
Трек 22 нет в базе данных
Трек 23 нет в базе данных
Трек 24 нет в базе данных
Трек 25 нет в базе данных
Трек 26 нет в базе данных
Трек 27 нет в базе данных
Трек 28 нет в базе данных

Ни одного трека нет в базе AccurateRip

Конец отчёта


Музыка / Lossless / Другие жанры
СКАЧАТЬ БЕСПЛАТНО  [3.5 GB]


21
июн
2007

Лучшие детские песни v.2 (2007) [mp3, 256]

Лучшие детские песни v.2
Страна: Россия
Год выпуска: 2007
Жанр: Детская музыка
Продолжительность: 5 часов 23 мин
Формат: MP3
Битрейт аудио: 256
Трэклист: 1. А может быть ворона (4:26) 2. Авр - Аврора (2:58) 3. Айсб - Айсберг (1:16) 4. Антош - Антошка (2:18) 5. Арбузи - Арбузики (1:22) 6. Без этого нельз - Без этого нельзя (2:55) 7. Бло - Блоха (1:05) 8. Бычо - Бычок (0:32) 9. Бюро - Бюро находок (1:39) 10. В дом - В доме 8/16 (1:34) 11. В коробке с кара - В коробке с карандашами (2:35) 12. В лесу родилась ёлоч - В лесу родилась ёлочка (2:28) 13. В траве сидел - В траве сидел кузне ...

21
мая
2010

VA - Детские Песни (Dram & Bass) [2009, Dram & Bass, MP3]

Формат: MP3, tracks, 128-320kbps [VBR]
Год выпуска: 2009
Страна: All World
Жанр: Dram & Bass
Продолжительность: 01:52:00
Описание: Треклист 1. 4CUS – Прекрасное Далёко 2.Aphrodite – Песенка про лето 3.RDV DJ – Чунга-чанга (remix) 4.CJ Dames – Песенка Мамонтенка (Drum&Bass mix) 5.Хор мальчиков зайчиков – Учат в школе (Drum and Bass remix) 6.Вадим Шантор – Лесной Олень 7. DJ Amareta – Песня Красной шапочки (Remix) 8.Бременские музыканты от DJ JIM 9.Песенка про лето (Muraiti electro remix) 10.DJ RMX – Песенка Винни-Пуха (drum rmx) 11.303 Project – Winnie The Pooh 12.Andy Wolf – От улыбки станет ...

12
дек
2009

VA - Новые детские песни [2009, Popmusic / Children Songs, MP3]

Формат: MP3, tracks, 256kbps
Год выпуска: 2009
Страна: World
Жанр: Поп / Детские песни
Продолжительность: 02:48:34 [br] [br] [br] [br] [br] Новые детские песниТреклист: 01.Не Строй Мне Глазки 02.Будьте Добры 03.Перемена 04.Буква А 05.Рыцарь 06.Буква Б 07.Разрыв 08.Буква В 09.Бабушка Варвара 10.Вижу Себя 11.Берегите Клоунов 12.Возвращайся, Песенка 13.В Каждом Маленьком Ребенке 14.Все Вместе 15.В Новогоднем Лесу 16.День Рождения 17.Веснушки 18.Длинношеее 19.Ветер Перемен 20.Дождинка 21.Волшебный Бал 22.Дом На Колесах 23.Глупое Счастье 24.Домовой И Ангелесса 25.Городские Фонарики 26.Если Умным ...

22
мая
2007

VA - Созвездие хитов - Детские песни [2004,Children Songs,MP3]

Страна: россия
Год выпуска: 2004
Жанр: поп музыка детские песни
Продолжительность: 55:34
Формат: Windows Media
Битрейт аудио: 128
Трэклист: Приходи , сказка 04:16 02 Расскажи снегурочка 02:35 03 Чунга чанга 03:14 04 В траве сидел кузнечик 02:32 05 Чебурашка 02:32 06 Песни крокодила Гены 02:54 07 Голубой вагон 04:21 08 Облака 03:36 09 Улыбка 03:17 10 Осьминожка 01:49 11 Точка , точка запятая 02:44 12 Коробка с карандашами 04:16 13 А может быть ворона 05:25 14 Большой секрет для Маленькой компании 04:06 15 Песня Винни-пуха 01:54 16 Не ходите дети в Африку гулять 02:58 17 Песенка ...

21
ноя
2009

VA - Детские песни из мультфильмов [2006, Children's song, MP3]

Формат: MP3, tracks, 320kbps
Год выпуска: 2006
Страна: Украина
Жанр: Children's song
Продолжительность: 04 : 47 : 00
Описание: Треклист1. А может быть ворона - Гр. Гладков, Г. Случинская, джаз-группа "Диапазон"(00:04:25) 2. Песня переодетых Бременских музыкантов - Анофриев О. (00:01:26) 3. Крейсер "Аврора" - БДХ (00:02:57) 4. Айсберг - К.Румянова, А.Попанов (00:01:14) 5. Антошка - Мария Лукач (00:02:14) 6. Колыбельная Баю баюшки баю - Вокальный ансамбль БДТ (00:01:22) 7. Блоха - Румянова К. (00:01:06) 8. Большой Кошачий секрет - Никитин С. (00:01:49) 9. Большой секрет для маленькой компании - ...

24
фев
2011

VA - Детские песни Vol.1-2 [2007, Детские песни , MP3]

Формат: MP3, tracks, 320kbps
Год выпуска: 2007
Страна: Россия
Жанр: Детские песни
Продолжительность: 07:26:00
Описание: CD 1 В стране Мульти - Пульти 01 К. Румянова - Улыбка 00:02:20 02 К. Румянова - Песня мамонтёнка 00:02:03 03 Серёжа Парамонов - Песня Крокодила Гены 00:02:21 04 К. Румянова - Воспи - пи - пи - питание 00:01:19 05 К. Румянова - Песенка мышонка 00:01:58 06 О. Попов - Что такое цирк 00:03:05 07 С. Степченко - Кукляндия 00:03:33 08 К. Румянова - Песенка паровозика 00:01:15 09 Т. Воронина - Песня Мери Поппинс 00:02:29 10 Т. Воронина, П. Смеян - Лев и Брадобрей 00:04:44 11 О. Анофр ...

12
апр
2010

VA Созвездие Хитов: Детские Песни 3 CD [2009, Pop/Детские песни, MP3]

Формат: MP3, tracks, 320kbps
Год выпуска: 2009
Страна: Россия
Жанр: Pop/Детские песни
Продолжительность: 04:55:02 ТреклистCD1 01. Приходи, сказка 02. Расскажи снегурочка 03. Чунга Чанга 04. В траве сидел кузнечик 05. Чебурашка 06. Песня крокодила Гены 07. Голубой вагон 08. Облака 09. Улыбка 10. Осьминожка 11. Точка, точка, запятая 12. Коробка с карандашами 13. А может быть ворона 14. Большой секрет для маленькой компании 15. Песня Винни-Пуха 16. Не ходите дети в Африку гулять 17. Песенка о лете 18. Танец маленьких утят 19. Антошка 20. Песенка львенка и черепахи 21. Песня мамонтенка 22. Настоящ ...

24
янв
2010

VA - Tru Drum&Bass Vol.4 - Детские песни [2009, Drum & Bass, MP3]

Формат: MP3, tracks, 320kbps
Год выпуска: 2009
Страна: All World
Жанр: Drum & Bass
Продолжительность: 01:01:24
Описание: Треклист 1. 4CUS – Прекрасное Далёко 2. Aphrodite – Песенка про лето 3. RDV DJ – Чунга-чанга (remix) 4. CJ Dames – Песенка Мамонтенка (Drum&Bass mix) 5. Хор мальчиков зайчиков – Учат в школе (Drum and Bass remix) 6. Вадим Шантор – Лесной Олень 7. DJ Amareta – Песня Красной шапочки (Remix) 8. Бременские музыканты от DJ JIM 9. Песенка про лето (Muraiti electro remix) 10. DJ RMX – Песенка Винни-Пуха (drum rmx) 11. 303 Project – Winnie The Pooh 12. Andy Wolf – От улыбки станет в ...

08
ноя
2009

VA - Детские песни о главном. 100 пудов из Мульт-Хитов [2009, Детские песни, MP3]

Формат: MP3, tracks, 320kbps
Год выпуска: 2009
Страна: Россия
Жанр: Детские песни
Продолжительность: 03:40:29 [br] [br] [br] [br] [br] [br] [br] [br] [br] [br] Детские песни о главном. 100 пудов из Мульт-Хитов ПЕСНИ ИЗ ФИЛЬМА «ПРО КРАСНУЮ ШАПОЧКУ» А. Рыбников - Ю. Михайлов 01. (1) Песня Красной Шапочки / Оля Рождественская 02. (2) Песня о мастерах / Т. Канаева, Р. Зелeная, Е. Евстигнеев 03. (3) Необитаемый остров / Оля Рождественская, Ж. Рождественская 04. (4) Песня Охотника / Р. Быков 05. (5) Песня волчицы / Ж. Рождественская 06. (6) Песня о звeздах / Р. Зелeная, Е. Евстигнеев, вокальный анс ...

05
сен
2009

VA - Солдатские песни. Лучшие песни о войне и дружбе [2008, Военная песня, Шансон, MP3]

Формат: MP3, tracks, 128-320 kbps
Год выпуска: 2008
Страна: Россия
Жанр: Военная песня, Шансон
Продолжительность: 05:18:44 Трэклист 001. Любэ-Давай за..! 002. АТС-Гвардии майор 003. ДДТ-Дым 004. С.Трофимов-Моему другу 005. Чугунный скороход-Не плачь 006. Тату-Югославия 007. Куба-Про маленького мальчика 008. Фоменко.Рыбин.Мазаев-На безымянной высоте 009. О.Газманов-Туман 010. Любэ-Солдат 011. А.Хворостян-Служу России 012. В.Быков-Я вернусь генералом 013. Запрещённые барабанщики-Далеко 014. Д.Билан-Тёмная ночь 015. И.Тальков-Я вернусь 016. Кино-Группа крови 017. В.Кузмин-Смотри на меня сегодня 0 ...

01
мая
2008

Самые лучшие "Детские Песенки" (2005) [mp3, 320]

Страна: Россия
Год выпуска: 2005
Жанр: Детские песни
Продолжительность: 6h. 30m. 46s.
Формат: MP3
Битрейт аудио: 320
Трэклист: 1. Песня мамонтёнка (1:58) 2. Улыбка (2:01) 3. Чунга-чанга (2:12) 4. В доме 8-16 (1:31) 5. Облака (2:35) 6. Луч солнца золотого 7. Крылатые качели 8. В траве сидел кузнечик 9. Песня Львенка и Черепахи 10. Песня Винни-Пуха 11. Неприятность эту мы переживем 12. Спят усталые игрушки 13. Бу-ра-ти-но 14. Крокодил Гена 15. Песня паровозика 16. Мария Мирабелла 17. Хвост за хвост 18. Песня Огуречика 19. Пусть бегут неуклюже 20. Точка точка запятая 21. А может быть ворона 22. Л ...

27
июл
2009

Золотые детские песни [2005, Детская музыка]

Формат: MP3, tracks, 256kbps
Год выпуска: 2005
Страна: Россия
Жанр: Детская музыка
Продолжительность: 06:06:58
Описание: Треклист 001 АНТОШКА 002 ГОЛУБОЙ ВАГОН 003 ОБЛАКА 004 В ТРАВЕ СИДЕЛ КУЗНЕЧИК 005 ДВА ВЕСЕЛЫХ ГУСЯ 006 РЫЖИЙ, РЫЖИЙ, КОНОПАТЫЙ 007 КРЫЛАТЫЕ КАЧЕЛИ 008 ПЕСНЯ ПРО ПАПУ 009 ЧЕЛОВЕК СОБАКЕ ДРУГ 010 ХВОСТ ЗА ХВОСТ 011 ДРУЖОК 012 ВЕСЕЛЫЙ ПАСТУШОК 013 И Я ТОГО ЖЕ МНЕНИЯ! 014 САМЫЙ ЛУЧШИЙ ЗООПАРК 015 ЧАСТУШКИ БАБОК-ЕЖЕК 016 КАК ХОРОШО В ЛЕСУ 017 ПЕСЕНКА ДЕДА МОРОЗА 018 СНЕЖИНКИ 019 ПЕСЕНКА ДУРЕМАРА 020 СИНЯЯ ВОДА 021 ПОПУГАЙ 022 МАРИЯ МИРАБЕЛЛА 023 ПЕСОЧНИЦА 024 СПИ, МОЯ РАДОСТЬ, УСН ...

14
мая
2008

Детские песни (2004) [windows media, 192]

Страна: Россия
Год выпуска: 2004
Жанр: Детские
Продолжительность: 80 мин
Формат: Windows Media
Битрейт аудио: 192 kbps
Трэклист: 1. Мы к вам заехали на час (из м/ф "Бременские музыканты") 2. Дуэт Кота и Пирата (из м/ф "Голубой Щенок") 3. Песня Диких Гитар (из к/ф "Новогодние приключения Маши и Вити") 4. Диалог Волка и Козлят (из к/ф "Волк и семеро козлят") 5. Песня Рыбы-Пилы (из м/ф "Голубой Щенок") 6. Песня друзей (из м/ф "Бременские музыканты") 7. Бу-ра-ти-но!!! (из к/ф "Приключение Буратино") 8. Песня Красной Шапочки (из к/ф "Про Красную Шапочку") 9. Дорога добра (из к/ф "Маленький Мук") 10 ...

26
фев
2008

Детские песни из мультфильмов [mp3, 256]

Страна: Россия
Жанр: Детские песни
Продолжительность: 5ч 28мин
Формат: MP3
Битрейт аудио: 256
Трэклист: 1. Разные - Антошка (2:20) 2. Разные - Буратино (2:03) 3. Разные - Дуэт Принцессы и Трубодура (1:38) 4. Разные - Из чего же, из чего же (2:16) 5. Разные - Мани-мани (2:35) 6. Разные - Песенка Винни-Пуха (1:05) 7. Разные - Первая песенка утёнка (2:23) 8. Разные - Песенка Паровозика (1:19) 9. Разные - Песня Шапокляк (1:21) 10. Разные - Прекрасное далёко (из фильма Гостья из будущего) (3:14) 11. Разные - У пони нежная чёлка (3:25) 12. Разные - Человек собаке друг (2:23) 13. Разные - Чунга-Чанга ...

17
июн
2009

Ну, погоди! - Детские песни [2009, Детские песни]

Формат: MP3, tracks, 320kbps
Год выпуска: 2009
Страна: Россия
Жанр: Детские песни
Продолжительность: 03:21:00 Описание 001 Дереза - Весёлая Песня. 002 В Лесу Родилась Ёлочка. 003 Баба Яга И Кощей Бессмертынй - В Жизни Каждый Должен Быть. 004 Вера И Анфиса - Спички Детям Не Игрушка. 005 Мы Девчата Неплохие. 006 Мама И Семеро Козлят - Сказка К Нам Пришла. 007 Волшебная Серна - Песня Бедняка. 008 Песня Дедов Морозов. 009 Фильм, Фильм, Фильм. 010 Переменка - Веселая Песенка 2. 011 Бременские Музыканты - Песня Друзей. 012 Баба Яга И Кощей Бессмертынй - Яблоня. 013 Сказка О Попе И Работнике Его Балд ...