11
мар
2013

Willie May - Collections (5CD) [2008-2012, Blues, FLAC]

Willie May - Collections (5CD)

Формат: FLAC, (image + .cue), lossless
Год выпуска: 2008-2012
Страна: USA
Жанр: Blues
Продолжительность: 03:25:32

Описание:

2008 - Blue Decade (00
Willie May - Collections
Трeклист:

01. I Won't Miss You 04:12
02. Let It Rain 05:10
03. Love Treats Me So Unkind 04:35
04. Speak Your Mind 04:10
05. Tell Me Amigo 03:59
06. Hoedown 03:44
07. Off Her Rocker 04:18
08. Hey Buddy 03:35
09. Let's Play House 04:32
10. Friend Of The Friendless 03:24


Log EAC
Exact Audio Copy V0.99 prebeta 5 from 4. May 2009

Отчёт EAC об извлечении, выполненном 19. августа 2012, 1:44

Willie May / Blue Decade

Дисковод: PLEXTOR DVDR PX-880SA Adapter: 1 ID: 0

Режим чтения : Достоверность
Использование точного потока : Да
Отключение кэша аудио : Да
Использование указателей C2 : Нет

Коррекция смещения при чтении : 6
Способность читать области Lead-in и Lead-out : Нет
Заполнение пропущенных сэмплов тишиной : Да
Удаление блоков с тишиной в начале и конце : Нет
При вычислениях CRC использовались нулевые сэмплы : Да
Интерфейс : Установленный внешний ASPI-интерфейс

Выходной формат : Пользовательский кодировщик
Выбранный битрейт : 1024 kBit/s
Качество : Высокий
Добавление ID3-тэга : Нет
Утилита сжатия : C:Program FilesExact Audio CopyFLACFLAC.EXE
Дополнительные параметры : -6 -V -T "ARTIST=%a" -T "TITLE=%t" -T "ALBUM=%g" -T "DATE=%y" -T "TRACKNUMBER=%n" -T "GENRE=%m" -T "COMMENT=%e" %s -o %d

TOC извлечённого CD

Трек | Старт | Длительность | Начальный сектор | Конечный сектор
---------------------------------------------------------------------
1 | 0:00.30 | 4:12.25 | 30 | 18954
2 | 4:12.55 | 5:10.20 | 18955 | 42224
3 | 9:23.00 | 4:35.30 | 42225 | 62879
4 | 13:58.30 | 4:10.07 | 62880 | 81636
5 | 18:08.37 | 3:59.73 | 81637 | 99634
6 | 22:08.35 | 3:44.37 | 99635 | 116471
7 | 25:52.72 | 4:18.55 | 116472 | 135876
8 | 30:11.52 | 3:35.15 | 135877 | 152016
9 | 33:46.67 | 4:32.48 | 152017 | 172464
10 | 38:19.40 | 3:24.12 | 172465 | 187776

Характеристики диапазона извлечения и сообщения об ошибках

Выбранный диапазон

Имя файла F:BitCometWillie May(flac)2008 - Blue DecadeWillie May - Blue Decade.wav

Пиковый уровень 100.0 %
Качество диапазона 100.0 %
CRC теста 18996A17
CRC копии 18996A17
Копирование... OK

Ошибок не произошло

AccurateRip: сводка

Трек 1 нет в базе данных
Трек 2 нет в базе данных
Трек 3 нет в базе данных
Трек 4 нет в базе данных
Трек 5 нет в базе данных
Трек 6 нет в базе данных
Трек 7 нет в базе данных
Трек 8 нет в базе данных
Трек 9 нет в базе данных
Трек 10 нет в базе данных

Ни одного трека нет в базе AccurateRip

Конец отчёта
2009 - Category Six (00
Willie May - Collections
Трeклист:

01. Blue Room 05:46
02. You Say That You Love Me 04:19
03. Why Did You Leave Me Alone 03:12
04. Lookin' for Jesus 03:24
05. Think of Me Sometime 05:25
06. Rich and Famous 05:17
07. Cocaine Hangover Blues 05:05
08. Financial Difficulty 04:05
09. I Wish You Could Stay 04:05
10. Feeling Like a Storm Is Coming 04:09


Log EAC
Exact Audio Copy V0.99 prebeta 4 from 23. January 2008

Отчёт EAC об извлечении, выполненном 2. апреля 2012, 21:32

Willie May / Category Six

Дисковод: PLEXTOR DVDR PX-880SA Adapter: 1 ID: 1

Режим чтения : Достоверность
Использование точного потока : Да
Отключение кэша аудио : Да
Использование указателей C2 : Нет

Коррекция смещения при чтении : 6
Способность читать области Lead-in и Lead-out : Нет
Заполнение пропущенных сэмплов тишиной : Да
Удаление блоков с тишиной в начале и конце : Нет
При вычислениях CRC использовались нулевые сэмплы : Да
Интерфейс : Встроенный Win32-интерфейс для Win NT/2000

Выходной формат : Пользовательский кодировщик
Выбранный битрейт : 1024 kBit/s
Качество : Высокий
Добавление ID3-тэга : Нет
Утилита сжатия : C:Program FilesExact Audio CopyFLACFLAC.EXE
Дополнительные параметры : -6 -V -T "ARTIST=%a" -T "TITLE=%t" -T "ALBUM=%g" -T "DATE=%y" -T "TRACKNUMBER=%n" -T "GENRE=%m" -T "COMMENT=%e" %s -o %d

TOC извлечённого CD

Трек | Старт | Длительность | Начальный сектор | Конечный сектор
---------------------------------------------------------------------
1 | 0:00.00 | 5:46.00 | 0 | 25949
2 | 5:46.00 | 4:19.12 | 25950 | 45386
3 | 10:05.12 | 3:12.18 | 45387 | 59804
4 | 13:17.30 | 3:24.23 | 59805 | 75127
5 | 16:41.53 | 5:25.44 | 75128 | 99546
6 | 22:07.22 | 5:17.11 | 99547 | 123332
7 | 27:24.33 | 5:05.42 | 123333 | 146249
8 | 32:30.00 | 4:05.07 | 146250 | 164631
9 | 36:35.07 | 4:05.53 | 164632 | 183059
10 | 40:40.60 | 4:09.21 | 183060 | 201755

Характеристики диапазона извлечения и сообщения об ошибках

Выбранный диапазон

Имя файла J:BitCometWillie May(flac)2009 - Category SixWillie May - Category Six.wav

Пиковый уровень 92.3 %
Качество диапазона 99.9 %
CRC теста 1F1EB4AB
CRC копии 1F1EB4AB
Копирование... OK

Ошибок не произошло

AccurateRip: сводка

Трек 1 нет в базе данных
Трек 2 нет в базе данных
Трек 3 нет в базе данных
Трек 4 нет в базе данных
Трек 5 нет в базе данных
Трек 6 нет в базе данных
Трек 7 нет в базе данных
Трек 8 нет в базе данных
Трек 9 нет в базе данных
Трек 10 нет в базе данных

Ни одного трека нет в базе AccurateRip

Конец отчёта
2011 - Nights of Luna (00
Willie May - Collections
Трeклист:

01. Tell Me Baby 05:06
02. My Big Rita 03:24
03. Love That's True 04:07
04. Plenty of Problems 03:59
05. By Degrees 05:38
06. Today's The Day 04:17
07. Go Back Home 03:44
08. Frog Legs 03:29
09. I Gotta Girl 03:10
10. Plastic People 03:22


Log EAC
Exact Audio Copy V0.99 prebeta 4 from 23. January 2008

Отчёт EAC об извлечении, выполненном 2. апреля 2012, 21:00

Willie May / Nights of Luna

Дисковод: PLEXTOR DVDR PX-880SA Adapter: 1 ID: 1

Режим чтения : Достоверность
Использование точного потока : Да
Отключение кэша аудио : Да
Использование указателей C2 : Нет

Коррекция смещения при чтении : 6
Способность читать области Lead-in и Lead-out : Нет
Заполнение пропущенных сэмплов тишиной : Да
Удаление блоков с тишиной в начале и конце : Нет
При вычислениях CRC использовались нулевые сэмплы : Да
Интерфейс : Встроенный Win32-интерфейс для Win NT/2000

Выходной формат : Пользовательский кодировщик
Выбранный битрейт : 1024 kBit/s
Качество : Высокий
Добавление ID3-тэга : Нет
Утилита сжатия : C:Program FilesExact Audio CopyFLACFLAC.EXE
Дополнительные параметры : -6 -V -T "ARTIST=%a" -T "TITLE=%t" -T "ALBUM=%g" -T "DATE=%y" -T "TRACKNUMBER=%n" -T "GENRE=%m" -T "COMMENT=%e" %s -o %d

TOC извлечённого CD

Трек | Старт | Длительность | Начальный сектор | Конечный сектор
---------------------------------------------------------------------
1 | 0:00.00 | 5:06.17 | 0 | 22966
2 | 5:06.17 | 3:24.16 | 22967 | 38282
3 | 8:30.33 | 4:07.16 | 38283 | 56823
4 | 12:37.49 | 3:59.15 | 56824 | 74763
5 | 16:36.64 | 5:38.27 | 74764 | 100140
6 | 22:15.16 | 4:17.11 | 100141 | 119426
7 | 26:32.27 | 3:44.13 | 119427 | 136239
8 | 30:16.40 | 3:29.00 | 136240 | 151914
9 | 33:45.40 | 3:10.42 | 151915 | 166206
10 | 36:56.07 | 3:22.27 | 166207 | 181383

Характеристики диапазона извлечения и сообщения об ошибках

Выбранный диапазон

Имя файла J:BitCometWillie May(flac)2011 - Nights of LunaWillie May - Nights of Luna.wav

Пиковый уровень 98.8 %
Качество диапазона 99.9 %
CRC теста 11DF1CEE
CRC копии 11DF1CEE
Копирование... OK

Ошибок не произошло

AccurateRip: сводка

Трек 1 нет в базе данных
Трек 2 нет в базе данных
Трек 3 нет в базе данных
Трек 4 нет в базе данных
Трек 5 нет в базе данных
Трек 6 нет в базе данных
Трек 7 нет в базе данных
Трек 8 нет в базе данных
Трек 9 нет в базе данных
Трек 10 нет в базе данных

Ни одного трека нет в базе AccurateRip

Конец отчёта
2012 - Stone Blue (00
Willie May - Collections
Трeклист:

01. I'm A Stone 03:47
02. Don't Do That No More 04:14
03. Stranger In My House 05:07
04. Made In The Shade 03:38
05. Brand New Story 03:36
06. Where Did We Go Wrong 03:23
07. Showtime 03:34
08. So Long Ago 03:24
09. Hola Teresa 03:46
10. Old Friends 03:21


Log EAC
Exact Audio Copy V0.99 prebeta 4 from 23. January 2008

Отчёт EAC об извлечении, выполненном 31. марта 2012, 21:44

Willie May / Stone Blue

Дисковод: PLEXTOR DVDR PX-880SA Adapter: 1 ID: 1

Режим чтения : Достоверность
Использование точного потока : Да
Отключение кэша аудио : Да
Использование указателей C2 : Нет

Коррекция смещения при чтении : 6
Способность читать области Lead-in и Lead-out : Нет
Заполнение пропущенных сэмплов тишиной : Да
Удаление блоков с тишиной в начале и конце : Нет
При вычислениях CRC использовались нулевые сэмплы : Да
Интерфейс : Встроенный Win32-интерфейс для Win NT/2000

Выходной формат : Пользовательский кодировщик
Выбранный битрейт : 1024 kBit/s
Качество : Высокий
Добавление ID3-тэга : Нет
Утилита сжатия : C:Program FilesExact Audio CopyFLACFLAC.EXE
Дополнительные параметры : -6 -V -T "ARTIST=%a" -T "TITLE=%t" -T "ALBUM=%g" -T "DATE=%y" -T "TRACKNUMBER=%n" -T "GENRE=%m" -T "COMMENT=%e" %s -o %d

TOC извлечённого CD

Трек | Старт | Длительность | Начальный сектор | Конечный сектор
---------------------------------------------------------------------
1 | 0:00.00 | 3:47.17 | 0 | 17041
2 | 3:47.17 | 4:14.65 | 17042 | 36156
3 | 8:02.07 | 5:07.35 | 36157 | 59216
4 | 13:09.42 | 3:38.56 | 59217 | 75622
5 | 16:48.23 | 3:36.63 | 75623 | 91885
6 | 20:25.11 | 3:23.29 | 91886 | 107139
7 | 23:48.40 | 3:34.19 | 107140 | 123208
8 | 27:22.59 | 3:24.59 | 123209 | 138567
9 | 30:47.43 | 3:46.73 | 138568 | 155590
10 | 34:34.41 | 3:21.55 | 155591 | 170720

Характеристики диапазона извлечения и сообщения об ошибках

Выбранный диапазон

Имя файла J:BitCometWillie May(flac)2012 - Stone BlueWillie May - Stone Blue.wav

Пиковый уровень 99.9 %
Качество диапазона 99.9 %
CRC теста 702AE04E
CRC копии 702AE04E
Копирование... OK

Ошибок не произошло

AccurateRip: сводка

Трек 1 нет в базе данных
Трек 2 нет в базе данных
Трек 3 нет в базе данных
Трек 4 нет в базе данных
Трек 5 нет в базе данных
Трек 6 нет в базе данных
Трек 7 нет в базе данных
Трек 8 нет в базе данных
Трек 9 нет в базе данных
Трек 10 нет в базе данных

Ни одного трека нет в базе AccurateRip

Конец отчёта
2012 - Thirteen (00
Willie May - Collections
Трeклист:

01. Dealin' With the Devil 04:20
02. Lonely Like Me 04:57
03. Smile 03:05
04. Devil's Daughter 03:08
05. There It Goes 04:45
06. I'm a Tragedy 04:15
07. How Can It Be 04:08

Trilogy of the Crimson Tempest:

08. Time to Go 03:44
09. All Alone 04:21
10. In the Garden 03:56


Log EAC
Exact Audio Copy V0.99 prebeta 5 from 4. May 2009

Отчёт EAC об извлечении, выполненном 9. февраля 2013, 21:23

Willie May / Thirteen

Дисковод: PLEXTOR DVDR PX-880SA Adapter: 1 ID: 0

Режим чтения : Достоверность
Использование точного потока : Да
Отключение кэша аудио : Да
Использование указателей C2 : Нет

Коррекция смещения при чтении : 6
Способность читать области Lead-in и Lead-out : Нет
Заполнение пропущенных сэмплов тишиной : Да
Удаление блоков с тишиной в начале и конце : Нет
При вычислениях CRC использовались нулевые сэмплы : Да
Интерфейс : Установленный внешний ASPI-интерфейс

Выходной формат : Пользовательский кодировщик
Выбранный битрейт : 1024 kBit/s
Качество : Высокий
Добавление ID3-тэга : Нет
Утилита сжатия : C:Program FilesExact Audio CopyFLACFLAC.EXE
Дополнительные параметры : -10 -V -T "ARTIST=%a" -T "TITLE=%t" -T "ALBUM=%g" -T "DATE=%y" -T "TRACKNUMBER=%n" -T "GENRE=%m" -T "COMMENT=%e" %s -o %d

TOC извлечённого CD

Трек | Старт | Длительность | Начальный сектор | Конечный сектор
---------------------------------------------------------------------
1 | 0:00.00 | 4:20.60 | 0 | 19559
2 | 4:20.60 | 4:57.38 | 19560 | 41872
3 | 9:18.23 | 3:05.42 | 41873 | 55789
4 | 12:23.65 | 3:08.53 | 55790 | 69942
5 | 15:32.43 | 4:45.11 | 69943 | 91328
6 | 20:17.54 | 4:15.42 | 91329 | 110495
7 | 24:33.21 | 4:08.49 | 110496 | 129144
8 | 28:41.70 | 3:44.23 | 129145 | 145967
9 | 32:26.18 | 4:21.70 | 145968 | 165612
10 | 36:48.13 | 3:56.41 | 165613 | 183353

Характеристики диапазона извлечения и сообщения об ошибках

Выбранный диапазон

Имя файла D:BitCometWillie May(flac)2012 - ThirteenWillie May - Thirteen.wav

Пиковый уровень 98.8 %
Качество диапазона 100.0 %
CRC теста 08E02900
CRC копии 08E02900
Копирование... OK

Ошибок не произошло

AccurateRip: сводка

Трек 1 нет в базе данных
Трек 2 нет в базе данных
Трек 3 нет в базе данных
Трек 4 нет в базе данных
Трек 5 нет в базе данных
Трек 6 нет в базе данных
Трек 7 нет в базе данных
Трек 8 нет в базе данных
Трек 9 нет в базе данных
Трек 10 нет в базе данных

Ни одного трека нет в базе AccurateRip

Конец отчёта

Доп. информация:
Релиз представлен группой:

P.S. Благодарности izia1956 за предоставленную информацию
Музыка / Lossless / Джаз, Блюз, Соул
СКАЧАТЬ БЕСПЛАТНО  [1.4 GB]


17
фев
2012

Greg Lake - Collections (5CD Columbia Music Japan) - 2011 [1981-2003, Rock, Hard Rock, Progressive Rock, Art Rock, FLAC]

Формат: FLAC, (image + .cue), lossless
Год выпуска: 1981-2003
Страна: UK
Жанр: Rock, Hard Rock, Progressive Rock, Art Rock
Продолжительность: 03:36:30
Описание: Disc One - Greg Lake 1981 (00
Трeклист: 01. Nuclear Attack (Moore) 04:31 02. Love You Too Much (Bob Dylan, Lake, Helena Springs) 05:28 03. It Hurts (Lake) 04:29 04. Black And Blue (Lake) 03:58 05. Retribution Drive (Tony Benyon, Tommy Eyre, Lake) 05:03 06. Long Goodbye (Benyon, Eyre, Lake) 03:58 07. The Lie (Benyon, Eyre, Lake) 04:44 08. Someone (Benyon, Eyre, Lake) 04:11 09. Let Me Love You Once Before You Go (Steve Dorff, Molly Ann ...

02
апр
2016

Willie Nile - World War Willie [2016, Rock 'N' Roll, Rock, FLAC]

Формат: FLAC, (image + .cue), lossless
Год выпуска: 2016
Страна: USA
Жанр: Rock 'N' Roll, Rock
Продолжительность: 00:57:51
Описание: 01. Forever Wild 02. Let's All Come Together 03. Grandpa Rocks 04. Runaway Girl 05. World War Willie 06. Bad Boy 07. Hell Yeah 08. Beautiful You 09. When Levon Sings 10. Trouble Down in Diamond Town 11. Citibank Nile 12. Sweet Jane
Доп. информация: eac Exact Audio Copy V1.1 from 23. June 2015 EAC extraction logfile from 1. April 2016, 18:16 Willie Nile / World War Willie Used drive : hp CDDVDW SH-216BB Adapter: 1 ID: 0 Read mode : Secure Utilize accurate st ...

03
апр
2016

Willie Nile - World War Willie [2016, Classic Rock, MP3]

Формат: MP3, tracks, 320kbps
Год выпуска: 2016
Страна: USA
Жанр: Classic Rock
Продолжительность: 00:47:51
Описание: 01. Forever Wild 02. Let's All Come Together 03. Grandpa Rocks 04. Runaway Girl 05. World War Willie 06. Bad Boy 07. Hell Yeah 08. Beautiful You 09. When Levon Sings 10. Trouble Down in Diamond Town 11. Citibank Nile 12. Sweet Jane

07
июл
2017

Willie Nile - Positively Bob: Willie Nile Sings Bob Dylan [2017, Rock, FLAC]

Формат: FLAC, (image + .cue), lossless
Год выпуска: 2017
Страна: USA
Жанр: Rock
Продолжительность: 00:37:44
Описание: 01. The Times They Are A-Changin' 02. Rainy Day Women #12 & 35 03. Blowin' In The Wind 04. A Hard Rain's A-Gonna Fall 05. I Want You 06. Subterranean Homesick Blues 07. Love Minus Zero/No Limit 08. Every Grain Of Sand 09. You Ain't Goin' Nowhere 10. Abandoned Love
Доп. информация: СоставWillie Nile - Acoustic Guitar, Vocals James Maddock - Acoustic & Electric Guitars, Backing Vocals Matt Hogan - Electric Guitar Johnny Pisano - Bass Guitar, Backing Vocals Andy Burton - Piano, ...

27
сен
2017

Willie And The Poor Boys - The Complete Willie And The Poor Boys (2CD) [2015, Rock Roll, Rockabilly, Boogie, Rhythm Blues, FLAC]

Формат: FLAC, (image + .cue), lossless
Год выпуска: 2015
Страна: UK
Жанр: Rock & Roll, Rockabilly, Boogie, Rhythm & Blues
Продолжительность: 01:31:17
Описание: CD 1985 Willie And The Poor Boys 00 01. Baby Please Don't Go 02. Can You Hear Me? 03. These Arms Of Mine 04. Revenue Man 05. You Never Can Tell 06. Slippin' And Slidin' 07. Saturday Night 08. Let's Talk It Over 09. All Night Long 10. Chicken Shack Boogie 11. Sugar Bee 12. Poor Boy Boogie eacExact Audio Copy V1.3 from 2. September 2016 EAC extraction logfile from 10. September 2017, 16:20 Willie And The Poor Boys / Willie And The Poor ...

16
мар
2011

Willie Nelson - Somewhere Over the Rainbow [1981, Country, MP3]

Формат: MP3, tracks, 192kbps
Год выпуска: 1981
Страна: США
Жанр: Country
Продолжительность: 00:29:00
Описание: 01. Mona Lisa (2:32) 02. Exactly Like You (2:25) 03. Who's Sorry Now? (3:00) 04. I'm Confessin' (That I Love You) (3:36) 05. Won't You Ride In My Little Red Wagon With Freddy Powers (2:33) 06. Over The Rainbow (3:38) 07. In My Mother's Eyes (3:12) 08. I'm Gonna Sit Right Down (And Write Myself a Letter) (3:00) 09. It Wouldn't Be The Same Without You (2:58) 10. Twinkle, Twinkle Little Star (2:06)
Доп. информация: Альбом легендарного исполнителя классического кантри

13
янв
2011

Willie and the Poor Boys (Bill Wyman, Jimmy Page, Chris Rea ...) - Willie and the Poor Boys [1985, Rock'n'Roll, FLAC]

Формат: FLAC, (tracks + .cue), lossless
Год выпуска: 1985
Страна: UK
Жанр: Rock'n'Roll
Продолжительность: 00:36:43
Трэклист: 01. Baby Please Don't Go 02:38 02. Can You Hear Me 03:13 03. These Arms of Mine 03:32 04. Revenue Man (White Lightening) 02:37 05. You Never Can Tell 03:55 06. Slippin' and Slidin' 02:33 07. Saturday Night 02:50 08. Let's Talk It Over 02:59 09. All Night Long 02:31 10. Chicken Shack Boogie 03:13 11. Sugar Bee 03:12 12. Poor Boy Boogie 03:27
Доп. информация: Personnel Andy Fairweather-Low - Guitars Bill Wyman, Andy Fairweather-Low - Bass Geraint Watkins - Piano, vocal ...

30
июн
2013

Willie Nile - American Ride (Special Edition) [2013, Classic Rock, MP3]

Формат: MP3, tracks, 320kbps
Год выпуска: 2013
Страна: USA
Жанр: Classic Rock
Продолжительность: 00:52:16
Описание: 01. This Is Our Time 02. Life On Bleecker Street 03. American Ride 04. If I Ever See The Light 05. She's Got My Heart 06. Got Laughs 07. People Who Died 08. Holy War 09. Say Hey 10. Sunrise In New York City 11. The Crossing 12. There's No Place Like Home Bonus Tracks: 13. Occupy 14. The Motel Life 15. One Guitar v2.0
Доп. информация: Релиз представлен группой

07
авг
2014

Willie Nelson - Band Of Brothers [2014, Country, Folk Rock, MP3]

Формат: MP3, tracks, 320kbps
Год выпуска: 2014
Страна: USA
Жанр: Country, Folk Rock
Продолжительность: 00:47:16
Описание: Треклист 01. Bring It On (02:54) 02. Guitar In The Corner (03:54) 03. The Wall (03:29) 04. Whenever You Come Around (04:12) 05. Wives And Girlfriends (03:00) 06. I Thought I Left You (03:01) 07. Send Me A Picture (03:59) 08. Used To Her (02:46) 09. The Git Go (Feat. Jamey Johnson) (04:06) 10. Band Of Brothers (02:50) 11. Hard To Be An Outlaw (03:08) 12. Crazy Like Me (03:15) 13. The Songwriters (03:15) 14. I’ve Got A Lot Of Traveling To Do (03:21) Дополнительная информац ...

27
дек
2013

Limpid Green - The Bush Willie [2013, Progressive Rock, Art Rock, MP3]

Формат: MP3, tracks, 320kbps
Год выпуска: 2013
Страна: USA
Жанр: Progressive Rock, Art Rock
Продолжительность: 00:46:49
Описание: Треклист 01. The Owl and the Pussycat (04:20) 02. Lady Button Eyes Pt. 1 (00:40) 03. Rockabye Lady From Hushabye Street (04:42) 04. The Shut-Eye Train (04:19) 05. It's Not Going to Happen Again (01:50) 06. Lady Button Eyes Pt. 2 (00:30) 07. Eight Day Clock (02:47) 08. The Dinkybird (04:55) 09. The Peeper (04:49) 10. The Amfalula Tree (02:43) 11. A Man in Our Town (02:10) 12. Lady Button Eyes Pt. 3 (02:46) 13. Blackbird Pie Lullabye (06:22) 14. Amen (03:49) Дополн ...

16
мар
2011

Willie Nelson - Country Music [2010, Country, MP3]

Формат: MP3, tracks, 320kbps
Год выпуска: 2010
Страна: США
Жанр: Country
Продолжительность: 00:57:49
Описание: 01. Man With The Blues (2:21) 02. Seaman's Blues (3:22) 03. Dark As A Dungeon (4:49) 04. Gotta Walk Alone (2:13) 05. Satan Your Kingdom Must Come Down (3:19) 06. My Baby's Gone (5:05) 07. Freight Train Boogie (2:39) 08. Satisfied Mind (3:52) 09. You Done Me Wrong (3:12) 10. Pistol Packin' Mama (2:36) 11. Ocean of Diamonds (3:36) 12. Drinking Champagne (3:42) 13. I Am A Pilgram (4:52) 14. House of Gold (4:43) 15. Nobody's Fault But Mine (4:26) 16. Cry, Cry, Darlin (Bonus Track) (3:02) ...

28
сен
2016

Willie Green - Doc Savage [2016, Underground Hip-Hop, Experimental, MP3]

Формат: MP3, tracks, 320kbps
Год выпуска: 2016
Страна: USA
Жанр: Underground Hip-Hop, Experimental
Продолжительность: 00:48:54
Описание: 01. Bronze Intro 02. The Mental Wizard feat. PremRock & Milo 03. The Majii feat. Denmark Vessey 04. The Lost Oasis feat. Henry Canyons, Likwuid & Defcee 05. The Feathered Octopus feat. ELUCID & Open Mike Eagle 06. The Land of Always Night feat. Teddy Faley & Corina Corina 07. Resurrection Day feat. junclassic, PremRock, Warren Britt & Urban Miracle 08. Bronze Interlude 09. The Sargasso Ogre feat. BRZOWSKI & billy woods 10. The Man of Bronze feat. Henry Canyon ...

04
янв
2018

Jay Willie Blues Band - Дискография [2010 - 2017, Blues Rock, MP3]

Формат: MP3, tracks, 320kbps
Год выпуска: 2010 - 2017
Страна: USA
Жанр: Blues Rock
Продолжительность: 04:19:24
Описание: 2010 - The Reel Deal, 00 01. Hey Hey Baby 02. The Reel Deal 03. Rainin In My Heart 04. Mary Lou 05. Aint Gonna Walk Your Dog Anymore 06. Liar 07. Stoop Down Baby 08. A Woman Named Trouble 2013 - New York Minute, 00 01. Hollywood 02. New York Minute 03. Chain Smokin 04. You Hurt Me 05. It's Your Thing 06. Devilbones 07. I Can't Be Satisfied 08. Champagne & Reefer 09. The Wobble 10. Tattooed You 11. Watch Pocket 12. Goin Down Slow 13. Hoodoo 14. Best Side Of You 15. That Ain' ...

24
мая
2014

Pork Chop Willie - Love Is The Devil [2014, Blues, MP3]

Формат: MP3, tracks, 320kbps
Год выпуска: 2014
Страна: USA
Жанр: Blues
Продолжительность: 00:51:28
Описание: 01. Too Many Cuts 02. Ain't Nobody (Gonna Save My Soul) 03. Snake Drive 04. Lonesome Poor 05. Rosalie 06. Poor Boy 07. She Give Me Joy 08. Falling 09. Crawdad Song 10. All Night Long 11. She's Gone 12. Devil In My Soul 13. Black Heart

16
мая
2012

Cheap Trick - 2 Box Sets / 10 Albums (2008 Original Album Classics 5CD Box/2011 Original Album Classics (5CD Box Set) [2008 / 2011, Rock, Hard Rock

Формат: FLAC, (image + .cue), lossless
Год выпуска: 2008 / 2011
Страна: USA
Жанр: Rock, Hard Rock
Продолжительность: 08:12:46
Описание: 2008 Original Album Classics (5CD Box Set Legacy, Epic Records) 1977 Cheap Trick 0 01. ELO Kiddies 02. Daddy Should Have Stayed In High School 03. Taxman, Mr. Thief 04. Cry, Cry 05. Oh, Candy 06. Hot Love 07. Speak Now Or Forever Hold Your Peace 08. He's A Whore 09. Mandocello 10. The Ballad Of TV Violence (I'm Not The Only Boy) Bonus Tracks 11. Lovin' Money 12. I Want You To Want Me 13. Lookout 14. You're All Talk 15. I Dig Go-Go Girls EAC Exact Audio Cop ...