04
янв
2017

VA - 6 Queens Of Jazz Vocal [24bit 96kHz] [2016, Vocal Jazz, FLAC]

VA - 6 Queens Of Jazz Vocal [24bit 96kHz]
Формат: FLAC, tracks, lossless
Год выпуска: 2016
Страна: Japan
Жанр: Vocal Jazz
Продолжительность: 03:47:38
Описание:

Anita O'Day - Anita Sings The Most 00
VA - 6 Queens Of Jazz Vocal
01. 'S Wonderful/They Can't Take that Away from Me
02. Tenderly
03. Old Dеvil Moon
04. Love Me or Leave Me
05. We'll Be Together Again
06. Stella by Starlight
07. Taking a Chance on Love
08. Them There Eyes
09. I've Got the World on a $tring
10. You Turned the Tables on Me
11. Bewitched, Bothered and Bewildered

foobar2000
foobar2000 1.3.8 / Dynamic Range Meter 1.1.1
log date: 2017-01-03 14:28:37

--------------------------------------------------------------------------------
Analyzed: Anita O'Day / Anita Sings The Most
--------------------------------------------------------------------------------

DR Peak RMS Duration Track
--------------------------------------------------------------------------------
DR12 -0.18 dB -14.27 dB 3:02 01-'S Wonderful They Can't Take That Away From Me
DR13 -0.73 dB -16.92 dB 3:23 02-Tenderly
DR10 -0.13 dB -12.70 dB 2:56 03-Old Devil Moon
DR11 -0.14 dB -13.58 dB 2:35 04-Love Me Or Leave Me
DR13 -0.53 dB -16.19 dB 3:41 05-We'll Be Together Again
DR11 -1.59 dB -16.36 dB 2:07 06-Stella By Starlight
DR13 -0.21 dB -16.44 dB 2:25 07-Taking A Chance On Love
DR9 -1.86 dB -13.10 dB 2:40 08-Them There Eyes
DR13 -0.28 dB -16.45 dB 4:01 09-I've Got The World On A String
DR11 -0.08 dB -13.48 dB 3:44 10-You Turned The Tables On Me
DR13 -1.26 dB -17.97 dB 3:56 11-Bewitched, Bothered And Bewildered
--------------------------------------------------------------------------------

Number of tracks: 11
Official DR value: DR12

Samplerate: 96000 Hz
Channels: 2
Bits per sample: 24
Bitrate: 2435 kbps
Codec: FLAC
================================================================================
Carmen McRae - After Glow 00
VA - 6 Queens Of Jazz Vocal
01. I Can't Escape From You
02. Guess Who I Saw Today
03. My Funny Valentine
04. It's the Little Things That Mean So Much
05. I'm Thru with Love
06. Nice Work If You Can Get It
07. East of the Sun (and West of the Moon)
08. Exactly Like You
09. All My Life
10. Between the Devil and the Deep Blue Sea
11. Dream of Life
12. Perdido

foobar 2000
foobar2000 1.3.8 / Dynamic Range Meter 1.1.1
log date: 2017-01-03 14:32:01

--------------------------------------------------------------------------------
Analyzed: Carmen McRae / After Glow
--------------------------------------------------------------------------------

DR Peak RMS Duration Track
--------------------------------------------------------------------------------
DR12 -0.17 dB -15.21 dB 3:38 01-I Can't Escape From You
DR12 -0.11 dB -15.44 dB 3:39 02-Guess Who I Saw Today
DR13 -1.18 dB -17.81 dB 4:24 03-My Funny Valentine
DR13 -0.10 dB -15.73 dB 3:18 04-The Little Things That Mean So Much
DR12 -2.48 dB -17.75 dB 4:14 05-I'm Thru With Love
DR10 -0.60 dB -12.95 dB 2:33 06-Nice Work If You Can Get It
DR11 -0.16 dB -13.31 dB 2:19 07-East Of The Sun (West Of The Moon)
DR10 -0.21 dB -12.62 dB 2:13 08-Exactly Like You
DR14 -0.46 dB -18.16 dB 4:18 09-All My Life
DR11 -0.12 dB -13.17 dB 2:30 10-Between The Devil And The Deep Blue Sea
DR14 -0.28 dB -17.17 dB 4:04 11-Dream Of Life
DR10 -0.09 dB -12.55 dB 2:19 12-Perdido (Lost)
--------------------------------------------------------------------------------

Number of tracks: 12
Official DR value: DR12

Samplerate: 96000 Hz
Channels: 2
Bits per sample: 24
Bitrate: 2566 kbps
Codec: FLAC
================================================================================

Ella Fitzgerald - Like Someone In Love 00
VA - 6 Queens Of Jazz Vocal
01. There's a Lull in My Life
02. More Than You Know
03. What Will I Tell My Heart?
04. I Never Had a Chance
05. Close Your Eyes
06. We'll Be Together Again
07. Then I'll Be Tired Of You
08. Like Someone in Love
09. Midnight Sun
10. I Thought About You
11. You're Blase
12. Night Wind
13. What's New?
14. Hurry Home
15. How Long Has This Been Going On?

foobar2000
foobar2000 1.3.8 / Dynamic Range Meter 1.1.1
log date: 2017-01-03 14:33:11

--------------------------------------------------------------------------------
Analyzed: Ella Fitzgerald / Like Someone In Love
--------------------------------------------------------------------------------

DR Peak RMS Duration Track
--------------------------------------------------------------------------------
DR11 -1.87 dB -16.07 dB 3:30 01-There's A Lull In My Life
DR10 -2.19 dB -16.21 dB 3:17 02-More Than You Know
DR11 -0.79 dB -15.74 dB 3:32 03-What Will I Tell My Heart
DR10 -0.86 dB -15.75 dB 2:49 04-I Never Had A Chance
DR10 -1.34 dB -14.00 dB 2:58 05-Close Your Eyes
DR10 -2.12 dB -15.43 dB 3:22 06-We'll Be Together Again
DR10 -1.89 dB -15.99 dB 3:15 07-Then I'll Be Tired Of You
DR10 -1.22 dB -14.87 dB 3:12 08-Like Someone In Love
DR10 -0.54 dB -14.48 dB 3:59 09-Midnight Sun
DR9 -2.83 dB -15.42 dB 2:57 10-I Thought About You
DR10 -2.28 dB -14.80 dB 4:01 11-You're Blase
DR10 -1.55 dB -15.78 dB 3:21 12-Night Wind
DR10 -1.46 dB -15.13 dB 3:08 13-What's New
DR10 -0.07 dB -13.67 dB 4:42 14-Hurry Home
DR10 -0.60 dB -14.29 dB 5:50 15-How Long Has This Been Going On
--------------------------------------------------------------------------------

Number of tracks: 15
Official DR value: DR10

Samplerate: 96000 Hz
Channels: 2
Bits per sample: 24
Bitrate: 2778 kbps
Codec: FLAC
================================================================================

Helen Merrill - Helen Merrill 00
VA - 6 Queens Of Jazz Vocal
01. Don't Explain
02. You'd Be So Nice to Come Home To
03. What's New?
04. Falling in Love with Love
05. Yesterdays
06. (I Was) Born to Be Blue
07. 'S Wonderful

foobar2000
foobar2000 1.3.8 / Dynamic Range Meter 1.1.1
log date: 2017-01-03 14:35:02

--------------------------------------------------------------------------------
Analyzed: Helen Merrill / Helen Merrill
--------------------------------------------------------------------------------

DR Peak RMS Duration Track
--------------------------------------------------------------------------------
DR12 -0.10 dB -15.93 dB 5:19 01-Don't Explain
DR12 -0.13 dB -15.36 dB 4:24 02-You'd Be So Nice To Come Home To
DR13 -0.23 dB -17.18 dB 5:05 03-What's New
DR11 -0.18 dB -14.27 dB 3:58 04-Falling In Love With Love
DR13 -0.25 dB -16.88 dB 6:05 05-Yesterdays
DR14 -0.14 dB -16.52 dB 5:20 06-Born To Be Blue
DR12 -0.20 dB -15.40 dB 3:15 07-'S Wonderful
--------------------------------------------------------------------------------

Number of tracks: 7
Official DR value: DR12

Samplerate: 96000 Hz
Channels: 2
Bits per sample: 24
Bitrate: 2731 kbps
Codec: FLAC
================================================================================

Monica Zetterlund - Waltz For Debby 00
VA - 6 Queens Of Jazz Vocal
01. Come Rain or Come Shine
02. A Beautiful Rose
03. Once Upon a Summertime
04. So Long Big Time
05. Waltz for Debby (Monicas Vals)
06. Lucky to Be Me
07. Sorrow Wind
08. It Could Happen to You
09. Some Other Time
10. In the Night (Om Natten)

foobar 2000
foobar2000 1.3.8 / Dynamic Range Meter 1.1.1
log date: 2017-01-03 14:37:17

--------------------------------------------------------------------------------
Analyzed: Monica Zetterlund / Waltz For Debby
--------------------------------------------------------------------------------

DR Peak RMS Duration Track
--------------------------------------------------------------------------------
DR13 -0.22 dB -17.04 dB 4:44 01-Come Rain Or Come Shine
DR13 -0.61 dB -19.25 dB 2:53 02-Jag Vet En Dejlig Rosa (A Beautiful Rose)
DR14 -0.12 dB -18.79 dB 3:04 03-Once Upon A Summertime
DR12 -0.10 dB -15.49 dB 3:49 04-So Long Big Time
DR11 -0.13 dB -14.58 dB 2:48 05-Monicas Vals (Waltz For Debby)
DR12 -0.12 dB -16.35 dB 3:36 06-Lucky To Be Me
DR12 -1.05 dB -19.05 dB 3:04 07-Vindarna Sucka (Sorrow Wind)
DR12 -0.09 dB -15.84 dB 3:01 08-It Could Happen To You
DR13 -0.25 dB -18.19 dB 5:36 09-Some Other Time
DR12 -0.43 dB -18.33 dB 1:41 10-Om Natten (In The Night)
--------------------------------------------------------------------------------

Number of tracks: 10
Official DR value: DR13

Samplerate: 96000 Hz
Channels: 2
Bits per sample: 24
Bitrate: 2542 kbps
Codec: FLAC
================================================================================

Peggy Lee - Black Coffee 00
VA - 6 Queens Of Jazz Vocal
01. Black Coffee
02. I've Got You Under My Skin
03. Easy Living
04. My Heart Belongs to Daddy
05. It Ain't Necessarily So
06. Gee Baby, Ain't I Good to You?
07. A Woman Alone With the Blues
08. I Didn't Know What Time It Was
09. When the World Was Young
10. Love Me or Leave Me
11. You're My Thrill
12. There's a Small Hotel

foobar 2000
foobar2000 1.3.8 / Dynamic Range Meter 1.1.1
log date: 2017-01-03 14:38:58

--------------------------------------------------------------------------------
Analyzed: Peggy Lee / Black Coffee
--------------------------------------------------------------------------------

DR Peak RMS Duration Track
--------------------------------------------------------------------------------
DR10 -0.89 dB -14.44 dB 3:13 01-Black Coffee
DR10 -0.15 dB -12.43 dB 2:33 02-I've Got You Under My Skin
DR11 -1.79 dB -15.51 dB 2:48 03-Easy Living
DR8 -0.78 dB -12.80 dB 2:11 04-My Heart Belongs To Daddy
DR12 -0.93 dB -15.81 dB 3:26 05-It Ain't Necessarily So
DR11 -0.71 dB -15.95 dB 3:27 06-Gee Baby, Ain't I Good To You
DR12 -1.71 dB -17.12 dB 3:18 07-A Woman Alone With The Blues
DR10 -1.05 dB -15.49 dB 2:20 08-I Didn't Know What Time It Was
DR11 -1.95 dB -17.62 dB 3:21 09-(Ah, The Apple Trees) When The World Was Young
DR10 -0.64 dB -12.71 dB 2:11 10-Love Me Or Leave Me
DR11 -1.60 dB -17.01 dB 3:27 11-You're My Thrill
DR12 -0.94 dB -15.72 dB 2:54 12-There's A Small Hotel
--------------------------------------------------------------------------------

Number of tracks: 12
Official DR value: DR11

Samplerate: 96000 Hz
Channels: 2
Bits per sample: 24
Bitrate: 2532 kbps
Codec: FLAC
================================================================================



Музыка / Lossless / Джаз, Блюз, Соул
СКАЧАТЬ БЕСПЛАТНО  [4.2 GB]


13
ноя
2018

Led Zeppelin x Led Zeppelin [24bit 96khz] [2018, Hard Rock, FLAC]

Формат: FLAC, tracks, lossless
Год выпуска: 2018
Страна: England
Жанр: Hard Rock
Продолжительность: 02:36:14
Описание: Tracklist01. Immigrant Song 02. Rock And Roll (Sunset Sound Mix) 03. Whole Lotta Love 04. Black Dog 05. Stairway To Heaven 06. Good Times Bad Times 07. Going To California 08. Ramble On 09. Kashmir 10. Over The Hills And Far Away 11. Hey, Hey, What Can I Do 12. D'yer Mak'er 13. When The Levee Breaks 14. All My Love 15. Babe I'm Gonna Leave You 16. Heartbreaker 17. Dazed And Confused 18. The Song Remains The Same 19. Fool In The Rain 20. The Ocean 21. What Is And What Should ...

27
мар
2016

VA - Smooth Jazz Vocal Grooves [2016, Smooth-Jazz, FLAC]

Формат: FLAC, tracks, lossless
Год выпуска: 2016
Страна: UE
Жанр: Smooth-Jazz
Продолжительность: 01:04:42
Описание: 01. Nicholas Cole - So Good 4:16 02. Lin Rountree - Givin' You Love 3:59 03. James Vargas - Say You Will 5:31 04. Nicholas Cole - When I Think of You 4:14 05. Nick Colionne - Born Again 4:05 06. Oli Silk - Didn't Know About Love 5:20 07. Tim Bowman - All I Need Is You 4:39 08. Julian Vaughn - I Will 3:57 09. Nicholas Cole - Beyond the Stars (feat. Lynne Fiddmont) 4:34 10. Oli Silk - Bring Back Those Days 5:11 11. Lin Rountree - Dance with Me 3:59 12. Oli Silk - That Kinda Love ...

11
мар
2016

VA - Jazz Juice: Vocal Compilation [2016, Jazz, Modern Jazz, Blues, MP3]

Формат: MP3, tracks, 320kbps
Год выпуска: 2016
Страна: All World
Жанр: Jazz, Modern Jazz, Blues
Продолжительность: 07:54:52
Описание: Tracklist001. Queen Latifah - Dont Cry Baby 03:01 002. Ledisi - Blues In the Night 05:01 003. Etta James - Stormy Weather 03:11 004. Cassandra Wilson - I've Grown Accustomed to His Face 05:15 005. Natalie Cole - So Many Stars 05:17 006. Ella Fitzgerald. Ellis Larkins - My Heart Belongs to Daddy (feat Ellis Larkins) 02:38 007. Shirley Horn - The Very Thought of You 05:15 008. Barbara Lynn - You're Losing Me 02:18 009. Clarence Carter - Take It Off Him (An ...

17
ноя
2018

VA - Empire Records - Old Vocal Jazz [2018, Vocal Jazz, MP3]

Формат: MP3, tracks, 320kbps
Год выпуска: 2018
Страна: All World
Жанр: Vocal Jazz
Продолжительность: 01:33:19
Описание: 01. Madonna - Now I'm Following You (Part I) 02. Elvis Presley, Dave Brubeck - I'll Be Home for Christmas 03. Seth MacFarlane, Elizabeth Gillies - My Buick, My Love and I 04. Jose James - They Can’t Take That Away From Me 05. Nat King Cole - This Can't Be Love 06. The Drifters, Clyde Mcphatter - Souvenirs 07. Betty Carter - I Wonder 08. Carl Hall - Mean It Baby 09. Peggy Lee - All Too Soon 10. The Capitols - Hello Stranger 11. Nina Simone, Hal Mooney - I Put A Spell On You 1 ...

20
ноя
2016

VA - Jazz Only Jazz - Erotic Jazz Moments 2 (Essential Collection) [2016, Nu Jazz, Lounge, Jazz, Easy Listening, MP3]

Формат: MP3, tracks, 320kbps
Год выпуска: 2016
Страна: All World
Жанр: Nu Jazz, Lounge, Jazz, Easy Listening
Продолжительность: 03:05:33
Описание: Треклист01. Nils Landgren - Killing Me Softly (06:10) 02. Caro Josee - Paris (feat. Manusch Weiss) (05:49) 03. De-Phazz - Zero Zero (04:16) 04. Lou Tavano - Emotional Riot (04:51) 05. Blank & Jones & Julian & Roman Wasserfuhr - Flying to the Moon (Jazzed) (05:48 ) 06. Julian & Roman Wasserfuhr - Behind Blue Eyes (06:51) 07. Lisa Bassenge - Riders on the Storm (05:07) 08. Iiro Rantala, Viktoria Tolstoy, Ulf Wakenius, Lars Danielsson & Morten Lund - ...

27
сен
2011

VA - Vintage Cafe 6: Lounge & Jazz Blends [Sept 2011, Lounge, Downtempo, Electronic, MP3]

Формат: MP3, tracks, 320kbps
Год выпуска: Sept 2011
Страна: All World
Жанр: Lounge, Downtempo, Electronic
Продолжительность: 05:09:53
Описание: CD1 01. Scubba - Something (Feat Sarah Menescal) [02:40] 02. Banda Do Sul - Into The Groove (Feat Natascha) [03:53] 03. 48Th St Collective - Come Together [03:13] 04. Adabela - Sand & The Sea [03:19] 05. Index - Noon Hour Blues [04:34] 06. The Cooltrane Quartet - Oh! Darling [04:01] 07. Von Mondo - Test Me [03:45] 08. Brazil XXI & Silvinha Santana - Like A Virgin [04:11] 09. Scubba - Tumbling Dice (Feat Dew) [03:46] 10. Glambeats Corp - Holl ...

21
фев
2016

VA - Vintage Cafe: Lounge and Jazz Blends (Special Selection), Pt. 5-6 [2014, 2016, Downtempo, Chillout, Lounge, MP3]

Формат: MP3, tracks, 320kbps
Год выпуска: 2014, 2016
Страна: All World
Жанр: Downtempo, Chillout, Lounge
Продолжительность: 03:28:27
Описание: VA - Vintage Cafe Lounge & Jazz Blends (Special Selection) Part 5 (2014)01. Karen Souza - Can't Help Falling in Love [03:25] 02. Nikki Ocean - Rude [02:56] 03. Natty Bong - Blue Jeans [04:19] 04. Sarah Menescal - Alive and Kicking (Nü Mix) [03:55] 05. Sublime Reggae Kings - Ho Hey [03:30] 06. Karen Souza - Feels So Good [03:43] 07. Natascha - Let's Stay Together [03:26] 08. Dalbani - You Give Love a Bad Name [02:48] 09. Dinah Eastwood - Your Love [ ...

25
июн
2014

VA - Summer Jazz - 50 Chilled Jazz Pieces [2014, Jazz,Blues, MP3]

Формат: MP3, tracks, 320kbps
Год выпуска: 2014
Страна: All World
Жанр: Jazz, Blues
Продолжительность: 04:24:59
Описание: Треклист 01. We Don't Need Another Hero (feat. Michael Wollny, Lars Danielsson, Johan Norberg & Rasmus Kihlberg) - Nils Landgren 02. Sabbatical - De-Phazz 03. Ocean Beach - Black Might Orchestra 04. In the Summertime - Susi Hyldgaard 05. Love Is All We Need (feat. Sheryl Hackett) - Joo Kraus 06. The Mambo Craze - De-Phazz 07. Love Is - The Brand New Heavies 08. Casino Royale (Magnolia) - Max Melvin 09. Mr. Spector - McJazz 10. La Leyenda del Tiempo - El Niño Machuca 11 ...

26
авг
2013

VA - Romantic Evening Of Jazz. Sensual Jazz Music [2013, Jazz, Instrumental, Easy Listening, MP3]

Формат: MP3, tracks, 320kbps
Год выпуска: 2013
Страна: All World
Жанр: Jazz, Instrumental, Easy Listening
Продолжительность: 02:26:00
Описание: Tracklist 01. Smooth Jazz - My Heart Beats Faster - 00:03:10 02. John Coltrane - Too Young To Go Steady - 00:04:23 03. Nils Wulker - Thebe - 00:04:40 04. Julian Wasserfuhr & Roman Wasserfuhr - Behind Blue Eyes - 00:06:50 05. Nils Wulker - Crescent Nebula - 00:05:19 06. Akira Kosemura - Mirage - 00:02:13 07. Joo Kraus - One Moment In Time - 00:04:15 08. Clark Terry And Marian Mcpartland - Skylark - 00:04:21 09. Nils Wulker - Metis - 00:05:24 10. Koolsax ...

11
мая
2017

VA - Midnight Jazz Music: Cool Modern Jazz [2017, Jazz, MP3]

Формат: MP3, tracks, 320kbps
Год выпуска: 2017
Страна: All World
Жанр: Jazz
Продолжительность: 01:20:57
Описание: 01. Peaceful Piano Music Collection - Midnight Jazz Music 02:50 02. Morning Jazz Background Club - Jazz Only Jazz 03:10 03. Piano Jazz Masters - Bar Jazz 03:18 04. Classical Jazz Guitar Club - Jazz Story 02:51 05. Peaceful Piano Music Collection - Soft Jazz Music 03:09 06. Morning Jazz Background Club - Warm Spring 04:22 07. Piano Jazz Masters - Jazz in the Night 03:34 08. Classical Jazz Guitar Club - Sentimental Jazz 03:09 09. Peaceful Piano Music Collection - Joyful Music ...

25
сен
2010

VA - It`s Jazz. All Your Favourite Jazz Songs [2010, Jazz, MP3]

Формат: MP3, tracks, 320kbps
Год выпуска: 2010
Страна: All World
Жанр: Jazz
Продолжительность: 02:10:05
Описание: CD 1 01. Duke Ellington And Louis Armstrong – Im Just A Lucky So and So - 00:03:09 02. Thelonious Monk – Misterioso - 00:02:46 03. Ella Fitzgerald – Misty Blue - 00:03:36 04. Chet Baker – My Funny Valentine - 00:02:59 05. Sarah Vaughan – Lover Man - 00:03:15 06. Connonball Addarley – Love For Sale - 00:07:06 07. Sonny Rollins – Poor But Terfly - 00:06:08 08. Nina Simone – Bye Bye Blacbird - 00:08:18 09. John Coltrane – Lazy Bird - 00:07:09 10. Lee Morgan – Yesterday - 00:05:50 11 ...

04
июн
2007

(Nu-jazz, electro-jazz) VA - Nu-jazz & electro-jazz (2004) [mp3, 128]

Год выпуска: 2004
Жанр: Nu-jazz, electro-jazz
Продолжительность: 2 часа 35 минут
Формат: MP3
Битрейт аудио: 128 кбит/сек
Трэклист: "I" 01. Duran Y Garcia - Round midnight (5:10) 02. Vert - Original oddstep [revised by Grand Unified] (5:30) 03. Jazzanova - Coffee Talk [Yukihiro Fukutomi remix] (8:05) 04. South Froggies feat. Allan - Jazzion (4:40) 05. Barrio Jazz Gang - Chok-a-blok avenue (5:22) 06. Taxi - Yes it’s true (4:22) 07. Rubin Steiner - Lo-fi nu jazz #13 (4:01) 08. De-Phazz - Godsdog (3:14) 09. Megashira - At last (5:15) 10. Ian Simmonds - Theme to the last puma (4:59) 11. Jet Set P ...

20
июн
2015

VA - Jazz Break- The Best Of Contemporary Smooth Jazz [2007, Smooth Jazz, FLAC]

Формат: FLAC, (tracks + .cue), lossless
Год выпуска: 2007
Страна: All World
Жанр: Smooth Jazz
Продолжительность: 01:07:52
Описание: 01. Kenny G - Theme From Dying Young 02. Chris Botti - When I Fall In Love 03. Peter White - The Look Of Love 04. Greg Adams - Smooth Operator 05. Fourplay - Goin' Back Home 06. Warren Hill - Tears In Heaven 07. David Sanborn - The Dream 08. Grover Washington - Can You Stop The Rain 09. Charlie Byrd - The Girl From Ipanema 10. Ramsey Lewis - Love Song 11. Dave Stewart with Candy Dulfer - Lily Was Here 12. Lee Ritenour - Fly By Night 13. Tommy Emmanuel - Fields Of ...

16
дек
2010

VA - Jazz Club presents: My Kind of Jazz [2001, Jazz, Vocal Jazz, Swing, Cool, Classic Jazz, MP3]

Формат: MP3, tracks, 320kbps
Год выпуска: 2001
Страна: All World
Жанр: Jazz, Vocal Jazz, Swing, Cool, Classic Jazz
Продолжительность: 01:13:46
Описание: 01. Louis Armstrong - Hello, Dolly! - 00:02:26 02. Dexter Gordon - Lullaby of Birdland - 00:04:17 03. Dizzy Gillespie - Getting Down - 00:04:58 04. Gerry Mulligan - Walking Shoes - 00:05:45 05. Billie Holiday - My Man - 00:02:52 06. Chick Corea - Moment's Notice - 00:04:24 07. Count Basie - Jumpin' at the Woodside - 00:03:02 08. Carmen McRea - New York State of Mind - 00:05:08 09. Harry James - Two O'Clock Jump - 00:05:59 10. Basily - Minor ...

05
мар
2011

VA - Vocal Bar Volume 6 [08.03.2011, Vocal Trance, MP3]

Формат: MP3, tracks, 320kbps
Год выпуска: 08.03.2011
Страна: All World
Жанр: Vocal Trance
Продолжительность: 03:01:28
Описание: 01. Colonial One feat. Isa Bell - Always On My Mind (Original Mix) [07:32] 02. Fabio XB feat. Yves De Lacroix - Close To The Stars (Extended Mix) [07:06] 03. George Acosta feat. Kate Walsh - Nite Time (Original Mix) [09:28] 04. Mike Shiver vs. Fandy feat. David Call - Wasting Time (Original Mix) [07:11] 05. Ashley Wallbridge feat. Elleah - Walk On Water (Extended Vocal Mix) [08:10] 06. Bobina feat. Sabrina Atlan - Angel Of The North (Ali Wilson Tekelec Mix) [07:0 ...