08
июл
2015

Neutrino, Нейтрон - Дискография [2012-2017, Melodic Power Progressive Industrial Experimental Symphonic Metal, ALAC (.M4A)]

Neutrino, Нейтрон - Дискография

Формат: ALAC (.M4A), tracks, lossless
Год выпуска: 2012-2017
Страна: Россия
Жанр: Melodic Power Progressive Industrial Experimental Symphonic Metal
Продолжительность: 02:46:22
Описание:

Albums, EPs

2012 - Осколки Мира (00

Треклист
01. Интро (01:22)
02. Кто ты в этом мире? (03:47)
03. Братство волков (04:10)
04. День и ночь (03:43)
05. Старый двор (03:46)
06. Осколки мира (05:22)
07. Ангел света и тьмы (04:30)
08. Опасная зона (04:32)
09. Твой судный день (05:03)
10. Зов твоего сердца (04:15)
Лог создания рипа

Exact Audio Copy V1.0 beta 3 from 29. August 2011

Отчёт EAC об извлечении, выполненном 29. июня 2015, 0:26

Neutrino / Осколки мира

Дисковод: MATSHITADVD-RAM UJ8C0 Adapter: 0 ID: 0

Режим чтения : Достоверность
Использование точного потока : Да
Отключение кэша аудио : Да
Использование указателей C2 : Нет

Коррекция смещения при чтении : 103
Способность читать области Lead-in и Lead-out : Нет
Заполнение пропущенных сэмплов тишиной : Да
Удаление блоков с тишиной в начале и конце : Нет
При вычислениях CRC использовались нулевые сэмплы : Да
Интерфейс : Встроенный Win32-интерфейс для Win NT/2000
Обработка зазоров : Добавлено к предыдущему треку

Выходной формат : Пользовательский кодировщик
Выбранный битрейт : 128 kBit/s
Качество : Высокий
Добавление ID3-тега : Нет
Утилита сжатия : C:Program Files (x86)Exact Audio CopyFlacflac.exe
Дополнительные параметры : -V -8 -T "Genre=%genre%" -T "Artist=%artist%" -T "Title=%title%" -T "Album=%albumtitle%" -T "Date=%year%" -T "Tracknumber=%tracknr%" -T "Comment=%comment%" %source%

TOC извлечённого CD

Трек | Старт | Длительность | Начальный сектор | Конечный сектор
---------------------------------------------------------------------
1 | 0:00.00 | 1:25.37 | 0 | 6411
2 | 1:25.37 | 3:49.74 | 6412 | 23660
3 | 5:15.36 | 4:13.37 | 23661 | 42672
4 | 9:28.73 | 3:46.37 | 42673 | 59659
5 | 13:15.35 | 3:49.74 | 59660 | 76908
6 | 17:05.34 | 5:24.74 | 76909 | 101282
7 | 22:30.33 | 4:33.37 | 101283 | 121794
8 | 27:03.70 | 4:35.74 | 121795 | 142493
9 | 31:39.69 | 5:06.74 | 142494 | 165517
10 | 36:46.68 | 4:16.37 | 165518 | 184754

Трек 1

Имя файла C:UsersБорисDesktopNeutrino ALAC2012 - Осколки Мира1 Интро.wav

Длина предзазора 0:00:02.00

Пиковый уровень 98.8 %
Скорость извлечения 2.0 X
Качество трека 100.0 %
CRC теста 6114A67D
CRC копии 6114A67D
Трек не обнаружен в базе AccurateRip
Копирование... OK

Трек 2

Имя файла C:UsersБорисDesktopNeutrino ALAC2012 - Осколки Мира2 Кто ты в этом мире.wav

Длина предзазора 0:00:02.00

Пиковый уровень 100.0 %
Скорость извлечения 2.6 X
Качество трека 100.0 %
CRC теста F7B7ADFB
CRC копии F7B7ADFB
Трек не обнаружен в базе AccurateRip
Копирование... OK

Трек 3

Имя файла C:UsersБорисDesktopNeutrino ALAC2012 - Осколки Мира3 Братство волков.wav

Длина предзазора 0:00:02.00

Пиковый уровень 100.0 %
Скорость извлечения 2.7 X
Качество трека 100.0 %
CRC теста 48E96EAA
CRC копии 48E96EAA
Трек не обнаружен в базе AccurateRip
Копирование... OK

Трек 4

Имя файла C:UsersБорисDesktopNeutrino ALAC2012 - Осколки Мира4 День и ночь.wav

Длина предзазора 0:00:02.00

Пиковый уровень 100.0 %
Скорость извлечения 3.1 X
Качество трека 100.0 %
CRC теста E5DE74ED
CRC копии E5DE74ED
Трек не обнаружен в базе AccurateRip
Копирование... OK

Трек 5

Имя файла C:UsersБорисDesktopNeutrino ALAC2012 - Осколки Мира5 Старый двор.wav

Длина предзазора 0:00:02.00

Пиковый уровень 100.0 %
Скорость извлечения 3.3 X
Качество трека 100.0 %
CRC теста 8BED1076
CRC копии 8BED1076
Трек не обнаружен в базе AccurateRip
Копирование... OK

Трек 6

Имя файла C:UsersБорисDesktopNeutrino ALAC2012 - Осколки Мира6 Осколки мира.wav

Длина предзазора 0:00:02.00

Пиковый уровень 100.0 %
Скорость извлечения 3.7 X
Качество трека 100.0 %
CRC теста D97681D2
CRC копии D97681D2
Трек не обнаружен в базе AccurateRip
Копирование... OK

Трек 7

Имя файла C:UsersБорисDesktopNeutrino ALAC2012 - Осколки Мира7 Ангел света и тьмы.wav

Длина предзазора 0:00:02.00

Пиковый уровень 100.0 %
Скорость извлечения 3.9 X
Качество трека 100.0 %
CRC теста A39EC2F2
CRC копии A39EC2F2
Трек не обнаружен в базе AccurateRip
Копирование... OK

Трек 8

Имя файла C:UsersБорисDesktopNeutrino ALAC2012 - Осколки Мира8 Опасная зона.wav

Длина предзазора 0:00:02.00

Пиковый уровень 100.0 %
Скорость извлечения 4.1 X
Качество трека 100.0 %
CRC теста DF6D7250
CRC копии DF6D7250
Трек не обнаружен в базе AccurateRip
Копирование... OK

Трек 9

Имя файла C:UsersБорисDesktopNeutrino ALAC2012 - Осколки Мира9 Твой судный день.wav

Длина предзазора 0:00:02.00

Пиковый уровень 100.0 %
Скорость извлечения 4.3 X
Качество трека 100.0 %
CRC теста 851EF412
CRC копии 851EF412
Трек не обнаружен в базе AccurateRip
Копирование... OK

Трек 10

Имя файла C:UsersБорисDesktopNeutrino ALAC2012 - Осколки Мира10 Зов твоего сердца.wav

Длина предзазора 0:00:02.00

Пиковый уровень 100.0 %
Скорость извлечения 4.5 X
Качество трека 100.0 %
CRC теста FE919B9D
CRC копии FE919B9D
Трек не обнаружен в базе AccurateRip
Копирование... OK

Ни одного трека нет в базе AccurateRip

Ошибок не произошло

Конец отчёта

==== Контрольная сумма отчёта 27AE28C5268454EDC926C5E6600A1024AA5E5FF17A2EA6B3A915662342E92006 ====



2013 - Вторжение С Небес (00


Треклист
01. Акт 1. Затмение человечества (02:26)
02. Эволюция войны (07:15)
03. Поверь в себя (07:13)
04. Акт 2. Сбой системы (01:27)
05. Дух возмездия (06:19)
06. Мир для двоих (04:32)
07. День Х (05:37)
08. Акт 3. Другая жизнь (03:05)

Лог создания рипа

Exact Audio Copy V1.0 beta 3 from 29. August 2011

Отчёт EAC об извлечении, выполненном 29. июня 2015, 1:44

Neutrino / Вторжение С Небес

Дисковод: MATSHITADVD-RAM UJ8C0 Adapter: 0 ID: 0

Режим чтения : Достоверность
Использование точного потока : Да
Отключение кэша аудио : Да
Использование указателей C2 : Нет

Коррекция смещения при чтении : 103
Способность читать области Lead-in и Lead-out : Нет
Заполнение пропущенных сэмплов тишиной : Да
Удаление блоков с тишиной в начале и конце : Нет
При вычислениях CRC использовались нулевые сэмплы : Да
Интерфейс : Встроенный Win32-интерфейс для Win NT/2000
Обработка зазоров : Добавлено к предыдущему треку

Выходной формат : Пользовательский кодировщик
Выбранный битрейт : 128 kBit/s
Качество : Высокий
Добавление ID3-тега : Нет
Утилита сжатия : C:Program Files (x86)Exact Audio CopyFlacflac.exe
Дополнительные параметры : -V -8 -T "Genre=%genre%" -T "Artist=%artist%" -T "Title=%title%" -T "Album=%albumtitle%" -T "Date=%year%" -T "Tracknumber=%tracknr%" -T "Comment=%comment%" %source%

TOC извлечённого CD

Трек | Старт | Длительность | Начальный сектор | Конечный сектор
---------------------------------------------------------------------
1 | 0:00.00 | 2:26.64 | 0 | 11013
2 | 2:26.64 | 7:14.73 | 11014 | 43636
3 | 9:41.62 | 7:13.69 | 43637 | 76180
4 | 16:55.56 | 1:28.40 | 76181 | 82820
5 | 18:24.21 | 6:19.18 | 82821 | 111263
6 | 24:43.39 | 4:31.74 | 111264 | 131662
7 | 29:15.38 | 5:38.46 | 131663 | 157058
8 | 34:54.09 | 3:05.60 | 157059 | 170993

Трек 1

Имя файла C:UsersБорисDesktopNeutrino ALAC2013 - Вторжение С Небес1 Акт 1. Затмение человечества.wav

Длина предзазора 0:00:02.00

Пиковый уровень 77.6 %
Скорость извлечения 2.3 X
Качество трека 100.0 %
CRC теста 22C5951A
CRC копии 22C5951A
Трек не обнаружен в базе AccurateRip
Копирование... OK

Трек 2

Имя файла C:UsersБорисDesktopNeutrino ALAC2013 - Вторжение С Небес2 Эволюция войны.wav

Пиковый уровень 100.0 %
Скорость извлечения 3.0 X
Качество трека 100.0 %
CRC теста F8A46751
CRC копии F8A46751
Трек не обнаружен в базе AccurateRip
Копирование... OK

Трек 3

Имя файла C:UsersБорисDesktopNeutrino ALAC2013 - Вторжение С Небес3 Поверь в себя.wav

Пиковый уровень 94.2 %
Скорость извлечения 2.9 X
Качество трека 99.9 %
CRC теста F8B1CAEA
CRC копии F8B1CAEA
Трек не обнаружен в базе AccurateRip
Копирование... OK

Трек 4

Имя файла C:UsersБорисDesktopNeutrino ALAC2013 - Вторжение С Небес4 Акт 2. Сбой системы.wav

Пиковый уровень 100.0 %
Скорость извлечения 2.8 X
Качество трека 100.0 %
CRC теста ACB6527E
CRC копии ACB6527E
Трек не обнаружен в базе AccurateRip
Копирование... OK

Трек 5

Имя файла C:UsersБорисDesktopNeutrino ALAC2013 - Вторжение С Небес5 Дух возмездия.wav

Пиковый уровень 93.7 %
Скорость извлечения 3.9 X
Качество трека 100.0 %
CRC теста 4E23D22C
CRC копии 4E23D22C
Трек не обнаружен в базе AccurateRip
Копирование... OK

Трек 6

Имя файла C:UsersБорисDesktopNeutrino ALAC2013 - Вторжение С Небес6 Мир для двоих.wav

Пиковый уровень 95.5 %
Скорость извлечения 3.8 X
Качество трека 100.0 %
CRC теста 68789646
CRC копии 68789646
Трек не обнаружен в базе AccurateRip
Копирование... OK

Трек 7

Имя файла C:UsersБорисDesktopNeutrino ALAC2013 - Вторжение С Небес7 День Х.wav

Пиковый уровень 99.1 %
Скорость извлечения 3.4 X
Качество трека 99.9 %
CRC теста 2914CAE4
CRC копии 2914CAE4
Трек не обнаружен в базе AccurateRip
Копирование... OK

Трек 8

Имя файла C:UsersБорисDesktopNeutrino ALAC2013 - Вторжение С Небес8 Акт 3. Другая жизнь.wav

Пиковый уровень 99.3 %
Скорость извлечения 4.2 X
Качество трека 100.0 %
CRC теста 6A6E32B0
CRC копии 6A6E32B0
Трек не обнаружен в базе AccurateRip
Копирование... OK

Ни одного трека нет в базе AccurateRip

Ошибок не произошло

Конец отчёта

==== Контрольная сумма отчёта 1428146251442B318DD5D4519F3B11D8569EE99A47D2E8CEB59CFCBBF4037B90 ====




2014 - Город Желаний (00


Треклист
01. Город желаний (05:01)
02. Горящее сердце (Rammstein - Mein herz brennt cover) (05:53)
03. Дивный новый мир (Iron Maiden - Brave new world cover) (06:46)
04. Город желаний (инструментал) (05:01)

Лог создания рипа

Exact Audio Copy V1.0 beta 3 from 29. August 2011

Отчёт EAC об извлечении, выполненном 7. июля 2015, 8:21

Neutrino / Город Желаний

Дисковод: MATSHITADVD-RAM UJ8C0 Adapter: 0 ID: 0

Режим чтения : Достоверность
Использование точного потока : Да
Отключение кэша аудио : Да
Использование указателей C2 : Нет

Коррекция смещения при чтении : 103
Способность читать области Lead-in и Lead-out : Нет
Заполнение пропущенных сэмплов тишиной : Да
Удаление блоков с тишиной в начале и конце : Нет
При вычислениях CRC использовались нулевые сэмплы : Да
Интерфейс : Встроенный Win32-интерфейс для Win NT/2000
Обработка зазоров : Добавлено к предыдущему треку

Выходной формат : Пользовательский кодировщик
Выбранный битрейт : 128 kBit/s
Качество : Высокий
Добавление ID3-тега : Нет
Утилита сжатия : C:Program Files (x86)Exact Audio CopyFlacflac.exe
Дополнительные параметры : -V -8 -T "Genre=%genre%" -T "Artist=%artist%" -T "Title=%title%" -T "Album=%albumtitle%" -T "Date=%year%" -T "Tracknumber=%tracknr%" -T "Comment=%comment%" %source%

TOC извлечённого CD

Трек | Старт | Длительность | Начальный сектор | Конечный сектор
---------------------------------------------------------------------
1 | 0:00.00 | 5:01.10 | 0 | 22584
2 | 5:01.10 | 5:55.61 | 22585 | 49270
3 | 10:56.71 | 6:46.44 | 49271 | 79764
4 | 17:43.40 | 5:00.65 | 79765 | 102329

Трек 1

Имя файла C:UsersБорисDesktopDuhflac1 Город желаний.wav

Длина предзазора 0:00:02.00

Пиковый уровень 100.0 %
Скорость извлечения 1.4 X
Качество трека 99.9 %
CRC теста B94C38CC
CRC копии B94C38CC
Трек не обнаружен в базе AccurateRip
Копирование... OK

Трек 2

Имя файла C:UsersБорисDesktopDuhflac2 Горящее сердце (Rammstein - Mein herz brennt cover).wav

Пиковый уровень 100.0 %
Скорость извлечения 1.8 X
Качество трека 100.0 %
CRC теста DC0A8C3E
CRC копии DC0A8C3E
Трек не обнаружен в базе AccurateRip
Копирование... OK

Трек 3

Имя файла C:UsersБорисDesktopDuhflac3 Дивный новый мир (Iron Maiden - Brave new world cover).wav

Пиковый уровень 100.0 %
Скорость извлечения 2.0 X
Качество трека 100.0 %
CRC теста 996F59CD
CRC копии 996F59CD
Трек не обнаружен в базе AccurateRip
Копирование... OK

Трек 4

Имя файла C:UsersБорисDesktopDuhflac4 Город желаний (инструментал).wav

Пиковый уровень 100.0 %
Скорость извлечения 2.1 X
Качество трека 100.0 %
CRC теста A1760F95
CRC копии A1760F95
Трек не обнаружен в базе AccurateRip
Копирование... OK

Ни одного трека нет в базе AccurateRip

Ошибок не произошло

Конец отчёта

==== Контрольная сумма отчёта 819E8F38CFEF2EEA6132E3D9EC47D8D044BFDBA285B8AB32CFBC60EC5FFDDF16 ====



2017 - Восемь Дней (00


Треклист:
01. Восемь дней (05:37)
02. Живой (Фактор Страха cover) (05:37)
03. От заката до зари (Гран-КуражЪ cover) (03:37)
Лог создания рипа

Exact Audio Copy V1.2 from 12. August 2016

Отчёт EAC об извлечении, выполненном 23. апреля 2017, 1:16

Neutrino / Восемь Дней

Дисковод: MATSHITADVD-RAM UJ8C0 Adapter: 1 ID: 0

Режим чтения : Достоверность
Использование точного потока : Да
Отключение кэша аудио : Да
Использование указателей C2 : Нет

Коррекция смещения при чтении : 103
Способность читать области Lead-in и Lead-out : Нет
Заполнение пропущенных сэмплов тишиной : Да
Удаление блоков с тишиной в начале и конце : Нет
При вычислениях CRC использовались нулевые сэмплы : Да
Интерфейс : Встроенный Win32-интерфейс для Win NT/2000
Обработка зазоров : Добавлено к предыдущему треку

Выходной формат : Пользовательский кодировщик
Выбранный битрейт : 128 kBit/s
Качество : Высокий
Добавление ID3-тега : Нет
Утилита сжатия : C:UserskorgmDownloadsAFF540DC.Unpacker_v7353qx4kg3sa!Appflac-1.3.1-win.zipflac-1.3.1-winwin64flac.exe
Дополнительные параметры : -V -8 -T "Genre=%genre%" -T "Artist=%artist%" -T "Title=%title%" -T "Album=%albumtitle%" -T "Date=%year%" -T "Tracknumber=%tracknr%" -T "Comment=%comment%" %source%

TOC извлечённого CD

Трек | Старт | Длительность | Начальный сектор | Конечный сектор
---------------------------------------------------------------------
1 | 0:00.00 | 5:36.42 | 0 | 25241
2 | 5:36.42 | 5:37.25 | 25242 | 50541
3 | 11:13.67 | 3:37.07 | 50542 | 66823

Трек 1

Имя файла C:UserskorgmDesktopneu 8 alac1 Восемь дней.wav

Длина предзазора 0:00:02.00

Пиковый уровень 100.0 %
Скорость извлечения 1.6 X
Качество трека 100.0 %
CRC теста 093A5215
CRC копии 093A5215
Трек не обнаружен в базе AccurateRip
Копирование... OK

Трек 2

Имя файла C:UserskorgmDesktopneu 8 alac2 Живой (Фактор Страха cover).wav

Пиковый уровень 100.0 %
Скорость извлечения 1.6 X
Качество трека 99.9 %
CRC теста 0EAD45D9
CRC копии 0EAD45D9
Трек не обнаружен в базе AccurateRip
Копирование... OK

Трек 3

Имя файла C:UserskorgmDesktopneu 8 alac3 От заката до зари (Гран-КуражЪ cover).wav

Пиковый уровень 98.7 %
Скорость извлечения 1.8 X
Качество трека 100.0 %
CRC теста 13867A0A
CRC копии 13867A0A
Трек не обнаружен в базе AccurateRip
Копирование... OK

Ни одного трека нет в базе AccurateRip

Ошибок не произошло

Конец отчёта

---- CUETools DB Plugin V2.1.6

[CTDB TOCID: lWXfCthsm7fvMbUAoQp2LNRBcA4-] disk not present in database
Submit result: lWXfCthsm7fvMbUAoQp2LNRBcA4- has been uploaded

==== Контрольная сумма отчёта 2BBDF96FFDE3019C150A3F4044D98A7592661EA99E5F5431BB09B24D58651E3E ====

Лог проверки качества

fooCDtect - foobar2000 + auCDtect, baralgin.

auCDtect: CD records authenticity detector, version 0.8.2
Copyright (c) 2004 Oleg Berngardt. All rights reserved.
Copyright (c) 2004 Alexander Djourik. All rights reserved.

mode: 0

===========================================
Track: 01 Восемь дней

Processing file: [01 Восемь дней.aucdtect]
Detected average hi-boundary frequency: 2.120856e+004 Hz
Detected average lo-boundary frequency: 1.712604e+004 Hz
Detected average hi-cut frequency: 2.194735e+004 Hz
Detected average lo-cut frequency: 2.047272e+004 Hz
Maximum probablis boundary frequency: 2.189100e+004 Hz
Coefficient of nonlinearity of a phase: 8.049794e-002
First order smothness: 5.328366e-001
Second order smothness: 7.144040e-001

------------------------------------------------------------
This track looks like CDDA with probability 100%

===========================================
Track: 03 От заката до зари (Гран-КуражЪ cover)

Processing file: [03 От заката до зари (Гран-КуражЪ cover).aucdtect]
Detected average hi-boundary frequency: 2.041933e+004 Hz
Detected average lo-boundary frequency: 1.485393e+004 Hz
Detected average hi-cut frequency: 2.186441e+004 Hz
Detected average lo-cut frequency: 1.631817e+004 Hz
Maximum probablis boundary frequency: 2.189100e+004 Hz
Coefficient of nonlinearity of a phase: 3.061120e-001
First order smothness: 3.848134e-001
Second order smothness: 6.645217e-001

------------------------------------------------------------
This track looks like CDDA with probability 100%

===========================================
Track: 02 Живой (Фактор Страха cover)

Processing file: [02 Живой (Фактор Страха cover).aucdtect]
Detected average hi-boundary frequency: 2.123738e+004 Hz
Detected average lo-boundary frequency: 1.686980e+004 Hz
Detected average hi-cut frequency: 2.190337e+004 Hz
Detected average lo-cut frequency: 1.920977e+004 Hz
Maximum probablis boundary frequency: 2.189100e+004 Hz
Coefficient of nonlinearity of a phase: 9.890082e-002
First order smothness: 5.410468e-001
Second order smothness: 7.349862e-001

------------------------------------------------------------
This track looks like CDDA with probability 100%

===========================================





Instrumental

2013 - Вторжение С Небес (Instrumental) (00


Треклист:
01. Акт 1. Затмение человечества (instrumental) (00:57)
02. Эволюция войны (instrumental) (07:13)
03. Поверь в себя (instrumental) (07:12)
04. Акт 2. Сбой системы (instrumental) (01:27)
05. Дух возмездия (instrumental) (06:17)
06. Мир для двоих (instrumental) (04:30)
07. День Х (instrumental) (05:37)
08. Акт 3. Другая жизнь (instrumental) (03:06)

Лог создания рипа

Exact Audio Copy V1.0 beta 3 from 29. August 2011

Отчёт EAC об извлечении, выполненном 7. марта 2015, 21:41

Neutrino / Вторжение С Небес (Инструментал)

Дисковод: MATSHITADVD-RAM UJ8C0 Adapter: 0 ID: 0

Режим чтения : Достоверность
Использование точного потока : Да
Отключение кэша аудио : Да
Использование указателей C2 : Нет

Коррекция смещения при чтении : 103
Способность читать области Lead-in и Lead-out : Нет
Заполнение пропущенных сэмплов тишиной : Да
Удаление блоков с тишиной в начале и конце : Нет
При вычислениях CRC использовались нулевые сэмплы : Да
Интерфейс : Встроенный Win32-интерфейс для Win NT/2000
Обработка зазоров : Добавлено к предыдущему треку

Выходной формат : Пользовательский кодировщик
Выбранный битрейт : 128 kBit/s
Качество : Высокий
Добавление ID3-тега : Нет
Утилита сжатия : C:Program Files (x86)Exact Audio CopyFlacflac.exe
Дополнительные параметры : -V -8 -T "Genre=%genre%" -T "Artist=%artist%" -T "Title=%title%" -T "Album=%albumtitle%" -T "Date=%year%" -T "Tracknumber=%tracknr%" -T "Comment=%comment%" %source%

TOC извлечённого CD

Трек | Старт | Длительность | Начальный сектор | Конечный сектор
---------------------------------------------------------------------
1 | 0:00.00 | 0:57.17 | 0 | 4291
2 | 0:57.17 | 7:12.74 | 4292 | 36765
3 | 8:10.16 | 7:11.70 | 36766 | 69160
4 | 15:22.11 | 1:26.41 | 69161 | 75651
5 | 16:48.52 | 6:17.19 | 75652 | 103945
6 | 23:05.71 | 4:30.00 | 103946 | 124195
7 | 27:35.71 | 5:36.47 | 124196 | 149442
8 | 33:12.43 | 3:05.61 | 149443 | 163378

Трек 1

Имя файла C:UsersБорисDesktopфлак инс1. Neutrino - Акт 1. Затмение человечества (инструментал).wav

Длина предзазора 0:00:02.00

Пиковый уровень 81.8 %
Скорость извлечения 1.4 X
Качество трека 100.0 %
CRC копии 98CC9DA4
Трек не обнаружен в базе AccurateRip
Копирование... OK

Трек 2

Имя файла C:UsersБорисDesktopфлак инс2. Neutrino - Эволюция войны (инструментал).wav

Пиковый уровень 100.0 %
Скорость извлечения 2.8 X
Качество трека 100.0 %
CRC копии E505231C
Трек не обнаружен в базе AccurateRip
Копирование... OK

Трек 3

Имя файла C:UsersБорисDesktopфлак инс3. Neutrino - Поверь в себя (инструментал).wav

Пиковый уровень 92.5 %
Скорость извлечения 2.6 X
Качество трека 99.9 %
CRC копии 3760EBB0
Трек не обнаружен в базе AccurateRip
Копирование... OK

Трек 4

Имя файла C:UsersБорисDesktopфлак инс4. Neutrino - Акт 2. Сбой системы (инструментал).wav

Пиковый уровень 87.2 %
Скорость извлечения 2.2 X
Качество трека 100.0 %
CRC копии 6E0E9131
Трек не обнаружен в базе AccurateRip
Копирование... OK

Трек 5

Имя файла C:UsersБорисDesktopфлак инс5. Neutrino - Дух возмездия (инструментал).wav

Пиковый уровень 93.4 %
Скорость извлечения 3.5 X
Качество трека 100.0 %
CRC копии 4E1B1EB0
Трек не обнаружен в базе AccurateRip
Копирование... OK

Трек 6

Имя файла C:UsersБорисDesktopфлак инс6. Neutrino - Мир для двоих (инструментал).wav

Пиковый уровень 90.3 %
Скорость извлечения 3.4 X
Качество трека 100.0 %
CRC копии 76512AFC
Трек не обнаружен в базе AccurateRip
Копирование... OK

Трек 7

Имя файла C:UsersБорисDesktopфлак инс7. Neutrino - День Х (инструментал).wav

Пиковый уровень 92.3 %
Скорость извлечения 3.0 X
Качество трека 99.9 %
CRC копии 3F821DDF
Трек не обнаружен в базе AccurateRip
Копирование... OK

Трек 8

Имя файла C:UsersБорисDesktopфлак инс8. Neutrino - Акт 3. Другая жизнь (инструментал).wav

Пиковый уровень 95.9 %
Скорость извлечения 3.5 X
Качество трека 100.0 %
CRC копии AA12A1A3
Трек не обнаружен в базе AccurateRip
Копирование... OK

Ни одного трека нет в базе AccurateRip

Ошибок не произошло

Конец отчёта

==== Контрольная сумма отчёта 2225EAEA7ACAEF01AE231B4F6966E1B1B906576B1C26CD74CA101F053D74527A ====





Solo Projects
Нейтрон

2015 - Держись Пути (00


Треклист
01. Одержимая танцем (Michael Sembello - Maniac cover) (04:15)
02. Держись пути (A-ha - Stay on These Roads cover) (04:46)
03. Бой на выживание (Paul Hertzog cover) (03:31)
Лог создания рипа

Exact Audio Copy V1.1 from 23. June 2015

Отчёт EAC об извлечении, выполненном 19. апреля 2016, 0:19

Артём Krest / Держись Пути

Дисковод: MATSHITADVD-RAM UJ8C0 Adapter: 1 ID: 0

Режим чтения : Достоверность
Использование точного потока : Да
Отключение кэша аудио : Да
Использование указателей C2 : Нет

Коррекция смещения при чтении : 103
Способность читать области Lead-in и Lead-out : Нет
Заполнение пропущенных сэмплов тишиной : Да
Удаление блоков с тишиной в начале и конце : Нет
При вычислениях CRC использовались нулевые сэмплы : Да
Интерфейс : Встроенный Win32-интерфейс для Win NT/2000
Обработка зазоров : Добавлено к предыдущему треку

Выходной формат : Пользовательский кодировщик
Выбранный битрейт : 128 kBit/s
Качество : Высокий
Добавление ID3-тега : Нет
Утилита сжатия : C:UserskorgmDownloadsAFF540DC.Unpacker_v7353qx4kg3sa!Appflac-1.3.1-win.zipflac-1.3.1-winwin64flac.exe
Дополнительные параметры : -V -8 -T "Date=%year%" -T "Genre=%genre%" %source%

TOC извлечённого CD

Трек | Старт | Длительность | Начальный сектор | Конечный сектор
---------------------------------------------------------------------
1 | 0:00.00 | 4:14.58 | 0 | 19107
2 | 4:14.58 | 4:45.39 | 19108 | 40521
3 | 9:00.22 | 3:31.10 | 40522 | 56356

Трек 1

Имя файла C:UserskorgmDesktopД пут флак1 Одержимая танцем (Michael Sembello - Maniac cover).wav

Длина предзазора 0:00:02.00

Пиковый уровень 100.0 %
Скорость извлечения 1.2 X
Качество трека 100.0 %
CRC теста F738C045
CRC копии F738C045
Трек не обнаружен в базе AccurateRip
Копирование... OK

Трек 2

Имя файла C:UserskorgmDesktopД пут флак2 Держись пути (A-ha - Stay on These Roads cover).wav

Пиковый уровень 100.0 %
Скорость извлечения 1.5 X
Качество трека 99.9 %
CRC теста 0C4B65DF
CRC копии 0C4B65DF
Трек не обнаружен в базе AccurateRip
Копирование... OK

Трек 3

Имя файла C:UserskorgmDesktopД пут флак3 Бой на выживание (Paul Hertzog cover).wav

Длина предзазора 0:00:00.01

Пиковый уровень 100.0 %
Скорость извлечения 1.5 X
Качество трека 99.9 %
CRC теста 96BDEC8F
CRC копии 96BDEC8F
Трек не обнаружен в базе AccurateRip
Копирование... OK

Ни одного трека нет в базе AccurateRip

Ошибок не произошло

Конец отчёта

---- CUETools DB Plugin V2.1.6

[CTDB TOCID: Jh7Stkx.B9mQRQt657ULgkTjArU-] disk not present in database
Submit result: Jh7Stkx.B9mQRQt657ULgkTjArU- has been uploaded

==== Контрольная сумма отчёта 0D42F865778A157ACFB82A27A54B4C9A2A00C01F96AA5E629174EEFDD877C388 ====

------------------------------------------------------------

Exact Audio Copy V1.1 from 23. June 2015

Отчёт EAC об извлечении, выполненном 19. апреля 2016, 0:19

Артём Krest / Держись Пути

Дисковод: MATSHITADVD-RAM UJ8C0 Adapter: 1 ID: 0

Режим чтения : Достоверность
Использование точного потока : Да
Отключение кэша аудио : Да
Использование указателей C2 : Нет

Коррекция смещения при чтении : 103
Способность читать области Lead-in и Lead-out : Нет
Заполнение пропущенных сэмплов тишиной : Да
Удаление блоков с тишиной в начале и конце : Нет
При вычислениях CRC использовались нулевые сэмплы : Да
Интерфейс : Встроенный Win32-интерфейс для Win NT/2000
Обработка зазоров : Добавлено к предыдущему треку

Выходной формат : Пользовательский кодировщик
Выбранный битрейт : 128 kBit/s
Качество : Высокий
Добавление ID3-тега : Нет
Утилита сжатия : C:UserskorgmDownloadsAFF540DC.Unpacker_v7353qx4kg3sa!Appflac-1.3.1-win.zipflac-1.3.1-winwin64flac.exe
Дополнительные параметры : -V -8 -T "Date=%year%" -T "Genre=%genre%" %source%

TOC извлечённого CD

Трек | Старт | Длительность | Начальный сектор | Конечный сектор
---------------------------------------------------------------------
1 | 0:00.00 | 4:14.58 | 0 | 19107
2 | 4:14.58 | 4:45.39 | 19108 | 40521
3 | 9:00.22 | 3:31.10 | 40522 | 56356

Трек 1

Имя файла C:UserskorgmDesktopД пут флак1 Одержимая танцем (Michael Sembello - Maniac cover).wav

Длина предзазора 0:00:02.00

Пиковый уровень 100.0 %
Скорость извлечения 1.2 X
Качество трека 100.0 %
CRC теста F738C045
CRC копии F738C045
Трек не обнаружен в базе AccurateRip
Копирование... OK

Трек 2

Имя файла C:UserskorgmDesktopД пут флак2 Держись пути (A-ha - Stay on These Roads cover).wav

Пиковый уровень 100.0 %
Скорость извлечения 1.5 X
Качество трека 99.9 %
CRC теста 0C4B65DF
CRC копии 0C4B65DF
Трек не обнаружен в базе AccurateRip
Копирование... OK

Трек 3

Имя файла C:UserskorgmDesktopД пут флак3 Бой на выживание (Paul Hertzog cover).wav

Длина предзазора 0:00:00.01

Пиковый уровень 100.0 %
Скорость извлечения 1.5 X
Качество трека 99.9 %
CRC теста 96BDEC8F
CRC копии 96BDEC8F
Трек не обнаружен в базе AccurateRip
Копирование... OK

Ни одного трека нет в базе AccurateRip

Ошибок не произошло

Конец отчёта

---- CUETools DB Plugin V2.1.6

[CTDB TOCID: Jh7Stkx.B9mQRQt657ULgkTjArU-] disk not present in database
Submit result: Jh7Stkx.B9mQRQt657ULgkTjArU- has been uploaded

==== Контрольная сумма отчёта 0D42F865778A157ACFB82A27A54B4C9A2A00C01F96AA5E629174EEFDD877C388 ====


Содержание индексной карты (.CUE)

REM GENRE Rock
REM DATE 2015
REM DISCID 1A02EF03
REM COMMENT "ExactAudioCopy v1.1"
PERFORMER "Артём Krest"
TITLE "Держись Пути"
FILE "01 Одержимая танцем (Michael Sembello - Maniac cover).wav" WAVE
TRACK 01 AUDIO
TITLE "Одержимая танцем (Michael Sembello - Maniac cover)"
PERFORMER "Артём Krest"
INDEX 01 00:00:00
FILE "02 Держись пути (A-ha - Stay on These Roads cover).wav" WAVE
TRACK 02 AUDIO
TITLE "Держись пути (A-ha - Stay on These Roads cover)"
PERFORMER "Артём Krest"
INDEX 01 00:00:00
TRACK 03 AUDIO
TITLE "Бой на выживание (Paul Hertzog cover)"
PERFORMER "Артём Krest"
INDEX 00 04:45:38
FILE "03 Бой на выживание (Paul Hertzog cover).wav" WAVE
INDEX 01 00:00:00


Лог проверки качества


fooCDtect - foobar2000 + auCDtect, baralgin.

auCDtect: CD records authenticity detector, version 0.8.2
Copyright (c) 2004 Oleg Berngardt. All rights reserved.
Copyright (c) 2004 Alexander Djourik. All rights reserved.

mode: 0

===========================================
Track: Держись пути (A-ha - Stay on These Roads cover)

Processing file: [Держись пути (A-ha - Stay on These Roads cover).aucdtect]
Detected average hi-boundary frequency: 2.114257e+004 Hz
Detected average lo-boundary frequency: 1.780607e+004 Hz
Detected average hi-cut frequency: 2.187410e+004 Hz
Detected average lo-cut frequency: 1.619560e+004 Hz
Maximum probablis boundary frequency: 2.189100e+004 Hz
Coefficient of nonlinearity of a phase: 1.554184e-001
First order smothness: 5.624589e-001
Second order smothness: 5.223537e-001

------------------------------------------------------------
This track looks like CDDA with probability 100%

===========================================
Track: Бой на выживание (Paul Hertzog cover)

Processing file: [Бой на выживание (Paul Hertzog cover).aucdtect]
Detected average hi-boundary frequency: 2.111169e+004 Hz
Detected average lo-boundary frequency: 1.750534e+004 Hz
Detected average hi-cut frequency: 2.180651e+004 Hz
Detected average lo-cut frequency: 1.611749e+004 Hz
Maximum probablis boundary frequency: 2.189100e+004 Hz
Coefficient of nonlinearity of a phase: 8.364915e-002
First order smothness: 5.621090e-001
Second order smothness: 4.553172e-001

------------------------------------------------------------
This track looks like CDDA with probability 99%

===========================================
Track: Одержимая танцем (Michael Sembello - Maniac cover)

Processing file: [Одержимая танцем (Michael Sembello - Maniac cover).aucdtect]
Detected average hi-boundary frequency: 2.121438e+004 Hz
Detected average lo-boundary frequency: 1.710762e+004 Hz
Detected average hi-cut frequency: 2.188422e+004 Hz
Detected average lo-cut frequency: 1.924061e+004 Hz
Maximum probablis boundary frequency: 2.189100e+004 Hz
Coefficient of nonlinearity of a phase: 2.029570e-001
First order smothness: 5.288285e-001
Second order smothness: 5.857510e-001

------------------------------------------------------------
This track looks like CDDA with probability 100%

===========================================



2016 - Низший Слой (00


Треклист
01. Низший слой (Gojira - Silvera cover) (03:25)
Лог создания рипа

Exact Audio Copy V1.2 from 12. August 2016

Отчёт EAC об извлечении, выполненном 23. апреля 2017, 0:06

Нейтрон / Низший Слой

Дисковод: MATSHITADVD-RAM UJ8C0 Adapter: 1 ID: 0

Режим чтения : Достоверность
Использование точного потока : Да
Отключение кэша аудио : Да
Использование указателей C2 : Нет

Коррекция смещения при чтении : 103
Способность читать области Lead-in и Lead-out : Нет
Заполнение пропущенных сэмплов тишиной : Да
Удаление блоков с тишиной в начале и конце : Нет
При вычислениях CRC использовались нулевые сэмплы : Да
Интерфейс : Встроенный Win32-интерфейс для Win NT/2000
Обработка зазоров : Добавлено к предыдущему треку

Выходной формат : Пользовательский кодировщик
Выбранный битрейт : 128 kBit/s
Качество : Высокий
Добавление ID3-тега : Нет
Утилита сжатия : C:UserskorgmDownloadsAFF540DC.Unpacker_v7353qx4kg3sa!Appflac-1.3.1-win.zipflac-1.3.1-winwin64flac.exe
Дополнительные параметры : -V -8 -T "Genre=%genre%" -T "Artist=%artist%" -T "Title=%title%" -T "Album=%albumtitle%" -T "Date=%year%" -T "Tracknumber=%tracknr%" -T "Comment=%comment%" %source%

TOC извлечённого CD

Трек | Старт | Длительность | Начальный сектор | Конечный сектор
---------------------------------------------------------------------
1 | 0:00.00 | 3:25.01 | 0 | 15375

Трек 1

Имя файла C:UserskorgmDownloadsNeutrino FLACSolo ProjectsНейтрон2016 - Низший Слой1 Низший слой (Gojira - Silvera cover).wav

Длина предзазора 0:00:02.00

Пиковый уровень 100.0 %
Скорость извлечения 1.5 X
Качество трека 100.0 %
CRC теста D800D60F
CRC копии D800D60F
Точность не определена (достоверность 4) [BBA1CD68], AccurateRip вернул [FC979C87] (AR v2)
Копирование... OK

Ни один трек не прошёл проверки на точность
В вашей базе может быть иной вариант штамповки диска

Ошибок не произошло

Конец отчёта

---- CUETools DB Plugin V2.1.6

[CTDB TOCID: S95zEKkXNMZKDvHOXbj8..0wIn8-] found
Submit result: S95zEKkXNMZKDvHOXbj8..0wIn8- has been submitted
Track | CTDB Status
1 | (0/4) No match

==== Контрольная сумма отчёта 4431B4DA3F9BB5B31D66D2A4A54D538D119934A32A0A79FEE1F3D5D4D977C73D ====

Лог проверки качества

fooCDtect - foobar2000 + auCDtect, baralgin.

auCDtect: CD records authenticity detector, version 0.8.2
Copyright (c) 2004 Oleg Berngardt. All rights reserved.
Copyright (c) 2004 Alexander Djourik. All rights reserved.

mode: 0

===========================================
Track: 01 Низший слой (Gojira - Silvera cover)

Processing file: [01 Низший слой (Gojira - Silvera cover).aucdtect]
Detected average hi-boundary frequency: 2.072402e+004 Hz
Detected average lo-boundary frequency: 1.587427e+004 Hz
Detected average hi-cut frequency: 2.164906e+004 Hz
Detected average lo-cut frequency: 1.703681e+004 Hz
Maximum probablis boundary frequency: 2.189100e+004 Hz
Coefficient of nonlinearity of a phase: 4.430015e-001
First order smothness: 4.667274e-001
Second order smothness: 4.225160e-001

------------------------------------------------------------
This track looks like CDDA with probability 100%

===========================================





Об исполнителе (группе)


Группа "Neutrino" (Нейтрино) появилась в 2011 году в подмосковном городе Электросталь. Первое время стиль музыки балансировал между power metal и русским роком. К 2013 году стиль изменился в сторону sympho-industrial metal, а к 2014 году и вовсе вылез за все возможные рамки. Нельзя дать однозначного определения такому направлению, как experimental metal. Под этим жанром можно понимать всё, что угодно, но если говорить о неизменных вещах, касающихся именно Neutrino, то в песнях преобладает чистый вокал, насыщенные аранжировки, разнообразие клавишных эффектов и хорошо продуманные тексты.



Состав


Действующий состав:

Артём Нейтрон - vocals
Алексей Шутин - guitar
Илья Лещенко - bass
Борис Пронин - keyboards
Александр Сорокин - drums

Бывшие участники:

Виктор Панков - drums
Алексей Белов - guitar
Сергей Новиков - bass


Наши страницы


Сайт:
neutrino-metal.com

Вконтакте:
vk.com/neutrino_metal

Одноклассники:
ok.ru/neutrinometal

Facebook:
facebook.com/neutrino.metal

Twitter:
twitter.com/Neutrino_Metal

Instagram:
www.instagram.com/neutrino_rus

YouTube:
youtube.com/user/metalneutrino


07.05.2017 - Добавлен EP "Восемь Дней", Сингл "Низший Слой" (Нейтрон). Удалены трибьюты как отдельные релизы (они в пересведённом виде есть в EP "Восемь Дней"). Артём Krest переименован в Нейтрон, заменены обложки в папках, заменена обложка в тегах "Осколки Мира", переименованы папки "Albums, EPs, Tributes" на "Albums, EPs", "Solo Project" на "Solo Projects", релиз "Вторжение С Небес (Инструментал)" переименован во "Вторжение С Небес (Instrumental)".

19
мая
2015

Neutrino, Нейтрон - Дискография [2012-2017, Melodic, Power, Progressive, Industrial, Experimental, Symphonic Metal, MP3]

Формат: MP3, tracks, 320kbps
Год выпуска: 2012-2017
Страна: Россия
Жанр: Melodic, Power, Progressive, Industrial, Experimental, Symphonic Metal
Продолжительность: 02:46:22
Описание: Albums, EPs 2012 - Осколки Мира (00 Треклист 01. Интро (01:22) 02. Кто ты в этом мире? (03:47) 03. Братство волков (04:10) 04. День и ночь (03:43) 05. Старый двор (03:46) 06. Осколки мира (05:22) 07. Ангел света и тьмы (04:30) 08. Опасная зона (04:32) 09. Твой судный день (05:03) 10. Зов твоего сердца (04:15) 2013 - Вторжение С Небес (00 Треклист 01. Акт 1. Затмение человечества (02:26) 02. Эволюция войны (07: ...

02
фев
2013

Matt Davey Neutrino [21.01.2013, Trance, MP3]

Формат: MP3, tracks, 320kbps
Год выпуска: 21.01.2013
Страна: All World
Жанр: Trance
Продолжительность: 00:11:45
Описание: 01. Neutrino (Original Mix) 02. Neutrino (Radio Edit)

31
мая
2012

Neutrino - Осколки мира [2012, Power Metall, MP3]

Формат: MP3, tracks, 320kbps
Год выпуска: 2012
Страна: Россия
Жанр: Power Metall
Продолжительность: 00:40:22
Описание: 01 Интро 00:01:21 02 Кто ты в этом мире 00:03:46 03 Братство волков 00:04:09 04 День и ночь 00:03:42 05 Старый двор 00:03:46 06 Осколки мира 00:05:19 07 Ангел света и тьмы 00:04:29 08 Опасная зона 00:04:31 09 Твой судный день 00:05:02 10 Зов твоего сердца 00:04:14
Доп. информация: Neutrino - команда играющая power metal с различными ответвлениями в музыке тяжелого рока (EX-Опасная Zона) Исполнение песен согласовано с их авторами Все права защищены! (c)

17
апр
2012

The The - Дискография [1981 - 2002, Post-Punk, Alternative, MP3]

Формат: MP3, tracks, 192 - 320kbps
Год выпуска: 1981 - 2002
Страна: United Kingdom
Жанр: Post-Punk, Alternative
Продолжительность: 10:05:20
Описание: The The (Matt Johnson) Альбомы 1981 - Burning Blue Soul 00 01. "Red Cinders in the Sand" - 5:42 02. "Song Without an Ending" - 4:35 03. "Time (Again) for the Golden Sunset" - 3:51 04. "Icing Up" - 7:36 05. "(Like a) Sun Rising Through My Garden" - 5:01 06. "Out of Control" - 2:01 07. "Bugle Boy" - 2:27 08. "Delirious" - 3:33 09. "The River Flows East in Spring" - 3:33 10. "Another Boy Drowning" - 5:53 1983 - Soul Mining 00 01. "I've Been Waiting ...

08
ноя
2011

Down - Дискография [1995-2010, Heavy metal, Sludge metal, Stoner metal, MP3]

Формат: MP3, tracks, 320kbps
Год выпуска: 1995-2010
Страна: США
Жанр: Heavy metal, Sludge metal, Stoner metal
Продолжительность: 05:10:08
Описание: Down - NOLA 1995 00 1. Temptation's Wings 4:24 2. Lifer 4:36 3. Pillars of Eternity 3:57 4. Rehab 4:03 5. Hail the Leaf 3:28 6. Underneath Everything 4:46 7. Eyes of the South 5:13 8. Jail 5:17 9. Losing All 4:21 10. Stone the Crow 4:42 11. Pray for the Locust 1:07 12. Swan Song 3:35 13. Bury Me in Smoke 7:04 Down II - A Bustle in Your Hedgerow 2001 01 1. Lysergik Funeral Procession 3:10 2. There's Something on My Side 5:21 3. The Man that Follows ...

24
сен
2016

Seven - Дискография [2014 - 2016, Hard Rock, MP3]

Формат: MP3, tracks, 320kbps
Год выпуска: 2014 - 2016
Страна: UK
Жанр: Hard Rock
Продолжительность: 01:51:22
Описание: 2014 - 7, 00 01. Shoot To Kill 02. Inside Love 03. Diana 04. Still 05. Headlines 06. Strangers 07. America 08. Thru The Night 09. Never Too Late 10. Don't Break My Heart 11. Say Goodbye 12. Charlie 13. Just Close Your Eyes 14. Man With A Vision 15. Stranger (In The Night) 2016 - Shattered, 00 01. Light Of 1000 Eyes 02. A Better Life 03. Fight 04. Shattered 05. Live This Life 06. Pieces Of You 07. Broken Dream 08. High Hopes 09. I Needed Time 10. Taking Over 11. Last Illusion ...

29
дек
2010

No One - Дискография [2001 - 2003, Nu Metal, MP3]

Формат: MP3, tracks, 128-320kbps [VBR]
Год выпуска: 2001 - 2003
Страна: С.Ш.А.
Жанр: Nu Metal
Продолжительность: 00:57:59
Описание: 2001 - No One 00 01 - Down On Me 02:42 02 - Chemical 03:41 03 - It's Real 03:00 04 - Shedding 03:49 05 - My Release 03:18 06 - Again 03:33 07 - Cut 03:20 08 - Nothing 03:04 09 - Inside Out 01:36 10 - Mindless 04:10 11 - Breathe 03:38 12 - Hype 03:14 13 - Falling 05:192003 - Unreleased Tracks 00 01 - I Want Everything (Demo) 02:56 02 - Let Me In (Demo) 03:35 03 - Redeemer 03:32 04 - Chemical (Remix) 03:26
Доп. информация: Краткое инфо об альбоме 2001 - No OneДебютн ...

17
июл
2009

The Used - Дискография [2002 - 2009, Mall-Emo]

Формат: MP3, tracks
Год выпуска: 2002 - 2009
Общая продолжительность: 02:46:47
Страна:
Жанр: Mall-Emo [br][br][br][br][br][br][br][br][br][br][br][br][br][br][br][br][br][br][br][br][br][br][br][br]
Дискография: The Used (2002) Битрейт / Bitrate: 320 kbps Трэклист / Tracklist: 1. Maybe memories 2. The taste of ink 3. Bulimic 4. Say days ago 5. Poetic tragedy 6. Buried myself alive 7. A box full of sharp objects 8. Blue and yellow 9. Greener with the scenery 10. Noise and kisses 11. On my own 12. Pieces mended In Love & Death (2004) Битрейт / Bitrate: 320 kbps Трэклист / Tracklist ...

15
июн
2016

After All - Дискография [1997 - 2016, Thrash Metal, MP3]

Формат: MP3, tracks, 320kbps
Год выпуска: 1997 - 2016
Страна: Бельгия
Жанр: Thrash Metal
Продолжительность: 05:56:25
Описание: 1997 - Transcendent, 00 01. Sixteen, Black Sunday 02. Behind The Mask (Pt. 1) 03. The Force Within 04. Darkest Rage 05. Burn A Hole 06. Damaged Trust 07. The Last Sigh 08. Selfdestruct 09. On Forbidden Grounds 10. The Avenger 11. Visionary Thoughts 12. June 13. Behind The Mask (Pt. 2) 2000 - Dead Loss, 00 01. Erase Your Past 02. Self, Inflicted 03. A Sweet Departure 04. Fragments Of Time 05. Condemned Heritage 06. Into The Sun 07. Reflection Of The Light 08. Lost, Ins ...

25
окт
2009

Down - Дискография [1991, Southern Metal]

Формат: MP3, tracks, 160-320Kbps
Год выпуска: 1991
Страна: США
Жанр: Southern Metal
Описание: Дискография. Группа Down – непростая группа. По той причине, что это – супергруппа. И не столько потому, что в её составе числятся Филип Ансельмо, Rex Brown (половина Pantera), Pepper Kinan (Corrosion Of Conformity), Kirk Windstein (Crowbar) и Kirk Bauer (Eyehategod). Down играют супермузыку – настоящий, если не сказать эталонный, тяжелый рок на стыке Black Sabbath, Led Zeppelin и Pantera. Slow, Heavy, Psychedelic & Southern – формула Down. И пусть группу до сих можно назвать сайд-проектом, в особенно ...

19
июл
2017

Oh Wonder - Дискография [2015 - 2017, Indie Pop, Electropop, MP3]

Формат: MP3, tracks, 320kbps
Год выпуска: 2015 - 2017
Страна: UK
Жанр: Indie Pop, Electropop
Продолжительность: 01:36:32
Описание: 2015 - Oh Wonder, 00 01. Livewire 02. Body Gold 03. Technicolour Beat 04. Drive 05. Lose It 06. Landslide 07. White Blood 08. Without You 09. The Rain 10. Dazzle 11. All We Do 12. Midnight Moon 13. Shark 14. Heart Hope 15. Plans 2017 - Ultralife, 00 01. Solo 02. Ultralife 03. Lifetimes 04. High On Humans 05. All About You 06. Heavy 07. Bigger Than Love 08. Heart Strings 09. Slip Away 10. Overgrown 11. My Friends 12. Waste

27
мая
2011

Zero Nine - Дискография [1982-2009, Rock, Hard Rock, MP3]

Формат: MP3, tracks, 192-320kbps
Год выпуска: 1982-2009
Страна: Finland
Жанр: Rock, Hard Rock
Продолжительность: 07:08:47
Описание: 1982 Visions, Scenes and Dreams 00 01.Vision, Scenes And Dreams 3:50 02.In The Drizzlin' Rain 3:35 03.Down The Line 4:09 04.Once Again 4:19 05.Steamroller 2:57 06.Who?s Gonna Cry Now 3:24 07.I'm Gonna Try 3:02 08.Land Of Rhinos 2:52 09.I'm Steamin' Away 3:54 10.Dreamless World 5:52
Состав: Kepa Salmirinne - Vocals Mara Mantyniemi - Guitar Iso-T Kasma - Guitar Jarski Jaakkola - Bass Borno Korpela - Drums Iro Murtola - Keyboards1982 Blank Verse 00 01.I Don't Wa ...

04
ноя
2017

The Well - Дискография [2014 - 2016, Psychedelic Stoner Metal, MP3]

Формат: MP3, tracks, 320kbps
Год выпуска: 2014 - 2016
Страна: USA
Жанр: Psychedelic Stoner Metal
Продолжительность: 01:28:34
Описание: 2014 - Samsara, 00 01. Mortal Bones 02. Trespass 03. 1000 Lies 04. Lucifer Sam 05. Refuge 06. The Eternal Well 07. Dragon Snort 08. I Bring The Light 2016 - Pagan Science, 00 01. Black Eyed Gods 02. Forecast 03. Skybound 04. A Pilgrimage 05. Drug From The Banks 06. Byzantine 07. One Nation 08. Choir Of The Stars 09. Brambles 10. I Don't Believe 11. Guinevere

02
ноя
2012

Stryper - Дискография [1984-2011, Heavy Metal,Glam Metal,Christian Metal, MP3]

Формат: MP3, tracks, 320kbps
Год выпуска: 1984-2011
Страна: USA
Жанр: Heavy Metal, Glam Metal, Christian Metal
Продолжительность: 05:40:36
Описание: 1984 - The Yellow And Black Attack 00 01 Loud `N` Clear (3:30) 02 From Wrong To Right (3:49) 03 My Love I'll Always Show (3:35) 04 You Know What To Do (4:46) 05 Co'Mon Rock (3:44) 06 You Won''t Be Lonely (3:41) 07 Loving You (4:13) 08 Reason For The Season (6:30)1985 - Soldiers Under Command 00 01 Soldiers Under Command (5:04) 02 Makes Me Wanna Sing (2:52) 03 Together Forever (4:03) 04 First Love (5:48 ) 05 The Rock That Makes Me Roll (4:59) 06 ...

08
ноя
2012

Eisbrecher - Дискография [2008 - 2011, Neue Deutsche Harte, Industrial Metal,Gothic Metal, MP3]

Формат: MP3, tracks, 320kbps
Год выпуска: 2008 - 2011
Страна: Germany
Жанр: Neue Deutsche Harte, Industrial Metal, Gothic Metal
Продолжительность: 03:51:34
Описание: 2008. Sunde (Deluxe Edition) 0101. Kann Denn Liebe Sunde Sein? 02. Alkohol 03. Komm Susser Tod 04. Heilig 05. Verdammt Sind 06. Die Durch Die Holle Gehen 07. Herzdieb 08. 1000 Flammen 09. This Is Deutsch 10. Zu Sterben 11. Mehr Licht 13. Blut Und Tranen 14. This Is Deutsch (SITD Remix) 15. Alkohol (Rotersand Remix) 16. Kann Denn Liebe Sunde Sein? (SITD-Remix) 2010. Eiszeit 0001. Bose Madchen 02. Eiszeit 03. Bombe 04. Gothkiller ( ...