14
мая
2010

Linkin Park - Дискография [2000-2009, Alternative, Rapcore, Nu Metal, FLAC, lossless]

Linkin Park - Дискография

Формат: FLAC, (tracks + .cue), lossless
Год выпуска: 2000-2009
Страна: USA
Жанр: Alternative, Rapcore, Nu Metal
Продолжительность: 14:26:30

Описание:
Albums
2000 - Hybrid Theory


• Cat # : 9 47755-2
• Label: Warner Bros. Records
• Country: USA
• Released: October 24, 2000
• Format: CD, Album, Jewelcase
• Tracks:
01. Papercut
02. One Step Closer
03. With You
04. Points Of Authority
05. Crawling
06. Runaway
07. By Myself
08. In The End
09. A Place For My Head
10. Forgotten
11. Cure For The Itch
12. Pushing Me Away




Лог EAC

Exact Audio Copy V0.99 prebeta 4 from 23. January 2008
Отчёт EAC об извлечении, выполненном 2. декабря 2008, 19:39
Linkin Park / Hybrid Theory
Дисковод: Optiarc DVD RW AD-7203A Adapter: 0 ID: 0
Режим чтения : Достоверность
Использование точного потока : Да
Отключение кэша аудио : Да
Использование указателей C2 : Нет
Коррекция смещения при чтении : 48
Способность читать области Lead-in и Lead-out : Нет
Заполнение пропущенных сэмплов тишиной : Да
Удаление блоков с тишиной в начале и конце : Нет
При вычислениях CRC использовались нулевые сэмплы : Да
Интерфейс : Установленный внешний ASPI-интерфейс
Обработка зазоров : Не обнаружено, добавлено к предыдущему треку
Выходной формат : Пользовательский кодировщик
Выбранный битрейт : 320 kBit/s
Качество : Высокий
Добавление ID3-тэга : Да
Утилита сжатия : C:Program FilesFLACflac.exe
Дополнительные параметры : --best -T "ARTIST=%a" -T "TITLE=%t" -T "ALBUM=%g" -T "DATE=%y" -T "TRACKNUMBER=%n" -T "GENRE=%m" %s
TOC извлечённого CD
Трек | Старт | Длительность | Начальный сектор | Конечный сектор
---------------------------------------------------------------------
1 | 0:00.32 | 3:04.53 | 32 | 13884
2 | 3:05.10 | 2:35.50 | 13885 | 25559
3 | 5:40.60 | 3:23.20 | 25560 | 40804
4 | 9:04.05 | 3:20.20 | 40805 | 55824
5 | 12:24.25 | 3:29.00 | 55825 | 71499
6 | 15:53.25 | 3:03.70 | 71500 | 85294
7 | 18:57.20 | 3:09.60 | 85295 | 99529
8 | 22:07.05 | 3:36.22 | 99530 | 115751
9 | 25:43.27 | 3:04.45 | 115752 | 129596
10 | 28:47.72 | 3:14.35 | 129597 | 144181
11 | 32:02.32 | 2:37.15 | 144182 | 155971
12 | 34:39.47 | 3:11.60 | 155972 | 170356
Трек 1
Имя файла Y:_Extract_tempLinkin Park - Hybrid Theory1-Papercut.wav
Пиковый уровень 100.0 %
Качество трека 100.0 %
CRC теста 46BD7A3C
CRC копии 46BD7A3C
Точное извлечение (достоверность 20) [CA903218]
Копирование... OK
Трек 2
Имя файла Y:_Extract_tempLinkin Park - Hybrid Theory2-One Step Closer.wav
Пиковый уровень 98.8 %
Качество трека 100.0 %
CRC теста AD9E0492
CRC копии AD9E0492
Точное извлечение (достоверность 20) [10E0EAE8]
Копирование... OK
Трек 3
Имя файла Y:_Extract_tempLinkin Park - Hybrid Theory3-With You.wav
Пиковый уровень 98.8 %
Качество трека 100.0 %
CRC теста CAD5517E
CRC копии CAD5517E
Точное извлечение (достоверность 20) [E0D09B1F]
Копирование... OK
Трек 4
Имя файла Y:_Extract_tempLinkin Park - Hybrid Theory4-Points Of Authority.wav
Пиковый уровень 98.8 %
Качество трека 100.0 %
CRC теста 0EC059A2
CRC копии 0EC059A2
Точное извлечение (достоверность 20) [E075C5D7]
Копирование... OK
Трек 5
Имя файла Y:_Extract_tempLinkin Park - Hybrid Theory5-Crawling.wav
Пиковый уровень 98.8 %
Качество трека 100.0 %
CRC теста 4EEF73A7
CRC копии 4EEF73A7
Точное извлечение (достоверность 20) [1FD799CC]
Копирование... OK
Трек 6
Имя файла Y:_Extract_tempLinkin Park - Hybrid Theory6-Runaway.wav
Пиковый уровень 98.8 %
Качество трека 99.9 %
CRC теста 052DEBAB
CRC копии 052DEBAB
Точное извлечение (достоверность 19) [021452CD]
Копирование... OK
Трек 7
Имя файла Y:_Extract_tempLinkin Park - Hybrid Theory7-By Myself.wav
Пиковый уровень 98.8 %
Качество трека 100.0 %
CRC теста 137188F1
CRC копии 137188F1
Точное извлечение (достоверность 20) [14E7C412]
Копирование... OK
Трек 8
Имя файла Y:_Extract_tempLinkin Park - Hybrid Theory8-In The End.wav
Пиковый уровень 98.8 %
Качество трека 100.0 %
CRC теста 4ED55A5B
CRC копии 4ED55A5B
Точное извлечение (достоверность 20) [03B67396]
Копирование... OK
Трек 9
Имя файла Y:_Extract_tempLinkin Park - Hybrid Theory9-A Place For My Head.wav
Пиковый уровень 100.0 %
Качество трека 99.9 %
CRC теста 3ED0B5A0
CRC копии 3ED0B5A0
Точное извлечение (достоверность 19) [8621C2DE]
Копирование... OK
Трек 10
Имя файла Y:_Extract_tempLinkin Park - Hybrid Theory10-Forgotten.wav
Пиковый уровень 99.1 %
Качество трека 100.0 %
CRC теста 8319810E
CRC копии 8319810E
Точное извлечение (достоверность 19) [75CAA75E]
Копирование... OK
Трек 11
Имя файла Y:_Extract_tempLinkin Park - Hybrid Theory11-Cure For The Itch.wav
Пиковый уровень 98.8 %
Качество трека 100.0 %
CRC теста 94BF85A4
CRC копии 94BF85A4
Точное извлечение (достоверность 19) [D9E787F0]
Копирование... OK
Трек 12
Имя файла Y:_Extract_tempLinkin Park - Hybrid Theory12-Pushing Me Away.wav
Пиковый уровень 98.8 %
Качество трека 100.0 %
CRC теста F5B965A2
CRC копии F5B965A2
Точное извлечение (достоверность 20) [D86C0DDB]
Копирование... OK
Все треки извлечены точно
Ошибок не произошло
Конец отчёта
2002 - Reanimation


• Cat # : 9362-48326-2 begin_of_the_skype_highlighting              9362-48326-2      end_of_the_skype_highlighting begin_of_the_skype_highlighting              9362-48326-2      end_of_the_skype_highlighting
• Label: Warner Bros. Records / Machine Shop Recordings
• Country: Germany
• Released: July 29, 2002
• Format: CD, Enhanced, Album, Jewelcase
• Tracks:
01. OPENING
02. PTS.OF.ATHRTY//Jay Gordon
03. ENTH E ND//Kutmasta Kurt feat. Motion Man
04. [CHALI]
05. FRGT/10//Alchemist feat. Chali 2na
06. P5HNG ME A*WY//Mike Shinoda feat. Stephen Richards
07. PLC.4 MIE HAED// Amp Live feat. Zion
08. X-ECUTIONER STYLE//feat. Black Thought
09. H! VLTG3//Evidence feat. Pharoahe Monch & DJ Babu
10. [RIFF RAFF]
11. WTH YOU//Chairman Hahn feat. Aceyalone
12. NTRMSSION
13. PPR:KUT//Cheapshot & Jubacca feat. Rasco & Planet Asia
14. RNW@Y//Backyard Bangers feat. Phoenix Orion
15. MY DSMBR//Mickey P. feat. Kelli Ali
16. [STEF]
17. BY_MYSLF//Josh Abraham & Mike Shinoda
18. KYUR4 TH ICH//Chairman Hahn
19. 1STP KLOSR//The Humble Brothers feat. Jonathan Davis
20. KRWLNG//Mike Shinoda feat. Aaron Lewis
21. PTS.OF.ATHRTY (Video)




Лог EAC

Exact Audio Copy V0.99 prebeta 4 from 23. January 2008
Отчёт EAC об извлечении, выполненном 2. декабря 2008, 20:34
Linkin Park / [Reanimation]
Дисковод: Optiarc DVD RW AD-7203A Adapter: 0 ID: 0
Режим чтения : Достоверность
Использование точного потока : Да
Отключение кэша аудио : Да
Использование указателей C2 : Нет
Коррекция смещения при чтении : 48
Способность читать области Lead-in и Lead-out : Нет
Заполнение пропущенных сэмплов тишиной : Да
Удаление блоков с тишиной в начале и конце : Нет
При вычислениях CRC использовались нулевые сэмплы : Да
Интерфейс : Установленный внешний ASPI-интерфейс
Обработка зазоров : Не обнаружено, добавлено к предыдущему треку
Выходной формат : Пользовательский кодировщик
Выбранный битрейт : 320 kBit/s
Качество : Высокий
Добавление ID3-тэга : Да
Утилита сжатия : C:Program FilesFLACflac.exe
Дополнительные параметры : --best -T "ARTIST=%a" -T "TITLE=%t" -T "ALBUM=%g" -T "DATE=%y" -T "TRACKNUMBER=%n" -T "GENRE=%m" %s
TOC извлечённого CD
Трек | Старт | Длительность | Начальный сектор | Конечный сектор
---------------------------------------------------------------------
1 | 0:00.00 | 1:07.42 | 0 | 5066
2 | 1:07.42 | 3:45.39 | 5067 | 21980
3 | 4:53.06 | 3:59.72 | 21981 | 39977
4 | 8:53.03 | 0:23.56 | 39978 | 41758
5 | 9:16.59 | 3:32.28 | 41759 | 57686
6 | 12:49.12 | 4:37.73 | 57687 | 78534
7 | 17:27.10 | 4:20.56 | 78535 | 98090
8 | 21:47.66 | 1:49.37 | 98091 | 106302
9 | 23:37.28 | 3:30.55 | 106303 | 122107
10 | 27:08.08 | 0:21.68 | 122108 | 123750
11 | 27:30.01 | 4:12.23 | 123751 | 142673
12 | 31:42.24 | 0:29.30 | 142674 | 144878
13 | 32:11.54 | 3:26.26 | 144879 | 160354
14 | 35:38.05 | 3:13.30 | 160355 | 174859
15 | 38:51.35 | 4:17.44 | 174860 | 194178
16 | 43:09.04 | 0:10.02 | 194179 | 194930
17 | 43:19.06 | 3:42.33 | 194931 | 211613
18 | 47:01.39 | 2:32.64 | 211614 | 223077
19 | 49:34.28 | 5:46.03 | 223078 | 249030
20 | 55:20.31 | 5:40.19 | 249031 | 274549
21 | 63:32.50 | 7:32.46 | 285950 | 319895
Трек 1
Имя файла Y:_Extract_tempLinkin Park - [Reanimation]1-OPENING.wav
Пиковый уровень 82.4 %
Качество трека 100.0 %
CRC теста CD4DF5B1
CRC копии CD4DF5B1
Точное извлечение (достоверность 59) [592D7558]
Копирование... OK
Трек 2
Имя файла Y:_Extract_tempLinkin Park - [Reanimation]2-PTS.OF.ATHRTY,,Jay Gordon.wav
Пиковый уровень 98.8 %
Качество трека 100.0 %
CRC теста 5FC7A2D0
CRC копии 5FC7A2D0
Точное извлечение (достоверность 59) [AF9D7946]
Копирование... OK
Трек 3
Имя файла Y:_Extract_tempLinkin Park - [Reanimation]3-ENTH E ND,,Kutmasta Kurt feat. Motion Man.wav
Пиковый уровень 98.8 %
Качество трека 100.0 %
CRC теста E11E8CD8
CRC копии E11E8CD8
Точное извлечение (достоверность 59) [C1B0A215]
Копирование... OK
Трек 4
Имя файла Y:_Extract_tempLinkin Park - [Reanimation]4-[CHALI].wav
Пиковый уровень 43.1 %
Качество трека 100.0 %
CRC теста 3A0CE99C
CRC копии 3A0CE99C
Точное извлечение (достоверность 61) [3DC84470]
Копирование... OK
Трек 5
Имя файла Y:_Extract_tempLinkin Park - [Reanimation]5-FRGT,10,,Alchemist feat. Chali 2na.wav
Пиковый уровень 99.9 %
Качество трека 100.0 %
CRC теста F0F34D12
CRC копии F0F34D12
Точное извлечение (достоверность 61) [19E29FF7]
Копирование... OK
Трек 6
Имя файла Y:_Extract_tempLinkin Park - [Reanimation]6-P5HNG ME AxWY,,Mike Shinoda feat. Stephen Richards.wav
Пиковый уровень 99.9 %
Качество трека 100.0 %
CRC теста EA4DC165
CRC копии EA4DC165
Точное извлечение (достоверность 59)
Копирование... OK
Трек 7
Имя файла Y:_Extract_tempLinkin Park - [Reanimation]7-PLC.4 MIE HAED,, Amp Live feat. Zion.wav
Пиковый уровень 99.3 %
Качество трека 100.0 %
CRC теста 944B2B90
CRC копии 944B2B90
Точное извлечение (достоверность 59) [39A8FFE2]
Копирование... OK
Трек 8
Имя файла Y:_Extract_tempLinkin Park - [Reanimation]8-X-ECUTIONER STYLE,,feat. Black Thought.wav
Пиковый уровень 100.0 %
Качество трека 100.0 %
CRC теста 0B3822C1
CRC копии 0B3822C1
Точное извлечение (достоверность 59) [6721F4F7]
Копирование... OK
Трек 9
Имя файла Y:_Extract_tempLinkin Park - [Reanimation]9-H! VLTG3,,Evidence feat. Pharoahe Monch & DJ Babu.wav
Пиковый уровень 100.0 %
Качество трека 100.0 %
CRC теста D0345C8F
CRC копии D0345C8F
Точное извлечение (достоверность 59) [00525F2D]
Копирование... OK
Трек 10
Имя файла Y:_Extract_tempLinkin Park - [Reanimation]10-[RIFF RAFF].wav
Пиковый уровень 65.2 %
Качество трека 99.5 %
CRC теста 1E97ACF7
CRC копии 1E97ACF7
Точное извлечение (достоверность 60) [A6CA7CCE]
Копирование... OK
Трек 11
Имя файла Y:_Extract_tempLinkin Park - [Reanimation]11-WTH]YOU,,Chairman Hahn feat. Aceyalone.wav
Пиковый уровень 98.8 %
Качество трека 100.0 %
CRC теста 770751E7
CRC копии 770751E7
Точное извлечение (достоверность 58) [75773587]
Копирование... OK
Трек 12
Имя файла Y:_Extract_tempLinkin Park - [Reanimation]12-NTR-MSSION.wav
Пиковый уровень 39.4 %
Качество трека 100.0 %
CRC теста C42F6851
CRC копии C42F6851
Точное извлечение (достоверность 60) [FF0834E2]
Копирование... OK
Трек 13
Имя файла Y:_Extract_tempLinkin Park - [Reanimation]13-PPR-KUT,,Cheapshot & Jubacca feat. Rasco & Planet Asia.wav
Пиковый уровень 98.8 %
Качество трека 100.0 %
CRC теста A9EEDF86
CRC копии A9EEDF86
Точное извлечение (достоверность 58) [4A1885A3]
Копирование... OK
Трек 14
Имя файла Y:_Extract_tempLinkin Park - [Reanimation]14-RNW@Y,,Backyard Bangers feat. Phoenix Orion.wav
Пиковый уровень 100.0 %
Качество трека 100.0 %
CRC теста D2BEBFC7
CRC копии D2BEBFC7
Точное извлечение (достоверность 58) [AEEFBD33]
Копирование... OK
Трек 15
Имя файла Y:_Extract_tempLinkin Park - [Reanimation]15-MY[DSMBR,,Mickey P. feat. Kelli Ali.wav
Пиковый уровень 98.8 %
Качество трека 100.0 %
CRC теста 2C600513
CRC копии 2C600513
Точное извлечение (достоверность 56) [CC96B561]
Копирование... OK
Трек 16
Имя файла Y:_Extract_tempLinkin Park - [Reanimation]16-[STEF].wav
Пиковый уровень 46.5 %
Качество трека 100.0 %
CRC теста 3C95FD1C
CRC копии 3C95FD1C
Точное извлечение (достоверность 59) [9C327459]
Копирование... OK
Трек 17
Имя файла Y:_Extract_tempLinkin Park - [Reanimation]17-BY_MYSLF,,Josh Abraham & Mike Shinoda.wav
Пиковый уровень 98.8 %
Качество трека 100.0 %
CRC теста 5B78AA24
CRC копии 5B78AA24
Точное извлечение (достоверность 57) [FF53A7A5]
Копирование... OK
Трек 18
Имя файла Y:_Extract_tempLinkin Park - [Reanimation]18-KYUR4 TH ICH,,Chairman Hahn.wav
Пиковый уровень 98.8 %
Качество трека 100.0 %
CRC теста A3D047BB
CRC копии A3D047BB
Точное извлечение (достоверность 56) [618D596B]
Копирование... OK
Трек 19
Имя файла Y:_Extract_tempLinkin Park - [Reanimation]19-1STP KLOSR,,The Humble Brothers feat. Jonathan Davis.wav
Пиковый уровень 98.8 %
Качество трека 100.0 %
CRC теста 9B2D493E
CRC копии 9B2D493E
Точное извлечение (достоверность 55) [251E76B0]
Копирование... OK
Трек 20
Имя файла Y:_Extract_tempLinkin Park - [Reanimation]20-KRWLNG,,Mike Shinoda feat. Aaron Lewis.wav
Пиковый уровень 98.8 %
Качество трека 100.0 %
CRC теста E1CE6C81
CRC копии E1CE6C81
Точное извлечение (достоверность 55) [4A214781]
Копирование... OK
Все треки извлечены точно
Ошибок не произошло
Конец отчёта
2003 - Meteora


• Cat # : 9362-48463-2
• Label: Warner Bros. Records / Machine Shop Recordings
• Country: Germany
• Released: March 24, 2003
• Format: CD/DVD, Enhanced, Special Edition, Digipak
• Tracks:
01. Foreword
02. Don't Stay
03. Somewhere I Belong
04. Lying From You
05. Hit The Floor
06. Easier To Run
07. Faint
08. Figure.09
09. Breaking The Habit
10. From The Inside
11. Nobody's Listening
12. Session
13. Numb
14. The Art Of Meteora (Video)
15. LPU 2.0 Promo (Video)




Лог EAC

Exact Audio Copy V0.99 prebeta 4 from 23. January 2008
Отчёт EAC об извлечении, выполненном 2. декабря 2008, 21:34
Linkin Park / Meteora
Дисковод: Optiarc DVD RW AD-7203A Adapter: 0 ID: 0
Режим чтения : Достоверность
Использование точного потока : Да
Отключение кэша аудио : Да
Использование указателей C2 : Нет
Коррекция смещения при чтении : 48
Способность читать области Lead-in и Lead-out : Нет
Заполнение пропущенных сэмплов тишиной : Да
Удаление блоков с тишиной в начале и конце : Нет
При вычислениях CRC использовались нулевые сэмплы : Да
Интерфейс : Установленный внешний ASPI-интерфейс
Обработка зазоров : Не обнаружено, добавлено к предыдущему треку
Выходной формат : Пользовательский кодировщик
Выбранный битрейт : 320 kBit/s
Качество : Высокий
Добавление ID3-тэга : Да
Утилита сжатия : C:Program FilesFLACflac.exe
Дополнительные параметры : --best -T "ARTIST=%a" -T "TITLE=%t" -T "ALBUM=%g" -T "DATE=%y" -T "TRACKNUMBER=%n" -T "GENRE=%m" %s
TOC извлечённого CD
Трек | Старт | Длительность | Начальный сектор | Конечный сектор
---------------------------------------------------------------------
1 | 0:00.00 | 0:13.33 | 0 | 1007
2 | 0:13.33 | 3:07.70 | 1008 | 15102
3 | 3:21.28 | 3:33.70 | 15103 | 31147
4 | 6:55.23 | 2:55.04 | 31148 | 44276
5 | 9:50.27 | 2:44.16 | 44277 | 56592
6 | 12:34.43 | 3:24.13 | 56593 | 71905
7 | 15:58.56 | 2:42.08 | 71906 | 84063
8 | 18:40.64 | 3:17.38 | 84064 | 98876
9 | 21:58.27 | 3:16.10 | 98877 | 113586
10 | 25:14.37 | 2:55.38 | 113587 | 126749
11 | 28:10.00 | 2:58.65 | 126750 | 140164
12 | 31:08.65 | 2:24.55 | 140165 | 151019
13 | 33:33.45 | 3:07.39 | 151020 | 165083
14 | 39:13.09 | 24:32.48 | 176484 | 286931
Трек 1
Имя файла Y:_Extract_tempLinkin Park - Meteora1-Foreword.wav
Пиковый уровень 75.3 %
Качество трека 100.0 %
CRC теста 843A77CB
CRC копии 843A77CB
Точное извлечение (достоверность 200) [A232C5B8]
Копирование... OK
Трек 2
Имя файла Y:_Extract_tempLinkin Park - Meteora2-Don't Stay.wav
Пиковый уровень 91.5 %
Качество трека 99.9 %
CRC теста A08E9701
CRC копии A08E9701
Точное извлечение (достоверность 200) [14DE1E54]
Копирование... OK
Трек 3
Имя файла Y:_Extract_tempLinkin Park - Meteora3-Somewhere I Belong.wav
Пиковый уровень 98.8 %
Качество трека 100.0 %
CRC теста 0EBF87D4
CRC копии 0EBF87D4
Точное извлечение (достоверность 200) [15747EA6]
Копирование... OK
Трек 4
Имя файла Y:_Extract_tempLinkin Park - Meteora4-Lying From You.wav
Пиковый уровень 98.8 %
Качество трека 100.0 %
CRC теста 312AF575
CRC копии 312AF575
Точное извлечение (достоверность 200) [24B292B4]
Копирование... OK
Трек 5
Имя файла Y:_Extract_tempLinkin Park - Meteora5-Hit The Floor.wav
Пиковый уровень 98.8 %
Качество трека 100.0 %
CRC теста 31EBE96C
CRC копии 31EBE96C
Точное извлечение (достоверность 200) [80572834]
Копирование... OK
Трек 6
Имя файла Y:_Extract_tempLinkin Park - Meteora6-Easier To Run.wav
Пиковый уровень 98.8 %
Качество трека 100.0 %
CRC теста D5625690
CRC копии D5625690
Точное извлечение (достоверность 200) [37DEAFAE]
Копирование... OK
Трек 7
Имя файла Y:_Extract_tempLinkin Park - Meteora7-Faint.wav
Пиковый уровень 99.1 %
Качество трека 100.0 %
CRC теста 0DA1D0E1
CRC копии 0DA1D0E1
Точное извлечение (достоверность 200) [96DD3B45]
Копирование... OK
Трек 8
Имя файла Y:_Extract_tempLinkin Park - Meteora8-Figure.09.wav
Пиковый уровень 100.0 %
Качество трека 100.0 %
CRC теста 6977009C
CRC копии 6977009C
Точное извлечение (достоверность 200) [37EE252E]
Копирование... OK
Трек 9
Имя файла Y:_Extract_tempLinkin Park - Meteora9-Breaking The Habit.wav
Пиковый уровень 100.0 %
Качество трека 100.0 %
CRC теста AC76DFD8
CRC копии AC76DFD8
Точное извлечение (достоверность 200) [3BB8DB1C]
Копирование... OK
Трек 10
Имя файла Y:_Extract_tempLinkin Park - Meteora10-From The Inside.wav
Пиковый уровень 100.0 %
Качество трека 100.0 %
CRC теста 813E1FE7
CRC копии 813E1FE7
Точное извлечение (достоверность 200) [1F3F19A7]
Копирование... OK
Трек 11
Имя файла Y:_Extract_tempLinkin Park - Meteora11-Nobody's Listening.wav
Пиковый уровень 98.8 %
Качество трека 100.0 %
CRC теста 30D5F0B9
CRC копии 30D5F0B9
Точное извлечение (достоверность 200) [0CC6E782]
Копирование... OK
Трек 12
Имя файла Y:_Extract_tempLinkin Park - Meteora12-Session.wav
Пиковый уровень 98.8 %
Качество трека 100.0 %
CRC теста 656A82D3
CRC копии 656A82D3
Точное извлечение (достоверность 200) [9F1324D0]
Копирование... OK
Трек 13
Имя файла Y:_Extract_tempLinkin Park - Meteora13-Numb.wav
Пиковый уровень 98.8 %
Качество трека 100.0 %
CRC теста F58E65BB
CRC копии F58E65BB
Точное извлечение (достоверность 200) [F81CA0DC]
Копирование... OK
Все треки извлечены точно
Ошибок не произошло
Конец отчёта
2003 - Live in Texas


• Cat # : 9362-48563-2
• Label: Warner Bros. Records / Machine Shop Recordings
• Country: Germany
• Released: November 24, 2003
• Format: CD/DVD, Enhanced, Live Album, Digipak
• Tracks:
01. Somewhere I Belong
02. Lying from You
03. Papercut
04. Points of Authority
05. Runaway
06. Faint
07. From the Inside
08. P5HNG ME A*WY
09. Numb
10. Crawling
11. In the End
12. One Step Closer




Лог EAC

Exact Audio Copy V0.99 prebeta 4 from 23. January 2008
Отчёт EAC об извлечении, выполненном 2. декабря 2008, 22:14
Linkin Park / Live In Texas
Дисковод: Optiarc DVD RW AD-7203A Adapter: 0 ID: 0
Режим чтения : Достоверность
Использование точного потока : Да
Отключение кэша аудио : Да
Использование указателей C2 : Нет
Коррекция смещения при чтении : 48
Способность читать области Lead-in и Lead-out : Нет
Заполнение пропущенных сэмплов тишиной : Да
Удаление блоков с тишиной в начале и конце : Нет
При вычислениях CRC использовались нулевые сэмплы : Да
Интерфейс : Установленный внешний ASPI-интерфейс
Обработка зазоров : Не обнаружено, добавлено к предыдущему треку
Выходной формат : Пользовательский кодировщик
Выбранный битрейт : 320 kBit/s
Качество : Высокий
Добавление ID3-тэга : Да
Утилита сжатия : C:Program FilesFLACflac.exe
Дополнительные параметры : --best -T "ARTIST=%a" -T "TITLE=%t" -T "ALBUM=%g" -T "DATE=%y" -T "TRACKNUMBER=%n" -T "GENRE=%m" %s
TOC извлечённого CD
Трек | Старт | Длительность | Начальный сектор | Конечный сектор
---------------------------------------------------------------------
1 | 0:00.00 | 3:37.58 | 0 | 16332
2 | 3:37.58 | 3:07.37 | 16333 | 30394
3 | 6:45.20 | 3:06.12 | 30395 | 44356
4 | 9:51.32 | 3:25.10 | 44357 | 59741
5 | 13:16.42 | 3:07.46 | 59742 | 73812
6 | 16:24.13 | 2:47.03 | 73813 | 86340
7 | 19:11.16 | 3:00.69 | 86341 | 99909
8 | 22:12.10 | 5:05.19 | 99910 | 122803
9 | 27:17.29 | 3:06.58 | 122804 | 136811
10 | 30:24.12 | 3:33.64 | 136812 | 152850
11 | 33:58.01 | 3:31.57 | 152851 | 168732
12 | 37:29.58 | 4:13.09 | 168733 | 187716
13 | 44:14.67 | 1:13.49 | 199117 | 204640
Трек 1
Имя файла Y:_Extract_tempLinkin Park - Live In Texas1-Somewhere I Belong.wav
Пиковый уровень 93.8 %
Качество трека 100.0 %
CRC теста DF52D97A
CRC копии DF52D97A
Точное извлечение (достоверность 53) [D91345A9]
Копирование... OK
Трек 2
Имя файла Y:_Extract_tempLinkin Park - Live In Texas2-Lying From You.wav
Пиковый уровень 98.8 %
Качество трека 100.0 %
CRC теста E1482259
CRC копии E1482259
Точное извлечение (достоверность 50) [35695E29]
Копирование... OK
Трек 3
Имя файла Y:_Extract_tempLinkin Park - Live In Texas3-Papercut.wav
Пиковый уровень 100.0 %
Качество трека 100.0 %
CRC теста 3EB945E4
CRC копии 3EB945E4
Точное извлечение (достоверность 53) [E49E7449]
Копирование... OK
Трек 4
Имя файла Y:_Extract_tempLinkin Park - Live In Texas4-Points Of Authority.wav
Пиковый уровень 100.0 %
Качество трека 100.0 %
CRC теста B40ABCDD
CRC копии B40ABCDD
Точное извлечение (достоверность 50) [F0301B54]
Копирование... OK
Трек 5
Имя файла Y:_Extract_tempLinkin Park - Live In Texas5-Runaway.wav
Пиковый уровень 99.8 %
Качество трека 99.9 %
CRC теста 8098D7B4
CRC копии 8098D7B4
Точное извлечение (достоверность 52) [25FE6A0E]
Копирование... OK
Трек 6
Имя файла Y:_Extract_tempLinkin Park - Live In Texas6-Faint.wav
Пиковый уровень 100.0 %
Качество трека 99.9 %
CRC теста C6B236E5
CRC копии C6B236E5
Точное извлечение (достоверность 50) [60F3FBE4]
Копирование... OK
Трек 7
Имя файла Y:_Extract_tempLinkin Park - Live In Texas7-From The Inside.wav
Пиковый уровень 100.0 %
Качество трека 100.0 %
CRC теста 34F54A02
CRC копии 34F54A02
Точное извлечение (достоверность 52) [BEA3C1B5]
Копирование... OK
Трек 8
Имя файла Y:_Extract_tempLinkin Park - Live In Texas8-P5hng Me Axwy.wav
Пиковый уровень 98.8 %
Качество трека 100.0 %
CRC теста C4A5ADB0
CRC копии C4A5ADB0
Точное извлечение (достоверность 51) [3ED249FB]
Копирование... OK
Трек 9
Имя файла Y:_Extract_tempLinkin Park - Live In Texas9-Numb.wav
Пиковый уровень 100.0 %
Качество трека 100.0 %
CRC теста BD7DED87
CRC копии BD7DED87
Точное извлечение (достоверность 51) [127DCD98]
Копирование... OK
Трек 10
Имя файла Y:_Extract_tempLinkin Park - Live In Texas10-Crawling.wav
Пиковый уровень 100.0 %
Качество трека 99.9 %
CRC теста 218C3F12
CRC копии 218C3F12
Точное извлечение (достоверность 52) [C8283A47]
Копирование... OK
Трек 11
Имя файла Y:_Extract_tempLinkin Park - Live In Texas11-In The End.wav
Пиковый уровень 98.8 %
Качество трека 100.0 %
CRC теста E7259E93
CRC копии E7259E93
Точное извлечение (достоверность 53) [1D7701B2]
Копирование... OK
Трек 12
Имя файла Y:_Extract_tempLinkin Park - Live In Texas12-One Step Closer.wav
Пиковый уровень 100.0 %
Качество трека 100.0 %
CRC теста EEF73426
CRC копии EEF73426
Точное извлечение (достоверность 47) [D9CDEFD4]
Копирование... OK
Все треки извлечены точно
Ошибок не произошло
Конец отчёта
2004 - Collision Course


• Cat # : 9362-48962-2
• Label: Warner Bros. Records / Machine Shop Recordings / Roc-A-Fella Records
• Country: Germany
• Released: November 29, 2004
• Format: CD/DVD, Enhanced, Album, Digipak
• Tracks:
01. Dirt Off Your Shoulder/Lying from You
02. Big Pimpin'/Papercut
03. Jigga What/Faint
04. Numb/Encore
05. Izzo/In the End
06. Points of Authority/99 Problems/One Step Closer




Лог EAC

Exact Audio Copy V0.99 prebeta 4 from 23. January 2008
Отчёт EAC об извлечении, выполненном 2. декабря 2008, 23:10
Jay-Z/Linkin Park / Collision Course
Дисковод: Optiarc DVD RW AD-7203A Adapter: 0 ID: 0
Режим чтения : Достоверность
Использование точного потока : Да
Отключение кэша аудио : Да
Использование указателей C2 : Нет
Коррекция смещения при чтении : 48
Способность читать области Lead-in и Lead-out : Нет
Заполнение пропущенных сэмплов тишиной : Да
Удаление блоков с тишиной в начале и конце : Нет
При вычислениях CRC использовались нулевые сэмплы : Да
Интерфейс : Установленный внешний ASPI-интерфейс
Обработка зазоров : Не обнаружено, добавлено к предыдущему треку
Выходной формат : Пользовательский кодировщик
Выбранный битрейт : 320 kBit/s
Качество : Высокий
Добавление ID3-тэга : Да
Утилита сжатия : C:Program FilesFLACflac.exe
Дополнительные параметры : --best -T "ARTIST=%a" -T "TITLE=%t" -T "ALBUM=%g" -T "DATE=%y" -T "TRACKNUMBER=%n" -T "GENRE=%m" %s
TOC извлечённого CD
Трек | Старт | Длительность | Начальный сектор | Конечный сектор
---------------------------------------------------------------------
1 | 0:00.00 | 4:04.52 | 0 | 18351
2 | 4:04.52 | 2:36.24 | 18352 | 30075
3 | 6:41.01 | 3:31.13 | 30076 | 45913
4 | 10:12.14 | 3:25.21 | 45914 | 61309
5 | 13:37.35 | 2:44.65 | 61310 | 73674
6 | 16:22.25 | 4:55.62 | 73675 | 95861
7 | 23:50.12 | 1:34.25 | 107262 | 114336
Трек 1
Имя файла Y:_Extract_tempJay-Z,Linkin Park - Collision Course1-Dirt Off Your Shoulder,Lying From You.wav
Пиковый уровень 92.1 %
Качество трека 99.9 %
CRC теста BE6C6D40
CRC копии BE6C6D40
Точное извлечение (достоверность 42) [2BA96FF8]
Копирование... OK
Трек 2
Имя файла Y:_Extract_tempJay-Z,Linkin Park - Collision Course2-Big Pimpin',Papercut.wav
Пиковый уровень 98.8 %
Качество трека 100.0 %
CRC теста D19CE06F
CRC копии D19CE06F
Точное извлечение (достоверность 43) [AA0F9867]
Копирование... OK
Трек 3
Имя файла Y:_Extract_tempJay-Z,Linkin Park - Collision Course3-Jigga What,Faint.wav
Пиковый уровень 98.8 %
Качество трека 99.9 %
CRC теста 764BF567
CRC копии 764BF567
Точное извлечение (достоверность 43)
Копирование... OK
Трек 4
Имя файла Y:_Extract_tempJay-Z,Linkin Park - Collision Course4-Numb,Encore.wav
Пиковый уровень 98.8 %
Качество трека 100.0 %
CRC теста 948A7E60
CRC копии 948A7E60
Точное извлечение (достоверность 44) [7AE575B6]
Копирование... OK
Трек 5
Имя файла Y:_Extract_tempJay-Z,Linkin Park - Collision Course5-Izzo,In The End.wav
Пиковый уровень 95.4 %
Качество трека 100.0 %
CRC теста 11288765
CRC копии 11288765
Точное извлечение (достоверность 44) [D0C90AA2]
Копирование... OK
Трек 6
Имя файла Y:_Extract_tempJay-Z,Linkin Park - Collision Course6-Points Of Authority,99 Problems,One Step Closer.wav
Пиковый уровень 98.8 %
Качество трека 100.0 %
CRC теста 54668EC0
CRC копии 54668EC0
Точное извлечение (достоверность 42) [A98D928A]
Копирование... OK
Все треки извлечены точно
Ошибок не произошло
Конец отчёта
2007 - Minutes To Midnight (Tour Edition)


• Cat # : 9362-49893-4
• Label: Warner Bros. Records / Machine Shop Recordings
• Country: Germany
• Released: Deсember 7, 2007
• Format: CD, Enhanced, Album, Jewelcase
• Tracks:
01. Wake
02. Given Up
03. Leave Out All The Rest
04. Bleed It Out
05. Shadow Of The Day
06. What I've Done
07. Hands Held High
08. No More Sorrow
09. Valentine's Day
10. In Between
11. In Pieces
12. The Little Things Give You Away
13. No Roads Left (Bonus Track)
14. What I've Done (Distorted Remix) (Bonus Track)
15. Given Up (Third Encore Session) (Bonus Track)




Лог EAC

Exact Audio Copy V0.99 prebeta 4 from 23. January 2008
Отчёт EAC об извлечении, выполненном 2. декабря 2008, 16:57
Linkin Park / Minutes to Midnight [Tour Edition]
Дисковод: Optiarc DVD RW AD-7203A Adapter: 0 ID: 0
Режим чтения : Достоверность
Использование точного потока : Да
Отключение кэша аудио : Да
Использование указателей C2 : Нет
Коррекция смещения при чтении : 48
Способность читать области Lead-in и Lead-out : Нет
Заполнение пропущенных сэмплов тишиной : Да
Удаление блоков с тишиной в начале и конце : Нет
При вычислениях CRC использовались нулевые сэмплы : Да
Интерфейс : Установленный внешний ASPI-интерфейс
Обработка зазоров : Не обнаружено, добавлено к предыдущему треку
Выходной формат : Пользовательский кодировщик
Выбранный битрейт : 320 kBit/s
Качество : Высокий
Добавление ID3-тэга : Да
Утилита сжатия : C:Program FilesFLACflac.exe
Дополнительные параметры : --best -T "ARTIST=%a" -T "TITLE=%t" -T "ALBUM=%g" -T "DATE=%y" -T "TRACKNUMBER=%n" -T "GENRE=%m" %s
TOC извлечённого CD
Трек | Старт | Длительность | Начальный сектор | Конечный сектор
---------------------------------------------------------------------
1 | 0:00.00 | 1:40.69 | 0 | 7568
2 | 1:40.69 | 3:09.22 | 7569 | 21765
3 | 4:50.16 | 3:29.23 | 21766 | 37463
4 | 8:19.39 | 2:44.32 | 37464 | 49795
5 | 11:03.71 | 4:49.68 | 49796 | 71538
6 | 15:53.64 | 3:25.17 | 71539 | 86930
7 | 19:19.06 | 3:53.10 | 86931 | 104415
8 | 23:12.16 | 3:41.52 | 104416 | 121042
9 | 26:53.68 | 3:16.63 | 121043 | 135805
10 | 30:10.56 | 3:16.56 | 135806 | 150561
11 | 33:27.37 | 3:38.01 | 150562 | 166912
12 | 37:05.38 | 6:21.58 | 166913 | 195545
13 | 43:27.21 | 3:49.66 | 195546 | 212786
14 | 47:17.12 | 3:47.74 | 212787 | 229885
15 | 51:05.11 | 3:08.58 | 229886 | 244043
16 | 56:45.69 | 0:57.34 | 255444 | 259752
Трек 1
Имя файла Y:_Extract_tempLinkin Park - Minutes to Midnight [Tour Edition]1-Wake.wav
Пиковый уровень 90.4 %
Качество трека 99.8 %
CRC копии 531A14FA
Точное извлечение (достоверность 11) [E61F7029]
Копирование... OK
Трек 2
Имя файла Y:_Extract_tempLinkin Park - Minutes to Midnight [Tour Edition]2-Given Up.wav
Пиковый уровень 97.6 %
Качество трека 100.0 %
CRC копии 20EED3C4
Точное извлечение (достоверность 12) [DBBEF4A8]
Копирование... OK
Трек 3
Имя файла Y:_Extract_tempLinkin Park - Minutes to Midnight [Tour Edition]3-Leave Out All The Rest.wav
Пиковый уровень 97.7 %
Качество трека 100.0 %
CRC копии 6FC1910E
Точное извлечение (достоверность 11) [AB3CF9BE]
Копирование... OK
Трек 4
Имя файла Y:_Extract_tempLinkin Park - Minutes to Midnight [Tour Edition]4-Bleed It Out.wav
Пиковый уровень 97.6 %
Качество трека 100.0 %
CRC копии FC4BAEA5
Точное извлечение (достоверность 11) [6EC30081]
Копирование... OK
Трек 5
Имя файла Y:_Extract_tempLinkin Park - Minutes to Midnight [Tour Edition]5-Shadow Of The Day.wav
Пиковый уровень 97.7 %
Качество трека 99.9 %
CRC копии 99A2C419
Точное извлечение (достоверность 11) [4F60266E]
Копирование... OK
Трек 6
Имя файла Y:_Extract_tempLinkin Park - Minutes to Midnight [Tour Edition]6-What I've Done.wav
Пиковый уровень 97.7 %
Качество трека 99.9 %
CRC копии 5F14852D
Точное извлечение (достоверность 12) [D8D4B840]
Копирование... OK
Трек 7
Имя файла Y:_Extract_tempLinkin Park - Minutes to Midnight [Tour Edition]7-Hands Held High.wav
Пиковый уровень 97.7 %
Качество трека 100.0 %
CRC копии 32BF07C9
Точное извлечение (достоверность 11) [81C822A5]
Копирование... OK
Трек 8
Имя файла Y:_Extract_tempLinkin Park - Minutes to Midnight [Tour Edition]8-No More Sorrow.wav
Пиковый уровень 97.7 %
Качество трека 100.0 %
CRC копии 19E3A3B5
Точное извлечение (достоверность 11) [FB0C4143]
Копирование... OK
Трек 9
Имя файла Y:_Extract_tempLinkin Park - Minutes to Midnight [Tour Edition]9-Valentine's Day.wav
Пиковый уровень 97.6 %
Качество трека 100.0 %
CRC копии 2AA40215
Точное извлечение (достоверность 9) [001667F5]
Копирование... OK
Трек 10
Имя файла Y:_Extract_tempLinkin Park - Minutes to Midnight [Tour Edition]10-In Between.wav
Пиковый уровень 97.2 %
Качество трека 100.0 %
CRC копии 3E096776
Точное извлечение (достоверность 10) [5F1BFB75]
Копирование... OK
Трек 11
Имя файла Y:_Extract_tempLinkin Park - Minutes to Midnight [Tour Edition]11-In Pieces.wav
Пиковый уровень 97.7 %
Качество трека 100.0 %
CRC копии 44DAE5B3
Точное извлечение (достоверность 9) [D6B20F41]
Копирование... OK
Трек 12
Имя файла Y:_Extract_tempLinkin Park - Minutes to Midnight [Tour Edition]12-The Little Things Give You Away.wav
Пиковый уровень 97.7 %
Качество трека 100.0 %
CRC копии 203AF497
Точное извлечение (достоверность 10) [0DED4127]
Копирование... OK
Трек 13
Имя файла Y:_Extract_tempLinkin Park - Minutes to Midnight [Tour Edition]13-No Roads Left (Bonus).wav
Пиковый уровень 99.8 %
Качество трека 100.0 %
CRC копии 517E449F
Точное извлечение (достоверность 13) [EFFE8287]
Копирование... OK
Трек 14
Имя файла Y:_Extract_tempLinkin Park - Minutes to Midnight [Tour Edition]14-What I've Done (Distorted Remix).wav
Пиковый уровень 98.8 %
Качество трека 100.0 %
CRC копии EFA7D5F8
Точное извлечение (достоверность 13) [EF952591]
Копирование... OK
Трек 15
Имя файла Y:_Extract_tempLinkin Park - Minutes to Midnight [Tour Edition]15-Given Up (Third Encore Session).wav
Пиковый уровень 98.8 %
Качество трека 100.0 %
CRC копии F7CDCD5C
Точное извлечение (достоверность 12) [2F3ED471]
Копирование... OK
Все треки извлечены точно
Ошибок не произошло
Конец отчёта
2008 - Road To Revolution


• Cat # : 9362-49809-5
• Label: Warner Bros. Records / Machine Shop Recordings
• Country: Germany
• Released: November 21, 2008
• Format: CD/DVD, Live Album, Digipak
• Tracks:
01. One Step Closer
02. From The Inside
03. No More Sorrow
04. Given Up
05. Lying From You
06. Hands Held High
07. Leave Out All The Rest
08. Numb
09. The Little Things You Give Away
10. Breaking The Habit
11. Shadow Of The Day
12. Crawling
13. In The End
14. Pushing Me Away
15. What I've Done
16. Numb/Encore
17. Jigga What/Faint
18. Bleed It Out




Лог EAC

Exact Audio Copy V0.99 prebeta 4 from 23. January 2008
Отчёт EAC об извлечении, выполненном 1. августа 2009, 21:38
Linkin Park / Road To Revolution: Live At Milton Keynes
Дисковод: TSSTcorpCD/DVDW TS-L632D Adapter: 0 ID: 0
Режим чтения : Достоверность
Использование точного потока : Да
Отключение кэша аудио : Да
Использование указателей C2 : Нет
Коррекция смещения при чтении : 6
Способность читать области Lead-in и Lead-out : Нет
Заполнение пропущенных сэмплов тишиной : Да
Удаление блоков с тишиной в начале и конце : Нет
При вычислениях CRC использовались нулевые сэмплы : Да
Интерфейс : Встроенный Win32-интерфейс для Win NT/2000
Обработка зазоров : Не обнаружено, добавлено к предыдущему треку
Выходной формат : Пользовательский кодировщик
Выбранный битрейт : 768 kBit/s
Качество : Высокий
Добавление ID3-тэга : Нет
Утилита сжатия : C:Program FilesExact Audio CopyFlacflac.exe
Дополнительные параметры : -8 -V -T "ARTIST=%a" -T "TITLE=%t" -T "ALBUM=%g" -T "DATE=%y" -T "TRACKNUMBER=%n" -T "GENRE=%m" -T "COMMENT=EAC FLAC -8" %s
TOC извлечённого CD
Трек | Старт | Длительность | Начальный сектор | Конечный сектор
---------------------------------------------------------------------
1 | 0:00.00 | 4:07.19 | 0 | 18543
2 | 4:07.19 | 3:24.43 | 18544 | 33886
3 | 7:31.62 | 5:06.33 | 33887 | 56869
4 | 12:38.20 | 3:15.44 | 56870 | 71538
5 | 15:53.64 | 3:19.33 | 71539 | 86496
6 | 19:13.22 | 1:26.43 | 86497 | 92989
7 | 20:39.65 | 3:23.66 | 92990 | 108280
8 | 24:03.56 | 3:46.09 | 108281 | 125239
9 | 27:49.65 | 7:19.43 | 125240 | 158207
10 | 35:09.33 | 4:24.47 | 158208 | 178054
11 | 39:34.05 | 4:17.05 | 178055 | 197334
12 | 43:51.10 | 4:57.62 | 197335 | 219671
13 | 48:48.72 | 3:50.31 | 219672 | 236952
14 | 52:39.28 | 3:18.59 | 236953 | 251861
15 | 55:58.12 | 5:01.57 | 251862 | 274493
16 | 60:59.69 | 3:01.65 | 274494 | 288133
17 | 64:01.59 | 5:10.39 | 288134 | 311422
18 | 69:12.23 | 8:15.00 | 311423 | 348547
Трек 1
Имя файла D:TorrentsMusic TorrentsLinkin Park - Road To Revolution1. One Step Closer - Linkin Park.wav
Пиковый уровень 99.9 %
Качество трека 100.0 %
CRC теста 7525E641
CRC копии 7525E641
Точное извлечение (достоверность 30) [ABA57B3A]
Копирование... OK
Трек 2
Имя файла D:TorrentsMusic TorrentsLinkin Park - Road To Revolution2. From The Inside - Linkin Park.wav
Пиковый уровень 100.0 %
Качество трека 100.0 %
CRC теста 84415E8B
CRC копии 84415E8B
Точное извлечение (достоверность 31) [2A5D49BF]
Копирование... OK
Трек 3
Имя файла D:TorrentsMusic TorrentsLinkin Park - Road To Revolution3. No More Sorrow - Linkin Park.wav
Пиковый уровень 100.0 %
Качество трека 100.0 %
CRC теста 7C848E7E
CRC копии 7C848E7E
Точное извлечение (достоверность 31) [AA567B7C]
Копирование... OK
Трек 4
Имя файла D:TorrentsMusic TorrentsLinkin Park - Road To Revolution4. Given Up - Linkin Park.wav
Пиковый уровень 100.0 %
Качество трека 99.9 %
CRC теста AC8F841E
CRC копии AC8F841E
Точное извлечение (достоверность 32) [089DDE59]
Копирование... OK
Трек 5
Имя файла D:TorrentsMusic TorrentsLinkin Park - Road To Revolution5. Lying From You - Linkin Park.wav
Пиковый уровень 99.9 %
Качество трека 100.0 %
CRC теста B2786DA8
CRC копии B2786DA8
Точное извлечение (достоверность 31) [4C80A089]
Копирование... OK
Трек 6
Имя файла D:TorrentsMusic TorrentsLinkin Park - Road To Revolution6. Hands Held High - Linkin Park.wav
Пиковый уровень 99.9 %
Качество трека 100.0 %
CRC теста 418EC934
CRC копии 418EC934
Точное извлечение (достоверность 32) [3C28C62E]
Копирование... OK
Трек 7
Имя файла D:TorrentsMusic TorrentsLinkin Park - Road To Revolution7. Leave Out All The Rest - Linkin Park.wav
Пиковый уровень 99.9 %
Качество трека 99.9 %
CRC теста 47CA2F25
CRC копии 47CA2F25
Точное извлечение (достоверность 32) [22B290BF]
Копирование... OK
Трек 8
Имя файла D:TorrentsMusic TorrentsLinkin Park - Road To Revolution8. Numb - Linkin Park.wav
Пиковый уровень 99.9 %
Качество трека 99.9 %
CRC теста 6F08599F
CRC копии 6F08599F
Точное извлечение (достоверность 33) [DFCD6C90]
Копирование... OK
Трек 9
Имя файла D:TorrentsMusic TorrentsLinkin Park - Road To Revolution9. The Little Things Give You Away - Linkin Park.wav
Пиковый уровень 99.9 %
Качество трека 100.0 %
CRC теста 74E797C5
CRC копии 74E797C5
Точное извлечение (достоверность 32) [0853B594]
Копирование... OK
Трек 10
Имя файла D:TorrentsMusic TorrentsLinkin Park - Road To Revolution10. Breaking The Habit - Linkin Park.wav
Пиковый уровень 99.9 %
Качество трека 100.0 %
CRC теста C1A23546
CRC копии C1A23546
Точное извлечение (достоверность 32) [D06AF756]
Копирование... OK
Трек 11
Имя файла D:TorrentsMusic TorrentsLinkin Park - Road To Revolution11. Shadow Of The Day - Linkin Park.wav
Пиковый уровень 99.9 %
Качество трека 100.0 %
CRC теста 6BBCD619
CRC копии 6BBCD619
Точное извлечение (достоверность 31) [2AF83C2A]
Копирование... OK
Трек 12
Имя файла D:TorrentsMusic TorrentsLinkin Park - Road To Revolution12. Crawling - Linkin Park.wav
Пиковый уровень 99.9 %
Качество трека 100.0 %
CRC теста CEB91DB4
CRC копии CEB91DB4
Точное извлечение (достоверность 31) [1C21A343]
Копирование... OK
Трек 13
Имя файла D:TorrentsMusic TorrentsLinkin Park - Road To Revolution13. In The End - Linkin Park.wav
Пиковый уровень 99.9 %
Качество трека 100.0 %
CRC теста 1B919CAB
CRC копии 1B919CAB
Точное извлечение (достоверность 33) [E3C029AA]
Копирование... OK
Трек 14
Имя файла D:TorrentsMusic TorrentsLinkin Park - Road To Revolution14. Pushing Me Away - Linkin Park.wav
Пиковый уровень 99.9 %
Качество трека 100.0 %
CRC теста 5F72F25A
CRC копии 5F72F25A
Точное извлечение (достоверность 32) [09F26F87]
Копирование... OK
Трек 15
Имя файла D:TorrentsMusic TorrentsLinkin Park - Road To Revolution15. What I've Done - Linkin Park.wav
Пиковый уровень 100.0 %
Качество трека 100.0 %
CRC теста F2AD48F8
CRC копии F2AD48F8
Точное извлечение (достоверность 32) [AFE9D106]
Копирование... OK
Трек 16
Имя файла D:TorrentsMusic TorrentsLinkin Park - Road To Revolution16. Numb - Encore - Linkin Park With Jay-Z - Linkin Park.wav
Пиковый уровень 99.9 %
Качество трека 100.0 %
CRC теста ED9C557F
CRC копии ED9C557F
Точное извлечение (достоверность 32) [CAA38DE0]
Копирование... OK
Трек 17
Имя файла D:TorrentsMusic TorrentsLinkin Park - Road To Revolution17. Jigga What - Faint - Linkin Park With Jay-Z - Linkin Park.wav
Пиковый уровень 100.0 %
Качество трека 100.0 %
CRC теста 8BBF97B7
CRC копии 8BBF97B7
Точное извлечение (достоверность 31) [C4A172F1]
Копирование... OK
Трек 18
Имя файла D:TorrentsMusic TorrentsLinkin Park - Road To Revolution18. Bleed It Out - Linkin Park.wav
Пиковый уровень 100.0 %
Качество трека 100.0 %
CRC теста 096AD39C
CRC копии 096AD39C
Точное извлечение (достоверность 31) [D04EDBA4]
Копирование... OK
Все треки извлечены точно
Ошибок не произошло
Конец отчёта
Singles
01 - One Step Closer (2000)

USA Radio CD


• Cat # : PRO-CDR-100318
• Label: Warner Bros. Records
• Country: USA
• Released: 2000
• Format: CD, Single, Promo
• Tracks:
01. One Step Closer (Album Version)
02. One Step Closer (Rock Mix)




Лог EAC

Exact Audio Copy V0.99 prebeta 5 from 4. May 2009
Отчёт EAC об извлечении, выполненном 31. июля 2009, 13:09
[LINKIN PARK] / One Step Closer (Promo-CDR-100318)
Дисковод: HL-DT-STDVDRAM GSA-H42N Adapter: 0 ID: 0
Режим чтения : Достоверность
Использование точного потока : Да
Отключение кэша аудио : Да
Использование указателей C2 : Нет
Коррекция смещения при чтении : 667
Способность читать области Lead-in и Lead-out : Нет
Заполнение пропущенных сэмплов тишиной : Да
Удаление блоков с тишиной в начале и конце : Нет
При вычислениях CRC использовались нулевые сэмплы : Нет
Интерфейс : Встроенный Win32-интерфейс для Win NT/2000
Обработка зазоров : Не обнаружено, добавлено к предыдущему треку
Выходной формат : Пользовательский кодировщик
Выбранный битрейт : 1024 kBit/s
Качество : Высокий
Добавление ID3-тэга : Нет
Утилита сжатия : C:Program FilesExact Audio CopyFLACFLAC.EXE
Дополнительные параметры : -8 -V -T "ARTIST=%a" -T "TITLE=%t" -T "ALBUM=%g" -T "DATE=%y" -T "TRACKNUMBER=%n" -T "GENRE=%m" -T "COMMENT=EAC FLAC -8" %s
TOC извлечённого CD
Трек | Старт | Длительность | Начальный сектор | Конечный сектор
---------------------------------------------------------------------
1 | 0:00.32 | 2:39.08 | 32 | 11964
2 | 2:39.40 | 2:37.37 | 11965 | 23776
Трек 1
Имя файла C:Documents and SettingsUserРабочий столOne Step Closer (Album Version).wav
Пиковый уровень 98.8 %
Качество трека 100.0 %
CRC теста 150405B3
CRC копии 150405B3
Трек не обнаружен в базе AccurateRip
Копирование... OK
Трек 2
Имя файла C:Documents and SettingsUserРабочий столOne Step Closer (Rock Mix).wav
Пиковый уровень 98.8 %
Качество трека 100.0 %
CRC теста F4058547
CRC копии F4058547
Трек не обнаружен в базе AccurateRip
Копирование... OK
Ни одного трека нет в базе AccurateRip
Ошибок не произошло
Конец отчёта




UK CD

• Cat # : W550CD / 9362-44963-2
• Label: Warner Bros. Records
• Country: UK
• Released: November 28, 2000
• Format: CD, Single, Enhanced, Slimcase
• Tracks:
01. One Step Closer (Album Version)
02. My December
03. High Voltage (2000 Reprise aka Mr.Hahn Remix)
04. One Step Closer (Video)




Лог EAC

Exact Audio Copy V0.99 prebeta 4 from 23. January 2008
Отчёт EAC об извлечении, выполненном 3. декабря 2008, 17:04
Linkin Park / One Step Closer
Дисковод: Optiarc DVD RW AD-7203A Adapter: 0 ID: 0
Режим чтения : Достоверность
Использование точного потока : Да
Отключение кэша аудио : Да
Использование указателей C2 : Нет
Коррекция смещения при чтении : 48
Способность читать области Lead-in и Lead-out : Нет
Заполнение пропущенных сэмплов тишиной : Да
Удаление блоков с тишиной в начале и конце : Нет
При вычислениях CRC использовались нулевые сэмплы : Да
Интерфейс : Установленный внешний ASPI-интерфейс
Обработка зазоров : Добавлено к предыдущему треку
Выходной формат : Пользовательский кодировщик
Выбранный битрейт : 320 kBit/s
Качество : Высокий
Добавление ID3-тэга : Да
Утилита сжатия : C:Program FilesFLACflac.exe
Дополнительные параметры : --best -T "ARTIST=%a" -T "TITLE=%t" -T "ALBUM=%g" -T "DATE=%y" -T "TRACKNUMBER=%n" -T "GENRE=%m" %s
TOC извлечённого CD
Трек | Старт | Длительность | Начальный сектор | Конечный сектор
---------------------------------------------------------------------
1 | 0:00.00 | 2:39.35 | 0 | 11959
2 | 2:39.35 | 4:22.45 | 11960 | 31654
3 | 7:02.05 | 3:44.71 | 31655 | 48525
4 | 13:19.01 | 12:28.15 | 59926 | 116040
Трек 1
Имя файла Y:_Extract_tempLinkin Park - One Step Closer1-One Step Closer.wav
Длина предзазора 0:00:02.00
Пиковый уровень 86.9 %
Качество трека 100.0 %
CRC теста 76874097
CRC копии 76874097
Точное извлечение (достоверность 2)
Копирование... OK
Трек 2
Имя файла Y:_Extract_tempLinkin Park - One Step Closer2-My December.wav
Длина предзазора 0:00:01.66
Пиковый уровень 98.8 %
Качество трека 100.0 %
CRC теста F55387F9
CRC копии F55387F9
Точное извлечение (достоверность 3) [EDA600CE]
Копирование... OK
Трек 3
Имя файла Y:_Extract_tempLinkin Park - One Step Closer3-High Voltage.wav
Длина предзазора 0:00:01.64
Пиковый уровень 98.8 %
Качество трека 100.0 %
CRC теста 3DED2BFB
CRC копии 3DED2BFB
Точное извлечение (достоверность 3) [C858EFD1]
Копирование... OK
Все треки извлечены точно
Ошибок не произошло
Конец отчёта
02 - Crawling (2001)


• Cat # : W556CD / 9362-44995-2
• Label: Warner Bros. Records
• Country: UK
• Released: May 28, 2001
• Format: CD, Single, Enhanced, Slimcase
• Tracks:
01. Crawling (Album Version)
02. Papercut (Live on BBC Radio One)
03. Backstage Video Footage




Лог EAC

Exact Audio Copy V0.99 prebeta 4 from 23. January 2008
Отчёт EAC об извлечении, выполненном 3. декабря 2008, 15:59
Linkin Park / Crawling
Дисковод: Optiarc DVD RW AD-7203A Adapter: 0 ID: 0
Режим чтения : Достоверность
Использование точного потока : Да
Отключение кэша аудио : Да
Использование указателей C2 : Нет
Коррекция смещения при чтении : 48
Способность читать области Lead-in и Lead-out : Нет
Заполнение пропущенных сэмплов тишиной : Да
Удаление блоков с тишиной в начале и конце : Нет
При вычислениях CRC использовались нулевые сэмплы : Да
Интерфейс : Установленный внешний ASPI-интерфейс
Обработка зазоров : Добавлено к предыдущему треку
Выходной формат : Пользовательский кодировщик
Выбранный битрейт : 320 kBit/s
Качество : Высокий
Добавление ID3-тэга : Да
Утилита сжатия : C:Program FilesFLACflac.exe
Дополнительные параметры : --best -T "ARTIST=%a" -T "TITLE=%t" -T "ALBUM=%g" -T "DATE=%y" -T "TRACKNUMBER=%n" -T "GENRE=%m" %s
TOC извлечённого CD
Трек | Старт | Длительность | Начальный сектор | Конечный сектор
---------------------------------------------------------------------
1 | 0:00.00 | 3:31.02 | 0 | 15826
2 | 3:31.02 | 3:08.10 | 15827 | 29936
3 | 9:11.12 | 17:56.55 | 41337 | 122091
Трек 1
Имя файла Y:_Extract_tempLinkin Park - Crawling1-Crawling.wav
Длина предзазора 0:00:02.00
Пиковый уровень 96.1 %
Качество трека 100.0 %
CRC теста 71373B0C
CRC копии 71373B0C
Точность не определена (достоверность 3) [ADF722F2], AccurateRip вернул [C207CF5E]
Копирование... OK
Трек 2
Имя файла Y:_Extract_tempLinkin Park - Crawling2-Papercut (Live from the BBC).wav
Длина предзазора 0:00:01.54
Пиковый уровень 97.7 %
Качество трека 100.0 %
CRC теста 42C73D92
CRC копии 42C73D92
Точность не определена (достоверность 3) [D104A627], AccurateRip вернул [1DECEC35]
Копирование... OK
Ни один трек не прошёл проверки на точность
В вашей базе может быть иной вариант штамповки диска
Ошибок не произошло
Конец отчёта
03 - Papercut (2001)


• Cat # : W562CD / 9362-42393-2
• Label: Warner Bros. Records
• Country: UK
• Released: September 25, 2001
• Format: CD, Single, Enhanced, Slimcase
• Tracks:
01. Papercut (Album Version)
02. Points Of Authority (Live on BBC Radio One)
03. Papercut (Live at Docklands Arena, London)
04. Papercut (Video)




Лог EAC

Exact Audio Copy V0.99 prebeta 4 from 23. January 2008
Отчёт EAC об извлечении, выполненном 3. декабря 2008, 11:56
Linkin Park / Papercut
Дисковод: Optiarc DVD RW AD-7203A Adapter: 0 ID: 0
Режим чтения : Достоверность
Использование точного потока : Да
Отключение кэша аудио : Да
Использование указателей C2 : Нет
Коррекция смещения при чтении : 48
Способность читать области Lead-in и Lead-out : Нет
Заполнение пропущенных сэмплов тишиной : Да
Удаление блоков с тишиной в начале и конце : Нет
При вычислениях CRC использовались нулевые сэмплы : Да
Интерфейс : Установленный внешний ASPI-интерфейс
Обработка зазоров : Добавлено к предыдущему треку
Выходной формат : Пользовательский кодировщик
Выбранный битрейт : 320 kBit/s
Качество : Высокий
Добавление ID3-тэга : Да
Утилита сжатия : C:Program FilesFLACflac.exe
Дополнительные параметры : --best -T "ARTIST=%a" -T "TITLE=%t" -T "ALBUM=%g" -T "DATE=%y" -T "TRACKNUMBER=%n" -T "GENRE=%m" %s
TOC извлечённого CD
Трек | Старт | Длительность | Начальный сектор | Конечный сектор
---------------------------------------------------------------------
1 | 0:00.00 | 3:06.42 | 0 | 13991
2 | 3:06.42 | 3:26.18 | 13992 | 29459
3 | 6:32.60 | 3:11.50 | 29460 | 43834
4 | 12:16.35 | 8:05.30 | 55235 | 91639
Трек 1
Имя файла Y:_Extract_tempLinkin Park - Papercut1-Papercut.wav
Длина предзазора 0:00:02.00
Пиковый уровень 90.8 %
Качество трека 100.0 %
CRC теста 951148DD
CRC копии 951148DD
Точное извлечение (достоверность 1) [E75BA31C]
Копирование... OK
Трек 2
Имя файла Y:_Extract_tempLinkin Park - Papercut2-Points of Authority (Live).wav
Длина предзазора 0:00:01.58
Пиковый уровень 98.7 %
Качество трека 100.0 %
CRC теста A05E8925
CRC копии A05E8925
Точное извлечение (достоверность 1) [01FD591B]
Копирование... OK
Трек 3
Имя файла Y:_Extract_tempLinkin Park - Papercut3-Papercut (Live).wav
Длина предзазора 0:00:01.45
Пиковый уровень 98.7 %
Качество трека 100.0 %
CRC теста C919981E
CRC копии C919981E
Точное извлечение (достоверность 1) [96A38D87]
Копирование... OK
Все треки извлечены точно
Ошибок не произошло
Конец отчёта

20
ноя
2009

Linkin Park - Дискография [2000-2012, Alternative, Nu Metal, RapCore, FLAC]

Формат: FLAC, (image + .cue), lossless
Год выпуска: 2000-2012
Страна: USA
Жанр: Alternative, Nu Metal, RapCore
Продолжительность: 08:47:40
Описание: 2000 Hybrid Theory 37
Год выпуска: 2000
Производитель диска: Россия (ФГЗ "Никитин")
Продолжительность: 00:37:51
Треклист: 01. Papercut 3:06 02. One Step Closer 2:36 03. With You 3:23 04. Points Of Authority 3:20 05. Crawling 3:29 06. Runaway 3:04 07. By Myself 3:10 08. In The End 3:36 09. A Place For My Head 3:05 10. Forgotten 3:14 11. Cure For The Itch 2:37 12. Pushing Me Away 3:11 Exact Audio Copy V0.99 prebeta 4 from 23. January 2008 Отчёт ...

14
авг
2010

Linkin Park - Дискография [2010, AlternativeNu MetalRapCore, MP3]

Формат: MP3, tracks, 320kbps
Год выпуска: 2010
Страна: США
Жанр: AlternativeNu MetalRapCore
Продолжительность: 19:11:28
Описание: Albums 2000 Hybrid Theory 37 01. Papercut 3:06 02. One Step Closer 2:36 03. With You 3:23 04. Points Of Authority 3:20 05. Crawling 3:29 06. Runaway 3:04 07. By Myself 3:10 08. In The End 3:36 09. A Place For My Head 3:05 10. Forgotten 3:14 11. Cure For The Itch 2:37 12. Pushing Me Away 3:11 2000 Hybrid Theory (Japanese Edition ) 46 01. Papercut 3:06 02. One Step Closer 2:36 03. With You 3:23 04. Points Of Authority 3:20 05. Crawling 3:29 06. Runaway 3:04 07. By ...

24
июн
2014

Linkin Park - Дискография [1997-2015, Alternative, MP3]

Формат: MP3, tracks, 128-320 kbps
Год выпуска: 1997-2014
Страна: USA
Жанр: Alternative
Продолжительность: 02:01:50:48
Описание: Albums 2000 - Hybrid Theory (+Special Edition Bonus) | 00 01. Papercut [03:04] 02. One Step Closer [02:35] 03. With You [03:23] 04. Points Of Authority [03:20] 05. Crawling [03:29] 06. Runaway [03:04] 07. By Myself [03:09] 08. In The End [03:36] 09. A Place For My Head [03:04] 10. Forgotten [03:14] 11. Cure For The Itch [02:37] 12. Pushing Me Away [03:11] Special Edition Bonus Tracks: 01. Papercut [Live At Docklands Arena, London] [03:13] 02. Points Of Authority ...

06
окт
2009

Linkin Park - 4 music presents Linkin Park [2007, Alternative, DVDRip]

Формат: DVDRip, AVI, XviD, MP3
Песня: 4 music presents Linkin Park
Жанр: Alternative
Продолжительность: 23:47
Год выпуска: 2007
Видео: AVI, 624x352, 25 fps, 824 kbps
Аудио: MPEG Audio Layer 3, 48.0 KHz, 128 kbps
Треклист: 1. What I've Done 2. No More Sorrow 3. Given Up 4. Numb
Доп. информация: + интервью Честера и Феникса.

02
фев
2011

Linkin Park - Linkin Park Rock Am Ring 2007

Формат: TVRip, AVI, DivX, DTS
Песня: Linkin Park Rock Am Ring 2007
Жанр: Альтернатива
Продолжительность: 00:34:00
Год выпуска: 2007
Видео: 720x576 (1.25:1), 25 fps, DivX Codec 5.x or 6.x, 1902 kbps avg, 0.18 bit/pixel
Аудио: 44.100 kHz, MPEG Layer 3, 2 ch, 160.00 kbps avg
Доп. информация: Отличный концерт LP! Один минус, уменя он не цельный а несколькими файлами)

02
авг
2010

Eminem Linkin Park DJ P@F -Dreams On Shady Park (New 2010) [2010, Alternative, MP3]

Формат: MP3, tracks, 256kbps
Год выпуска: 2010
Страна: USA
Жанр: Alternative
Продолжительность: 00:33:25
Описание: 01. My Name Is & Hit The Floor 02. The Real Slim Shady & Enth E Nd 03. Shit On You & Crazy In Love & Point Of Authority 04. Fight Music & Lying From You (Live) 05. Pretty Waiting (skit) 06. Pretty Waiting & Lying From You 07. No Apologies & Frgt,10 08. A 06 (Skit) 09. Any Man & In The End (Fucking Crazy) (Paul) 10. Forgot About Dre & Place For My Head 11. Welcome To Detroit & High Voltage 12. Announcement Service Public (Skit) 13. Hustlers Ambition & One Step Closer (Special Shady ...

28
авг
2014

Shady Park - Eminem Linkin Park [2014, Alternative, MP3]

Формат: MP3, tracks, 256kbps
Год выпуска: 2014
Страна: USA
Жанр: Alternative
Продолжительность: 00:41:46
Описание: 01.My Name Is & Hit The Floor 02.The Real Slim Shady & Enth E Nd 03.Shit On You & Crazy In Love & Point Of Authority (feat Beyonce & Jay-Z) 04.Fight Music & Lying From You (Live) 05.Pretty Waiting & Lying From You (feat 50 Cent) 06.No Apologies & Frgt,10 07.A 06 (Skit) 08.Any Man & In The End (Fucking Crazy) (Paul) 09.Forgot About Dre & Place For My Head 10.Welcome To Detroit & High Voltage 11.Announcement Service Public (Skit) 12.Hustlers Ambition & One Step Closer (Extreme mix) ...

09
окт
2007

Linkin Park - With you (Final Fantasy)

Исполнитель: Linkin Park (Final Fantasy)
Песня: With you
Страна: USA
Год выпуска: 2005
Продолжительность: 3м 36с
Жанр: Клип
Язык: English
Описание: класный клип музыка Linkin Park With you видео Final Fantasy The spirits within
Качество: TVRip
Формат: AVI
Видео кодек: Windows Media
Аудио кодек: AC3
Видео: WMV1, 640 x 480 (4:3)
Аудио: Windows Media Audio V2 / DivX audio (WMA) / Alex AC3 Audio), 44100 Гц, Стерео, 128 Кбіт/с

26
янв
2010

Linkin Park - Not Alone [2010, Rock, MP3]

Формат: MP3, tracks, 320kbps
Год выпуска: 01.2010
Страна: США
Жанр: Rock
Продолжительность: 04:13
Описание: "Not Alone"
Доп. информация: Новая песня группы Linkin Park!!!

05
июн
2014

Linkin Park - Rebellion (feat. Daron Malakian) (Single) [03.06.2014, Alt. Rock, MP3]

Формат: MP3, tracks, 320kbps
Год выпуска: 03.06.2014
Страна: USA
Жанр: Alt. Rock
Продолжительность: 00:03:44
Описание: 01. Rebellion (feat. Daron Malakian)
Доп. информация:

27
окт
2009

Linkin Park - In The End [2001, Rapcore, Alt.Rock, DVDRip]

Формат: DVDRip, AVI, XviD, MP3
Песня: In The End
Жанр: Rapcore, Alt.Rock
Продолжительность: 00:03:36
Год выпуска: 2001
Описание: Майк Шинода ходит по выжженной пустыне и читает рэп, Честер Беннингтон орет стоя на вершине огромной каменной статуи. Один из лучших клипов Linkin Park на одну из лучших их песен - In The End.
Видео: 640x352 (1.82:1), 23.976 fps, XviD Final 1.0.2 (build 36) ~1888 kbps avg, 0.35 bit/pixel
Аудио: 48 kHz, MPEG Layer 3, 2 ch, ~192.00 kbps avg

19
июл
2009

Linkin Park--New Divide [2009, Rock, HDTV]

Формат: HDTV, MP4, H.264, AAC
Исполнитель: Linkin Park
Песня: New divide
Жанр: Rock
Продолжительность: 04:26
Год выпуска: 2009
Видео: MPEG4 Video, 1280x720 (16/9), 23.972 Fps
Аудио: MPEG4 Audio, 44100Hz, stereo, 2ch, ~125Kbps

03
июн
2012

Linkin Park - Burn It Down [2012, Alternative Rock, HDTV]

Формат: HDTV, MP4, Другой MPEG4, AAC
Песня: Burn It Down
Жанр: Alternative Rock
Продолжительность: 00:03:53
Год выпуска: 2012
Видео: MPEG4 Video, 1920x820, YUV (16:9), 23.972 fps, 3 321 Kbps, 0.088 bit/pixel
Аудио: 44.1 kHz, AAC, 2 ch, 150 Kbps
Доп. информация: «Burn It Down» — первый сингл американской рок-группы Linkin Park из их пятого студийного альбома Living Things, вышедший 16 апреля 2012 года.

12
окт
2007

Linkin Park - In The End (Final Fantasy IX)

Исполнитель: Linkin Park (Final Fantasy IX)
Песня: In The End
Продолжительность: 3м 17с
Жанр: Клип
Язык: English
Описание: Очень красивый клип Музыка Linkin Park - In The End Видео из игры Final Fantasy IX
Качество: TVRip
Формат: AVI
Аудио кодек: MPEG Audio
Видео: DX50 320x240(4:3)
Аудио: MPEG: ISO/MPEG Layer3 44100 Гц, Стерео, 125 КБит/сек

05
июн
2014

Linkin Park - Wastelands (Single) [31.05.2014, Alt. Rock, MP3]

Формат: MP3, tracks, 320kbps
Год выпуска: 31.05.2014
Страна: USA
Жанр: Alt. Rock
Продолжительность: 00:03:15
Описание: 01. Wastelands
Доп. информация: