18
мар
2012

Judas Priest: 2011 Remaster Discography Sony Music Japan (Reissue 2012) [1977-1990, Heavy Metal, Hard Rock, FLAC]

Judas Priest: 2011 Remaster Discography Sony Music Japan (Reissue 2012)

Формат: FLAC, (image + .cue), lossless
Год выпуска: 1977-1990
Страна: UK
Жанр: Heavy Metal, Hard Rock
Продолжительность: 11:02:02

Описание:

1977 - Sin After Sin (00

Judas Priest: 2011 Remaster Discography Sony Music Japan Трeклист:

01. Sinner 06:45
02. Diamonds And Rust 03:27
03. Starbreaker 04:48
04. Last Rose Of The Summer 05:36
05. Let Us Prey / Call For The Priest 06:13
06. Raw Deal 06:01
07. Here Come The Tears 04:38
08. Dissident Aggressor 03:07
Bonus Tracks:
09. Race With The Devil 03:06
10. Jawbreaker (Live) 04:00
Log EAC
Exact Audio Copy V1.0 beta 3 from 29. August 2011

EAC extraction logfile from 11. March 2012, 15:40

Judas Priest / Sin After Sin

Used drive : HL-DT-STDVDRAM GSA-H60N Adapter: 2 ID: 0

Read mode : Secure
Utilize accurate stream : Yes
Defeat audio cache : Yes
Make use of C2 pointers : No

Read offset correction : 667
Overread into Lead-In and Lead-Out : No
Fill up missing offset samples with silence : Yes
Delete leading and trailing silent blocks : No
Null samples used in CRC calculations : Yes
Used interface : Native Win32 interface for Win NT & 2000

Used output format : Internal WAV Routines
Sample format : 44.100 Hz; 16 Bit; Stereo

TOC of the extracted CD

Track | Start | Length | Start sector | End sector
---------------------------------------------------------
1 | 0:00.00 | 6:45.07 | 0 | 30381
2 | 6:45.07 | 3:27.42 | 30382 | 45948
3 | 10:12.49 | 4:48.66 | 45949 | 67614
4 | 15:01.40 | 5:36.43 | 67615 | 92857
5 | 20:38.08 | 6:13.43 | 92858 | 120875
6 | 26:51.51 | 6:01.00 | 120876 | 147950
7 | 32:52.51 | 4:38.37 | 147951 | 168837
8 | 37:31.13 | 3:07.27 | 168838 | 182889
9 | 40:38.40 | 3:06.63 | 182890 | 196902
10 | 43:45.28 | 4:00.70 | 196903 | 214972

Range status and errors

Selected range

Filename C:Documents and SettingsAdminРабочий столLossless Galaxy Rip by ALLexxessJudas Priest1977 Sin After Sin (Sony Music Japan 2012)Judas Priest - Sin After Sin.wav

Peak level 100.0 %
Extraction speed 5.9 X
Range quality 100.0 %
Test CRC 7FC6AE3A
Copy CRC 7FC6AE3A
Copy OK

No errors occurred

AccurateRip summary

Track 1 not present in database
Track 2 not present in database
Track 3 not present in database
Track 4 not present in database
Track 5 not present in database
Track 6 not present in database
Track 7 not present in database
Track 8 not present in database
Track 9 not present in database
Track 10 not present in database

None of the tracks are present in the AccurateRip database

End of status report

==== Log checksum 4437D3FB918A66BB0E4F8AAA111CC3F9E7699ACE1E13DD8B342D0567D40858E0 ====
1978 - Stained Class (00

Judas Priest: 2011 Remaster Discography Sony Music Japan Трeклист:

01. Exciter 05:32
02. White Heat, Red Hot 04:19
03. Better By You, Better Than Me 03:25
04. Stained Class 05:17
05. Invader 04:11
06. Saints In Hell 05:29
07. Savage 03:26
08. Beyond The Realms Of Death 06:51
09. Heroes End 05:00
Bonus Tracks:
10. The Fire Burns Below 06:58
11. Better By You, Better Than Me (Live) 03:41
Log EAC
Exact Audio Copy V1.0 beta 3 from 29. August 2011

EAC extraction logfile from 10. March 2012, 21:09

Judas Priest / Stained Class

Used drive : HL-DT-STDVDRAM GSA-H60N Adapter: 2 ID: 0

Read mode : Secure
Utilize accurate stream : Yes
Defeat audio cache : Yes
Make use of C2 pointers : No

Read offset correction : 667
Overread into Lead-In and Lead-Out : No
Fill up missing offset samples with silence : Yes
Delete leading and trailing silent blocks : No
Null samples used in CRC calculations : Yes
Used interface : Native Win32 interface for Win NT & 2000

Used output format : Internal WAV Routines
Sample format : 44.100 Hz; 16 Bit; Stereo

TOC of the extracted CD

Track | Start | Length | Start sector | End sector
---------------------------------------------------------
1 | 0:00.00 | 5:32.60 | 0 | 24959
2 | 5:32.60 | 4:19.55 | 24960 | 44439
3 | 9:52.40 | 3:25.28 | 44440 | 59842
4 | 13:17.68 | 5:17.49 | 59843 | 83666
5 | 18:35.42 | 4:11.10 | 83667 | 102501
6 | 22:46.52 | 5:29.59 | 102502 | 127235
7 | 28:16.36 | 3:26.54 | 127236 | 142739
8 | 31:43.15 | 6:51.37 | 142740 | 173601
9 | 38:34.52 | 5:00.31 | 173602 | 196132
10 | 43:35.08 | 6:58.46 | 196133 | 227528
11 | 50:33.54 | 3:41.25 | 227529 | 244128

Range status and errors

Selected range

Filename C:Documents and SettingsAdminРабочий столLossless Galaxy Rip by ALLexxessJudas Priest1978 Stained Class (Sony Music Japan 2012)Judas Priest - Stained Class.wav

Peak level 100.0 %
Extraction speed 6.1 X
Range quality 100.0 %
Test CRC CE317D5B
Copy CRC CE317D5B
Copy OK

No errors occurred

AccurateRip summary

Track 1 not present in database
Track 2 not present in database
Track 3 not present in database
Track 4 not present in database
Track 5 not present in database
Track 6 not present in database
Track 7 not present in database
Track 8 not present in database
Track 9 not present in database
Track 10 not present in database
Track 11 not present in database

None of the tracks are present in the AccurateRip database

End of status report

==== Log checksum 84C60E09FB08B83662AE786ECFD18CD555B15BB63B11154E0ADC1721B2B47344 ====
1978 - Killing Machine (00

Judas Priest: 2011 Remaster Discography Sony Music Japan Трeклист:

01. Delivering The Goods 04:16
02. Rock Forever 03:19
03. Evening Star 04:06
04. Hell Bent For Leather 02:41
05. Take On The World 03:01
06. Burnin' Up 04:06
07. The Green Manalishi (With The Two-Pronged Crown) 03:23
08. Killing Machine 03:02
09. Running Wild 02:58
10. Before The Dawn 03:23
11. Evil Fantasies 04:15
Bonus Tracks:
12. Fight For Your Life 04:06
13. Riding On The Wind (Live) 03:15
Log EAC
Exact Audio Copy V1.0 beta 3 from 29. August 2011

EAC extraction logfile from 10. March 2012, 20:26

Judas Priest / Killing Machine

Used drive : HL-DT-STDVDRAM GSA-H60N Adapter: 2 ID: 0

Read mode : Secure
Utilize accurate stream : Yes
Defeat audio cache : Yes
Make use of C2 pointers : No

Read offset correction : 667
Overread into Lead-In and Lead-Out : No
Fill up missing offset samples with silence : Yes
Delete leading and trailing silent blocks : No
Null samples used in CRC calculations : Yes
Used interface : Native Win32 interface for Win NT & 2000

Used output format : Internal WAV Routines
Sample format : 44.100 Hz; 16 Bit; Stereo

TOC of the extracted CD

Track | Start | Length | Start sector | End sector
---------------------------------------------------------
1 | 0:00.00 | 4:16.42 | 0 | 19241
2 | 4:16.42 | 3:19.65 | 19242 | 34231
3 | 7:36.32 | 4:06.56 | 34232 | 52737
4 | 11:43.13 | 2:41.28 | 52738 | 64840
5 | 14:24.41 | 3:01.50 | 64841 | 78465
6 | 17:26.16 | 4:06.58 | 78466 | 96973
7 | 21:32.74 | 3:23.48 | 96974 | 112246
8 | 24:56.47 | 3:02.08 | 112247 | 125904
9 | 27:58.55 | 2:58.47 | 125905 | 139301
10 | 30:57.27 | 3:23.20 | 139302 | 154546
11 | 34:20.47 | 4:15.26 | 154547 | 173697
12 | 38:35.73 | 4:06.03 | 173698 | 192150
13 | 42:42.01 | 3:15.50 | 192151 | 206825

Range status and errors

Selected range

Filename C:Documents and SettingsAdminРабочий столLossless Galaxy Rip by ALLexxessJudas Priest1978 Killing Machine (Sony Music Japan 2012)Judas Priest - Killing Machine.wav

Peak level 100.0 %
Extraction speed 5.8 X
Range quality 100.0 %
Test CRC 1BF9417A
Copy CRC 1BF9417A
Copy OK

No errors occurred

AccurateRip summary

Track 1 not present in database
Track 2 not present in database
Track 3 not present in database
Track 4 not present in database
Track 5 not present in database
Track 6 not present in database
Track 7 not present in database
Track 8 not present in database
Track 9 not present in database
Track 10 not present in database
Track 11 not present in database
Track 12 not present in database
Track 13 not present in database

None of the tracks are present in the AccurateRip database

End of status report

==== Log checksum F60AF45113A0A2CD9D4C9425C987A872273969B8E3C8A023D0CCB88F6AD285F6 ====
1979 - Unleashed In The East (Live In Japan) (01

Judas Priest: 2011 Remaster Discography Sony Music Japan Трeклист:

01. Exciter 05:38
02. Running Wild 02:53
03. Sinner 07:31
04. The Ripper 02:44
05. The Green Manalishi (With The Two-Pronged Crown) 03:16
06. Diamonds And Rust 03:30
07. Victim Of Changes 07:12
08. Genocide 07:19
09. Tyrant 04:32
Bonus Tracks:
10. Rock Forever 03:27
11. Delivering The Goods 04:07
12. Hell Bent For Leather 02:40
13. Starbreaker 06:00
Log EAC
Exact Audio Copy V1.0 beta 3 from 29. August 2011

EAC extraction logfile from 13. March 2012, 22:03

Judas Priest / Unleashed In The East

Used drive : HL-DT-STDVDRAM GSA-H60N Adapter: 2 ID: 0

Read mode : Secure
Utilize accurate stream : Yes
Defeat audio cache : Yes
Make use of C2 pointers : No

Read offset correction : 667
Overread into Lead-In and Lead-Out : No
Fill up missing offset samples with silence : Yes
Delete leading and trailing silent blocks : No
Null samples used in CRC calculations : Yes
Used interface : Native Win32 interface for Win NT & 2000

Used output format : Internal WAV Routines
Sample format : 44.100 Hz; 16 Bit; Stereo

TOC of the extracted CD

Track | Start | Length | Start sector | End sector
---------------------------------------------------------
1 | 0:00.00 | 5:38.10 | 0 | 25359
2 | 5:38.10 | 2:53.31 | 25360 | 38365
3 | 8:31.41 | 7:31.41 | 38366 | 72231
4 | 16:03.07 | 2:44.30 | 72232 | 84561
5 | 18:47.37 | 3:16.40 | 84562 | 99301
6 | 22:04.02 | 3:30.31 | 99302 | 115082
7 | 25:34.33 | 7:12.62 | 115083 | 147544
8 | 32:47.20 | 7:19.37 | 147545 | 180506
9 | 40:06.57 | 4:32.53 | 180507 | 200959
10 | 44:39.35 | 3:27.54 | 200960 | 216538
11 | 48:07.14 | 4:07.21 | 216539 | 235084
12 | 52:14.35 | 2:40.50 | 235085 | 247134
13 | 54:55.10 | 6:00.70 | 247135 | 274204

Range status and errors

Selected range

Filename C:Documents and SettingsAdminРабочий столLossless Galaxy Rip by ALLexxessJudas Priest1979 Unleashed In The East (Sony Music Japan 2012)Judas Priest - Unleashed In The East.wav

Peak level 100.0 %
Extraction speed 6.1 X
Range quality 100.0 %
Test CRC 4C3C2AD0
Copy CRC 4C3C2AD0
Copy OK

No errors occurred

AccurateRip summary

Track 1 not present in database
Track 2 not present in database
Track 3 not present in database
Track 4 not present in database
Track 5 not present in database
Track 6 not present in database
Track 7 not present in database
Track 8 not present in database
Track 9 not present in database
Track 10 not present in database
Track 11 not present in database
Track 12 not present in database
Track 13 not present in database

None of the tracks are present in the AccurateRip database

End of status report

==== Log checksum 7A6B01B1812451AC4A3A369BF616206914091AA123A242EE22D41748A4377F6D ====
1980 - British Steel (00

Judas Priest: 2011 Remaster Discography Sony Music Japan Трeклист:

01. Rapid Fire 04:07
02. Metal Gods 04:00
03. Breaking The Law 02:35
04. Grinder 03:57
05. United 03:34
06. You Don't Have To Be Old To Be Wise 05:04
07. Living After Midnight 03:31
08. The Rage 04:44
09. Steeler 04:32
Bonus Tracks:
10. Red, White & Blue 03:42
11. Grinder (Live) 04:48
Log EAC
Exact Audio Copy V1.0 beta 3 from 29. August 2011

EAC extraction logfile from 13. March 2012, 22:44

Judas Priest / British Steel

Used drive : HL-DT-STDVDRAM GSA-H60N Adapter: 2 ID: 0

Read mode : Secure
Utilize accurate stream : Yes
Defeat audio cache : Yes
Make use of C2 pointers : No

Read offset correction : 667
Overread into Lead-In and Lead-Out : No
Fill up missing offset samples with silence : Yes
Delete leading and trailing silent blocks : No
Null samples used in CRC calculations : Yes
Used interface : Native Win32 interface for Win NT & 2000

Used output format : Internal WAV Routines
Sample format : 44.100 Hz; 16 Bit; Stereo

TOC of the extracted CD

Track | Start | Length | Start sector | End sector
---------------------------------------------------------
1 | 0:00.00 | 4:07.27 | 0 | 18551
2 | 4:07.27 | 4:00.71 | 18552 | 36622
3 | 8:08.23 | 2:35.48 | 36623 | 48295
4 | 10:43.71 | 3:57.68 | 48296 | 66138
5 | 14:41.64 | 3:34.16 | 66139 | 82204
6 | 18:16.05 | 5:04.39 | 82205 | 105043
7 | 23:20.44 | 3:31.46 | 105044 | 120914
8 | 26:52.15 | 4:44.57 | 120915 | 142271
9 | 31:36.72 | 4:32.00 | 142272 | 162671
10 | 36:08.72 | 3:42.70 | 162672 | 179391
11 | 39:51.67 | 4:48.47 | 179392 | 201038

Range status and errors

Selected range

Filename C:Documents and SettingsAdminРабочий столLossless Galaxy Rip by ALLexxessJudas Priest1980 British Steel (Sony Music Japan 2012)Judas Priest - British Steel.wav

Peak level 100.0 %
Extraction speed 5.8 X
Range quality 100.0 %
Test CRC 36974CC3
Copy CRC 36974CC3
Copy OK

No errors occurred

AccurateRip summary

Track 1 not present in database
Track 2 not present in database
Track 3 not present in database
Track 4 not present in database
Track 5 not present in database
Track 6 not present in database
Track 7 not present in database
Track 8 not present in database
Track 9 not present in database
Track 10 not present in database
Track 11 not present in database

None of the tracks are present in the AccurateRip database

End of status report

==== Log checksum 92ED86A1C259B11D6CC53D2FCB63A66AF31A5E167611DBA35C38E0085C3C5573 ====
1981 - Point Of Entry (00

Judas Priest: 2011 Remaster Discography Sony Music Japan Трeклист:

01. Heading Out To The Highway 03:46
02. Don't Go 03:18
03. Hot Rockin'03:17
04. Turning Circles 03:42
05. Desert Plains 04:37
06. Solar Angels 04:03
07. You Say Yes 03:29
08. All The Way 03:42
09. Troubleshooter 04:00
10. On The Run 03:47
Bonus Tracks:
11. Thunder Road 05:11
12. Desert Plains (Live) 05:05
Log EAC
Exact Audio Copy V1.0 beta 3 from 29. August 2011

EAC extraction logfile from 14. March 2012, 21:28

Judas Priest / Point Of Entry

Used drive : HL-DT-STDVDRAM GSA-H60N Adapter: 2 ID: 0

Read mode : Secure
Utilize accurate stream : Yes
Defeat audio cache : Yes
Make use of C2 pointers : No

Read offset correction : 667
Overread into Lead-In and Lead-Out : No
Fill up missing offset samples with silence : Yes
Delete leading and trailing silent blocks : No
Null samples used in CRC calculations : Yes
Used interface : Native Win32 interface for Win NT & 2000

Used output format : Internal WAV Routines
Sample format : 44.100 Hz; 16 Bit; Stereo

TOC of the extracted CD

Track | Start | Length | Start sector | End sector
---------------------------------------------------------
1 | 0:00.00 | 3:46.31 | 0 | 16980
2 | 3:46.31 | 3:18.21 | 16981 | 31851
3 | 7:04.52 | 3:17.48 | 31852 | 46674
4 | 10:22.25 | 3:42.09 | 46675 | 63333
5 | 14:04.34 | 4:37.52 | 63334 | 84160
6 | 18:42.11 | 4:03.65 | 84161 | 102450
7 | 22:46.01 | 3:29.21 | 102451 | 118146
8 | 26:15.22 | 3:42.51 | 118147 | 134847
9 | 29:57.73 | 4:00.19 | 134848 | 152866
10 | 33:58.17 | 3:47.45 | 152867 | 169936
11 | 37:45.62 | 5:11.72 | 169937 | 193333
12 | 42:57.59 | 5:05.09 | 193334 | 216217

Range status and errors

Selected range

Filename C:Documents and SettingsAdminРабочий столLossless Galaxy Rip by ALLexxessJudas Priest1981 Point Of Entry (Sony Music Japan 2012)Judas Priest - Point Of Entry.wav

Peak level 100.0 %
Extraction speed 5.7 X
Range quality 100.0 %
Test CRC 3AD42356
Copy CRC 3AD42356
Copy OK

No errors occurred

AccurateRip summary

Track 1 not present in database
Track 2 not present in database
Track 3 not present in database
Track 4 not present in database
Track 5 not present in database
Track 6 not present in database
Track 7 not present in database
Track 8 not present in database
Track 9 not present in database
Track 10 not present in database
Track 11 not present in database
Track 12 not present in database

None of the tracks are present in the AccurateRip database

End of status report

==== Log checksum BDBAC9260E1DA65B77797E9BC08CF821CF70B55983E47835FA0313027A2E80D3 ====
1982 - Screaming For Vengeance (00

Judas Priest: 2011 Remaster Discography Sony Music Japan Трeклист:

01. The Hellion 00:42
02. Electric Eye 03:38
03. Riding On The Wind 03:10
04. Bloodstone 03:53
05. (Take These) Chains 03:07
06. Pain And Pleasure 04:15
07. Screaming For Vengeance 04:43
08. You've Got Another Thing Coming 05:10
09. Fever 05:21
10. Devil's Child 04:51
Bonus Tracks:
11. Prisoner Of Your Eyes 07:12
12. Devil's Child (Live) 05:02
Log EAC
Exact Audio Copy V1.0 beta 3 from 29. August 2011

EAC extraction logfile from 12. March 2012, 15:20

Judas Priest / Screaming For Vengeance

Used drive : HL-DT-STDVDRAM GSA-H60N Adapter: 2 ID: 0

Read mode : Secure
Utilize accurate stream : Yes
Defeat audio cache : Yes
Make use of C2 pointers : No

Read offset correction : 667
Overread into Lead-In and Lead-Out : No
Fill up missing offset samples with silence : Yes
Delete leading and trailing silent blocks : No
Null samples used in CRC calculations : Yes
Used interface : Native Win32 interface for Win NT & 2000

Used output format : Internal WAV Routines
Sample format : 44.100 Hz; 16 Bit; Stereo

TOC of the extracted CD

Track | Start | Length | Start sector | End sector
---------------------------------------------------------
1 | 0:00.00 | 0:42.40 | 0 | 3189
2 | 0:42.40 | 3:38.70 | 3190 | 19609
3 | 4:21.35 | 3:10.25 | 19610 | 33884
4 | 7:31.60 | 3:53.04 | 33885 | 51363
5 | 11:24.64 | 3:07.41 | 51364 | 65429
6 | 14:32.30 | 4:15.40 | 65430 | 84594
7 | 18:47.70 | 4:43.02 | 84595 | 105821
8 | 23:30.72 | 5:10.03 | 105822 | 129074
9 | 28:41.00 | 5:21.67 | 129075 | 153216
10 | 34:02.67 | 4:51.13 | 153217 | 175054
11 | 38:54.05 | 7:12.10 | 175055 | 207464
12 | 46:06.15 | 5:02.25 | 207465 | 230139

Range status and errors

Selected range

Filename C:Documents and SettingsAdminРабочий столLossless Galaxy Rip by ALLexxessJudas Priest1982 Screaming For Vengeance (Sony Music Japan 2012)Judas Priest - Screaming For Vengeance.wav

Peak level 99.8 %
Extraction speed 6.0 X
Range quality 100.0 %
Test CRC 2B8C622A
Copy CRC 2B8C622A
Copy OK

No errors occurred

AccurateRip summary

Track 1 cannot be verified as accurate (confidence 4) [92F270D6], AccurateRip returned [EF3D6363] (AR v2)
Track 2 cannot be verified as accurate (confidence 4) [48255BE2], AccurateRip returned [CDCDF049] (AR v2)
Track 3 cannot be verified as accurate (confidence 4) [593B595B], AccurateRip returned [22174344] (AR v2)
Track 4 cannot be verified as accurate (confidence 4) [3A9509D0], AccurateRip returned [A3541AFA] (AR v2)
Track 5 cannot be verified as accurate (confidence 4) [14838571], AccurateRip returned [ABA1FCB1] (AR v2)
Track 6 cannot be verified as accurate (confidence 4) [EA785985], AccurateRip returned [F0E8141A] (AR v2)
Track 7 cannot be verified as accurate (confidence 4) [7C9D6740], AccurateRip returned [D9D93985] (AR v2)
Track 8 cannot be verified as accurate (confidence 4) [F29FFE34], AccurateRip returned [AD1CFC4D] (AR v2)
Track 9 cannot be verified as accurate (confidence 4) [8CF455F8], AccurateRip returned [F02D4631] (AR v2)
Track 10 cannot be verified as accurate (confidence 4) [E1BBF9DA], AccurateRip returned [F4BF7DAA] (AR v2)
Track 11 cannot be verified as accurate (confidence 4) [4855E800], AccurateRip returned [A72486CD] (AR v2)
Track 12 cannot be verified as accurate (confidence 4) [9628D510], AccurateRip returned [0C4021F0] (AR v2)

No tracks could be verified as accurate
You may have a different pressing from the one(s) in the database

End of status report

==== Log checksum D64A9BF48782A71BD317DCDAEA4A2F95BE459280A27FAE0DC8273A8F7CF9614B ====
1984 - Defenders Of The Faith (00

Judas Priest: 2011 Remaster Discography Sony Music Japan Трeклист:

01. Freewheel Burning 04:23
02. Jawbreaker 03:27
03. Rock Hard Ride Free 05:35
04. The Sentinel 05:05
05. Love Bites 04:47
06. Eat Me Alive 03:35
07. Some Heads Are Gonna Roll 04:07
08. Night Comes Down 04:01
09. Heavy Duty 02:25
10. Defenders Of The Faith 01:32
Bonus Tracks:
11. Turn On Your Light 05:23
12. Heavy Duty / Defenders Of The Faith (Live) 05:25
Log EAC
Exact Audio Copy V1.0 beta 3 from 29. August 2011

EAC extraction logfile from 11. March 2012, 21:50

Judas Priest / Defenders Of The Faith

Used drive : HL-DT-STDVDRAM GSA-H60N Adapter: 2 ID: 0

Read mode : Secure
Utilize accurate stream : Yes
Defeat audio cache : Yes
Make use of C2 pointers : No

Read offset correction : 667
Overread into Lead-In and Lead-Out : No
Fill up missing offset samples with silence : Yes
Delete leading and trailing silent blocks : No
Null samples used in CRC calculations : Yes
Used interface : Native Win32 interface for Win NT & 2000

Used output format : Internal WAV Routines
Sample format : 44.100 Hz; 16 Bit; Stereo

TOC of the extracted CD

Track | Start | Length | Start sector | End sector
---------------------------------------------------------
1 | 0:00.00 | 4:23.64 | 0 | 19788
2 | 4:23.64 | 3:27.44 | 19789 | 35357
3 | 7:51.33 | 5:35.55 | 35358 | 60537
4 | 13:27.13 | 5:05.50 | 60538 | 83462
5 | 18:32.63 | 4:47.43 | 83463 | 105030
6 | 23:20.31 | 3:35.15 | 105031 | 121170
7 | 26:55.46 | 4:07.15 | 121171 | 139710
8 | 31:02.61 | 4:01.08 | 139711 | 157793
9 | 35:03.69 | 2:25.63 | 157794 | 168731
10 | 37:29.57 | 1:32.72 | 168732 | 175703
11 | 39:02.54 | 5:23.39 | 175704 | 199967
12 | 44:26.18 | 5:25.55 | 199968 | 224397

Range status and errors

Selected range

Filename C:Documents and SettingsAdminРабочий столLossless Galaxy Rip by ALLexxessJudas Priest1984 Defenders Of The Faith (Sony Music Japan 2012)Judas Priest - Defenders Of The Faith.wav

Peak level 100.0 %
Extraction speed 5.9 X
Range quality 99.9 %
Test CRC 0CE96802
Copy CRC 0CE96802
Copy OK

No errors occurred

AccurateRip summary

Track 1 not present in database
Track 2 not present in database
Track 3 not present in database
Track 4 not present in database
Track 5 not present in database
Track 6 not present in database
Track 7 not present in database
Track 8 not present in database
Track 9 not present in database
Track 10 not present in database
Track 11 not present in database
Track 12 not present in database

None of the tracks are present in the AccurateRip database

End of status report

==== Log checksum 67ECFD8504EABEB63545A7B349063F2A7A3F6376CD7BD0C3BA15B1C310A2FAAA ====
1986 - Turbo (00

Judas Priest: 2011 Remaster Discography Sony Music Japan Трeклист:

01. Turbo Lover 05:33
02. Locked In 04:19
03. Private Property 04:30
04. Parental Guidance 03:26
05. Rock You All Around The World 03:38
06. Out In The Cold 06:27
07. Wild Nights, Hot & Crazy Days 04:40
08. Hot For Love 04:11
09. Reckless 04:20
Bonus Tracks:
10. All Fired Up 04:45
11. Locked In (Live) 04:23
Log EAC
Exact Audio Copy V1.0 beta 3 from 29. August 2011

EAC extraction logfile from 8. March 2012, 22:58

Judas Priest / Turbo

Used drive : HL-DT-STDVDRAM GSA-H60N Adapter: 2 ID: 0

Read mode : Secure
Utilize accurate stream : Yes
Defeat audio cache : Yes
Make use of C2 pointers : No

Read offset correction : 667
Overread into Lead-In and Lead-Out : No
Fill up missing offset samples with silence : Yes
Delete leading and trailing silent blocks : No
Null samples used in CRC calculations : Yes
Used interface : Native Win32 interface for Win NT & 2000

Used output format : Internal WAV Routines
Sample format : 44.100 Hz; 16 Bit; Stereo

TOC of the extracted CD

Track | Start | Length | Start sector | End sector
---------------------------------------------------------
1 | 0:00.00 | 5:33.38 | 0 | 25012
2 | 5:33.38 | 4:19.59 | 25013 | 44496
3 | 9:53.22 | 4:30.24 | 44497 | 64770
4 | 14:23.46 | 3:26.70 | 64771 | 80290
5 | 17:50.41 | 3:38.59 | 80291 | 96699
6 | 21:29.25 | 6:27.66 | 96700 | 125790
7 | 27:57.16 | 4:40.25 | 125791 | 146815
8 | 32:37.41 | 4:11.69 | 146816 | 165709
9 | 36:49.35 | 4:20.21 | 165710 | 185230
10 | 41:09.56 | 4:45.13 | 185231 | 206618
11 | 45:54.69 | 4:23.74 | 206619 | 226417

Range status and errors

Selected range

Filename C:Documents and SettingsAdminРабочий столLossless Galaxy Rip by ALLexxessJudas Priest1986 Turbo (Sony Music Japan 2012)Judas Priest - Turbo.wav

Peak level 100.0 %
Extraction speed 5.8 X
Range quality 99.9 %
Test CRC 22B3B69B
Copy CRC 22B3B69B
Copy OK

No errors occurred

AccurateRip summary

Track 1 not present in database
Track 2 not present in database
Track 3 not present in database
Track 4 not present in database
Track 5 not present in database
Track 6 not present in database
Track 7 not present in database
Track 8 not present in database
Track 9 not present in database
Track 10 not present in database
Track 11 not present in database

None of the tracks are present in the AccurateRip database

End of status report

==== Log checksum FF899434BDFE14F4ED14FB3AA5041B03C2DE0C0E89D1FB7331F065175C139E67 ====
1987 - Priest... Live! 2CD Set (01
Judas Priest: 2011 Remaster Discography Sony Music Japan
Disc One (00

Трeклист:

01. Out In The Cold 06:51
02. Heading Out To The Highway 04:53
03. Metal Gods 04:11
04. Breaking The Law 02:42
05. Love Bites 05:27
06. Some Heads Are Gonna Roll 04:23
07. The Sentinel 05:13
08. Private Property 04:51

Log EAC
Exact Audio Copy V1.0 beta 3 from 29. August 2011

EAC extraction logfile from 13. March 2012, 20:20

Judas Priest / Priest...Live! CD1

Used drive : HL-DT-STDVDRAM GSA-H60N Adapter: 2 ID: 0

Read mode : Secure
Utilize accurate stream : Yes
Defeat audio cache : Yes
Make use of C2 pointers : No

Read offset correction : 667
Overread into Lead-In and Lead-Out : No
Fill up missing offset samples with silence : Yes
Delete leading and trailing silent blocks : No
Null samples used in CRC calculations : Yes
Used interface : Native Win32 interface for Win NT & 2000

Used output format : Internal WAV Routines
Sample format : 44.100 Hz; 16 Bit; Stereo

TOC of the extracted CD

Track | Start | Length | Start sector | End sector
---------------------------------------------------------
1 | 0:00.00 | 6:51.31 | 0 | 30855
2 | 6:51.31 | 4:53.24 | 30856 | 52854
3 | 11:44.55 | 4:11.37 | 52855 | 71716
4 | 15:56.17 | 2:42.37 | 71717 | 83903
5 | 18:38.54 | 5:27.35 | 83904 | 108463
6 | 24:06.14 | 4:23.20 | 108464 | 128208
7 | 28:29.34 | 5:13.45 | 128209 | 151728
8 | 33:43.04 | 4:51.49 | 151729 | 173602

Range status and errors

Selected range

Filename C:Documents and SettingsAdminРабочий столLossless Galaxy Rip by ALLexxessJudas Priest1987 Priest...Live! (2CD Set Sony Music Japan 2012)CD1Judas Priest - Priest...Live! CD1.wav

Peak level 100.0 %
Extraction speed 5.5 X
Range quality 99.9 %
Test CRC FAD8B4ED
Copy CRC FAD8B4ED
Copy OK

No errors occurred

AccurateRip summary

Track 1 not present in database
Track 2 not present in database
Track 3 not present in database
Track 4 not present in database
Track 5 not present in database
Track 6 not present in database
Track 7 not present in database
Track 8 not present in database

None of the tracks are present in the AccurateRip database

End of status report

==== Log checksum 72B7061B292CB1601AC5F3CBD752BE920464A82F60E03AD8BA8DF6F3F499A7D2 ====
Disc Two (00

Трeклист:

01. Rock You All Around The World 04:42
02. Electric Eye 04:19
03. Turbo Lover 05:53
04. Freewheel Burning 05:01
05. Parental Guidance 04:10
06. Living After Midnight 07:24
07. You've Got Another Thing Comin' 08:05
Bonus Tracks:
08. Screaming For Vengeance 05:55
09. Rock Hard Ride Free 06:42
10. Hell Bent For Leather 04:43

Log EAC
Exact Audio Copy V1.0 beta 3 from 29. August 2011

EAC extraction logfile from 13. March 2012, 21:24

Judas Priest / Priest...Live! CD2

Used drive : HL-DT-STDVDRAM GSA-H60N Adapter: 2 ID: 0

Read mode : Secure
Utilize accurate stream : Yes
Defeat audio cache : Yes
Make use of C2 pointers : No

Read offset correction : 667
Overread into Lead-In and Lead-Out : No
Fill up missing offset samples with silence : Yes
Delete leading and trailing silent blocks : No
Null samples used in CRC calculations : Yes
Used interface : Native Win32 interface for Win NT & 2000

Used output format : Internal WAV Routines
Sample format : 44.100 Hz; 16 Bit; Stereo

TOC of the extracted CD

Track | Start | Length | Start sector | End sector
---------------------------------------------------------
1 | 0:00.00 | 4:42.05 | 0 | 21154
2 | 4:42.05 | 4:19.63 | 21155 | 40642
3 | 9:01.68 | 5:53.03 | 40643 | 67120
4 | 14:54.71 | 5:01.04 | 67121 | 89699
5 | 19:56.00 | 4:10.74 | 89700 | 108523
6 | 24:06.74 | 7:24.06 | 108524 | 141829
7 | 31:31.05 | 8:05.41 | 141830 | 178245
8 | 39:36.46 | 5:55.18 | 178246 | 204888
9 | 45:31.64 | 6:42.36 | 204889 | 235074
10 | 52:14.25 | 4:43.36 | 235075 | 256335

Range status and errors

Selected range

Filename C:Documents and SettingsAdminРабочий столLossless Galaxy Rip by ALLexxessJudas Priest1987 Priest...Live! (2CD Set Sony Music Japan 2012)CD2Judas Priest - Priest...Live! CD2.wav

Peak level 100.0 %
Extraction speed 6.1 X
Range quality 100.0 %
Test CRC 881066E2
Copy CRC 881066E2
Copy OK

No errors occurred

AccurateRip summary

Track 1 not present in database
Track 2 not present in database
Track 3 not present in database
Track 4 not present in database
Track 5 not present in database
Track 6 not present in database
Track 7 not present in database
Track 8 not present in database
Track 9 not present in database
Track 10 not present in database

None of the tracks are present in the AccurateRip database

End of status report

==== Log checksum B201321F02F0B1E59368FCA756F5074AC569AA7A867EDF4178BC018777DBD6E7 ====
1988 - Ram It Down (00

Judas Priest: 2011 Remaster Discography Sony Music Japan Трeклист:

01. Ram It Down 04:48
02. Heavy Metal 05:58
03. Love Zone 03:58
04. Come And Get It 04:07
05. Hard As Iron 04:07
06. Blood Red Skies 07:50
07. I'm A Rocker 03:58
08. Johnny B. Goode 04:39
09. Love You To Death 04:36
10. Monsters Of Rock 05:31
Bonus Tracks:
11. Night Comes Down (Live) 04:32
12. Bloodstone (Live) 04:04
Log EAC
Exact Audio Copy V1.0 beta 3 from 29. August 2011

EAC extraction logfile from 12. March 2012, 22:42

Judas Priest / Ram It Down

Used drive : HL-DT-STDVDRAM GSA-H60N Adapter: 2 ID: 0

Read mode : Secure
Utilize accurate stream : Yes
Defeat audio cache : Yes
Make use of C2 pointers : No

Read offset correction : 667
Overread into Lead-In and Lead-Out : No
Fill up missing offset samples with silence : Yes
Delete leading and trailing silent blocks : No
Null samples used in CRC calculations : Yes
Used interface : Native Win32 interface for Win NT & 2000

Used output format : Internal WAV Routines
Sample format : 44.100 Hz; 16 Bit; Stereo

TOC of the extracted CD

Track | Start | Length | Start sector | End sector
---------------------------------------------------------
1 | 0:00.00 | 4:48.51 | 0 | 21650
2 | 4:48.51 | 5:58.20 | 21651 | 48520
3 | 10:46.71 | 3:58.43 | 48521 | 66413
4 | 14:45.39 | 4:07.21 | 66414 | 84959
5 | 18:52.60 | 4:07.65 | 84960 | 103549
6 | 23:00.50 | 7:50.72 | 103550 | 138871
7 | 30:51.47 | 3:58.62 | 138872 | 156783
8 | 34:50.34 | 4:39.34 | 156784 | 177742
9 | 39:29.68 | 4:36.46 | 177743 | 198488
10 | 44:06.39 | 5:31.47 | 198489 | 223360
11 | 49:38.11 | 4:32.70 | 223361 | 243830
12 | 54:11.06 | 4:04.48 | 243831 | 262178

Range status and errors

Selected range

Filename C:Documents and SettingsAdminРабочий столLossless Galaxy Rip by ALLexxessJudas Priest1988 Ram It Down (Sony Music Japan 2012)Judas Priest - Ram It Down.wav

Peak level 100.0 %
Extraction speed 6.2 X
Range quality 100.0 %
Test CRC C77B1D1F
Copy CRC C77B1D1F
Copy OK

No errors occurred

AccurateRip summary

Track 1 not present in database
Track 2 not present in database
Track 3 not present in database
Track 4 not present in database
Track 5 not present in database
Track 6 not present in database
Track 7 not present in database
Track 8 not present in database
Track 9 not present in database
Track 10 not present in database
Track 11 not present in database
Track 12 not present in database

None of the tracks are present in the AccurateRip database

End of status report

==== Log checksum 0FB45CEC10E8746BA2230BCC62C32BCE2AA3A225E3FC236685E46BED1ED3E722 ====
1990 - Painkiller (00

Judas Priest: 2011 Remaster Discography Sony Music Japan Трeклист:

01. Painkiller 06:06
02. Hell Patrol 03:37
03. All Guns Blazing 03:57
04. Leather Rebel 03:35
05. Metal Meltdown 04:50
06. Night Crawler 05:45
07. Between The Hammer & The Anvil 04:49
08. A Touch Of Evil 05:44
09. Battle Hymn 00:56
10. One Shot At Glory 06:48
Bonus Tracks:
11. Living Bad Dreams 05:21
12. Leather Rebel 03:38
Log EAC
Exact Audio Copy V1.0 beta 3 from 29. August 2011

EAC extraction logfile from 13. March 2012, 17:49

Judas Priest / Painkiller

Used drive : HL-DT-STDVDRAM GSA-H60N Adapter: 2 ID: 0

Read mode : Secure
Utilize accurate stream : Yes
Defeat audio cache : Yes
Make use of C2 pointers : No

Read offset correction : 667
Overread into Lead-In and Lead-Out : No
Fill up missing offset samples with silence : Yes
Delete leading and trailing silent blocks : No
Null samples used in CRC calculations : Yes
Used interface : Native Win32 interface for Win NT & 2000

Used output format : Internal WAV Routines
Sample format : 44.100 Hz; 16 Bit; Stereo

TOC of the extracted CD

Track | Start | Length | Start sector | End sector
---------------------------------------------------------
1 | 0:00.00 | 6:06.46 | 0 | 27495
2 | 6:06.46 | 3:37.04 | 27496 | 43774
3 | 9:43.50 | 3:57.35 | 43775 | 61584
4 | 13:41.10 | 3:35.28 | 61585 | 77737
5 | 17:16.38 | 4:50.27 | 77738 | 99514
6 | 22:06.65 | 5:45.13 | 99515 | 125402
7 | 27:52.03 | 4:49.27 | 125403 | 147104
8 | 32:41.30 | 5:44.59 | 147105 | 172963
9 | 38:26.14 | 0:56.53 | 172964 | 177216
10 | 39:22.67 | 6:48.15 | 177217 | 207831
11 | 46:11.07 | 5:21.70 | 207832 | 231976
12 | 51:33.02 | 3:38.06 | 231977 | 248332

Range status and errors

Selected range

Filename C:Documents and SettingsAdminРабочий столLossless Galaxy Rip by ALLexxessJudas Priest1990 Painkiller (Sony Music Japan 2012)Judas Priest - Painkiller.wav

Peak level 100.0 %
Extraction speed 6.0 X
Range quality 100.0 %
Test CRC 904E7E96
Copy CRC 904E7E96
Copy OK

No errors occurred

AccurateRip summary

Track 1 not present in database
Track 2 not present in database
Track 3 not present in database
Track 4 not present in database
Track 5 not present in database
Track 6 not present in database
Track 7 not present in database
Track 8 not present in database
Track 9 not present in database
Track 10 not present in database
Track 11 not present in database
Track 12 not present in database

None of the tracks are present in the AccurateRip database

End of status report

==== Log checksum CE6C966623270A477A1F18949B00A2267A9D452EBF24222A761376134A964E72 ====

Доп. информация:

Об исполнителе
Judas Priest - Glenn Tipton (guitars), Ken K. Downing (guitars), Rob Halford (vocals), lan Hill (bass), John Hinch (drums).
На протяжении всей карьеры в группе сменялись только ударники, остальные музыканты были незаменимы. Начиная с Хинча, новые барабанщики появлялись каждыйгод: Alan Moore, Simon Philli'ps (Jack Bruce Band,MSG, Mike Oldfield Group и многие другие), Les Binks- Лишь с 1980 по 1988 год в ансамбле стабильно и добротно отработал старый друг Гленна Хьюза (Glenn Hughes) no Trapeze (см.) Dave Holland. Впрочем, лучшим оказался последний - Scott Travis из локальной английской команды Racer X.
Эта бригада стала первой в категории так называемой "Новой волны британского хеви-метал". Фактически же, это была самая железно-скоростная группа 70-х в мире. Все структуры музыки Judas Priest расположены в рамках хард-рока, то есть базис не имеет отношения к сонатной классике, что проявляется на более высоких ступенях метала - Doom и Progressive. В принципе, эти бирмингемцы являются прямыми предтечами трэшевого движения, которое характиризуется обычным ускорением стандартных хардовых структур при резкой и монотонной риффовке основных тем. До сих пор Judas Priest, особенно после альбома 1990 года, выглядят лучше подавляющего большинства трэш-групп, что наводит на мысль о следующем. Едва ли трэш можно рассматривать как следующую за хард-роком более высокую ступень в аспекте прогрессивной музыки. Скорее, это просто ответвление от харда, несущее в себе отнюдь не больший потенциал, тогда как реально новой ступенью после хард-рока является doom, на хардовом "ложе" которого разворачиваются первые классические сонатные формы музыки, собственно эпос.
Ровные по качеству музыкального и вокального материалы характерны для творчества Judas Priest в целом. Выделить можно: в композиционном отношении -"Stained class", "Defenders of the faith", но особенно показательным для традиционного пристовского металлически-хардового ключа выглядит "Ram it down", словно вобравший в себя все лучшее, созданное группой за долгие годы. В коммерческом отношении очень успешны были альбомы 1980, 1981 и 1986 года - в нашем понятии они Наиболее примитивны.
Редчайший в истории рок-музыки случай, когда лучшие произведения выходят в позднейшем периоде, продемонстрировали Judas Priest двумя своими последними проектами, что придает им, очень крупное значение и служит примером. Просто сногсшибательным вышел диск "Болеутолитель" (1990). Честно говоря, едва ли кто ожидал от этой стабильной команды такого шага вверх! Сверхскоростной, полный самых неожиданных поворотов метал, сотканный из чудесных композиций и превосходных аранжировок, вплотную приблизил группу к категории прогрессива. Метал обзавелся еще одной яркой жемчужиной, а группа навечно вошла в анналы легенд "тяжелого" рока.
К сожалению, после этого самого шикарного своего альбома, группа потеряла фронтмена в лице оригинального в прямом и переносном смысле вокалиста Роба Халфорда. Сначала он появился на одном из концертов в составе Black Sabbath, еще до слухов о реформации этого состава с Оззи. Потом, прихватив из Judas Priest барабанщика Трэйвиса, организовал собственный проект Fight. Музыка последнего выдержана в традиционном пристовском ключе, но до лучших альбомов старой группы все равно не дотягивает. Может, одумается еще Халфорд, так как без него Присты почему-то не хотят работать дальше, возможно, напрасно. Авторские права закреплены за Типтоном, а хороших певцов пока еще хватает. Впрочем, им там виднее.
persona.rin.ru
Релиз представлен группой:

P.S. Благодарности ALLexxess за предоставленную информацию
06
окт
2017
Владимир, г. Санкт-Петербург
НЕ простые ребята много взлетов и падений

цитировать | ответить
06-10-2017 21:31:04


18
мар
2012

Judas Priest - Collections (4CD HQCD K2HD Mastering Victor Entertainment Japan) - 2012 [1976-1981, Heavy Metal, Hard Rock, FLAC]

Формат: FLAC, (image + .cue), lossless
Год выпуска: 1976-1981
Страна: UK
Жанр: Heavy Metal, Hard Rock
Продолжительность: 03:21:37
Описание: 1974 - Rocka Rolla (00
Трeклист: 01. One For The Road 04:39 02. Rocka Rolla 03:05 03. Winter 03:02 04. Deep Freeze 01:56 05. Winter Retreat 01:31 06. Cheater 02:58 07. Never Satisfied 04:53 08. Run Of The Mill 08:34 09. Dying To Meet You 06:19 10. Caviar And Meths 02:04 Log EACExact Audio Copy V1.0 beta 3 from 29. August 2011 EAC extraction logfile from 9. March 2012, 14:57 Judas Priest / Rocka Rolla Used drive : HL-DT-STDVDRAM GSA-H60N Adapter: 2 I ...

23
апр
2010

Judas Priest - Discography [1974-2009, Heavy metal, hard rock, FLAC, APE]

Формат: FLAC, APE (image + .cue), lossless
Год выпуска: 1974-2009
Страна: Birmingham, England
Жанр: Heavy metal, hard rock
Продолжительность: 59:45:54 ALBUMS 1974 - Rocka Rolla (39 Треклист 01. One For The Road 02. Rocka Rolla 03. Winter 04. Deep Freeze 05. Winter Retreat 06. Cheater 07. Never Satisfied 08. Run Of The Mill 09. Dying To Meet You 10. Caviar And Meths 1976 - Sad Wings Of Destiny (39 Треклист 01. Victim Of Changes 02. The Ripper 03. Dreamer Deceiver 04. Deceiver 05. Prelude 06. Tyrant 07. Genocide 08. Epitaph 09. Island Of Domination 1976 - Sad Wings Of Destiny ( K2 HD Japa ...

07
мар
2012

Judas Priest - Discography [1974-2011, Heavy Metal , Hard Rock , British Metal , Speed Metal, MP3]

Формат: MP3, tracks, 320kbps
Год выпуска: 1974-2011
Страна: Great Britain (Birmingham)
Жанр: Heavy Metal, Hard Rock, British Metal, Speed Metal
Продолжительность: 114:27:46
Описание: Original Edition 1974 - Rocka Rolla 00 01. One For The Road 02. Rocka Rolla 03. Winter 04. Deep Freeze 05. Winter Retreat 06. Cheater 07. Never Satisfied 08. Run Of The Mill 09. Dying To Meet You 10. Caviar And Meths 1976 - Sad Wings Of Destiny 00 01. Victim Of Changes 02. The Ripper 03. Dreamer Deceiver 04. Deceiver 05. Prelude 06. Tyrant 07. Genocide 08. Epitaph 09. Island Of Domination 1977 - Sin After S ...

14
июн
2013

Judas Priest / Halford - Video Collection (1980-2012) [2013, Heavy Metal, DVD9]

Формат: DVD9, DVD Video, MPEG2, AC3
Песня: Video Collection (1980-2012)
Жанр: Heavy Metal
Продолжительность: 02:00:05
Год выпуска: 2013
Видео: MPEG 2 VIDEO, 720*576, PAL (4:3), 25.0 fps, ~5169 kbps, 0.499 bit/pixel
Аудио: 48.0 khz, AC 3, 2 ch, 256 kbps
Доп. информация: На DVD собраны видеоклипы группы и видео из сольного творчества певца. Треклист 01. Breaking The Low 02. Living After Midnight 03. Dont Go 04. Heading Out To The Highway 05. Hot Rockin 06. You've Another Thing Comin' 07. Freewheel Burning 08. Love Bites 09. Locked In 10. Turbo Lover 11. Johnny B. Goode 12. Painkiller 13. ...

27
авг
2011

City Boy - 5 Albums (Japan Mini LP 24 Bit Remaster 2011) [2011, Rock, AOR, FLAC]

Формат: FLAC, (image + .cue), lossless
Год выпуска: 2011
Страна: UK
Жанр: Rock, AOR
Продолжительность: 03:32:50
Описание: 1976- City Boy (AIRAC-1632) 0 1. Moonlight (Shake My Head And Leave) 2. Deadly Delicious 3. Surgery Hours (Doctor Doctor) 4. Sunset Boulevard 5. Oddball Dance 6. 5000 Years / Don't Know Can't Tell 7. The Hap-Ki-Do Kid 8. The Greatest Story Ever Told 9. Haymaking Time EACExact Audio Copy V1.0 beta 2 from 29. April 2011 EAC extraction logfile from 24. August 2011, 20:02 City Boy / City Boy Used drive : HL-DT-STDVDRAM GSA-H60N Adapter: 2 ID: 0 Read mode : Secure Utilize ac ...

30
мая
2011

Simon Garfunkel - Sounds Of Silence (Japan Edition 2001 Sony Music)[1966, Folk Rock, APE

Формат: APE, (image + .cue), lossless
Год выпуска: 1966
Страна: USA
Жанр: Folk Rock
Продолжительность: 00:40:36
Описание:
Трэклист: 01. The Sound Of Silence 03:05 02. Leaves That Are Green 02:21 03. Blessed 03:15 04. Kathy's Song 03:18 05. Somewhere They Can't Find Me 02:35 06. Anji (Davey Graham) 02:15 07. Richard Cory 02:56 08. A Most Peculiar Man 02:30 09. April Come She Will 01:50 10. We've Got A Groovy Thing Goin' 01:57 11. I Am A Rock 02:50 Bonus Tracks: 12. Blues Run The Game (by Jackson C. Frank) 02:52 13. Barbriallen (Demo) 04:03 14. Rose Of Aberdeen (Demo) 01:59 15. Roving Gambler ...

24
фев
2011

Jimi Hendrix - Sony Music Japan 2010 Reissues (6 Editions) 8CD [1967-1970, Rock, Hard Rock, FLAC]

Формат: FLAC, (image + .cue), lossless
Год выпуска: 1967-1970
Страна: USA
Жанр: Rock, Hard Rock
Продолжительность: 07:09:28
Описание: The Jimi Hendrix Experience - 1967 - Are You Experienced? 01
Трэклист: 01. Foxy Lady 03:19 02. Manic Depression 03:42 03. Red House 03:44 04. Can You See Me 02:33 05. Love Or Confusion 03:13 06. I Don't Live Today 03:55 07. May This Be Love 03:11 08. Fire 02:45 09. 3rd Stone From The Sun 06:44 10. Remember 02:49 11. Are You Experienced 04:14 12. Hey Joe 03:30 13. Stone Free 03:36 14. Purple Haze 02:52 15. 51st Anniversary 03:16 16. The Wind Cries Mary 03:21 17 ...

30
мая
2011

Simon Garfunkel - Bridge Over Troubled Water (Japan Edition 2001 Sony Music) [1970, Folk Rock, APE]

Формат: APE, (image + .cue), lossless
Год выпуска: 1970
Страна: USA
Жанр: Folk Rock
Продолжительность: 00:37:36
Описание:
Трэклист: 01. Bridge Over Troubled Water 04:55 02. El Condor Pasa (Daniel Alomía Robles, English lyrics by Paul Simon, arranged by Jorge Milchberg) 03:09 03. Cecilia 02:55 04. Keep The Customer Satisfied 02:37 05. So Long, Frank Lloyd Wright 03:45 06. The Boxer 05:12 07. Baby Driver 03:18 08. The Only Living Boy In New York 04:02 09. Why Don't You Write Me? 02:45 10. Bye Bye Love (Felice and Boudleaux Bryant) (live recording from Ames, Iowa) 02:55 11. Song For The As ...

17
мая
2013

Journey - 9 Albums (Mini LP Blu-spec CD2 Sony Music Japan) [1978-2013, Rock, AOR, Arena Rock, FLAC]

Формат: FLAC, (image + .cue), lossless
Год выпуска: 1978-2013
Страна: USA
Жанр: Rock, AOR, Arena Rock
Продолжительность: 09:34:49
Описание: 1978 Infinity 00 01. Lights 02. Feeling That Way 03. Anytime 04. Lă Do Dā 05. Patiently 06. Wheel In The Sky 07. Somethin' To Hide 08. Winds Of March 09. Can Do 10. Opened The Door EACExact Audio Copy V1.0 beta 3 from 29. August 2011 EAC extraction logfile from 3. May 2013, 21:50 Journey / Infinity BSCD2 Used drive : PLEXTOR BD-R PX-B950SA Adapter: 6 ID: 0 Read mode : Secure Utilize accurate stream : Yes Defeat audio cache : Yes Make use of ...

06
янв
2008

Judas Priest [Heavy metal, TVRip]

Страна: Великобритания
Год выпуска: 1980
Жанр: Heavy metal
Язык: Английский
Описание: Три видео одного из монстров тяжелой музыки: Judas Priest - Breaking The Law Judas Priest - Burn In Hell Judas Priest - Painkiller
Качество: TVRip
Формат: MPEG
Видео кодек: MPEG1
Аудио кодек: MP3
Видео: 352 x 240; 352 x 288;
Аудио: 44100 Гц, Стерео, 224 Кбит/сек

06
июн
2013

Judas Priest - Epitaph (Live) [2013, Heavy Metal, MP3]

Формат: MP3, tracks, 320kbps
Год выпуска: 2013
Страна: UK
Жанр: Heavy Metal
Продолжительность: 02:19:36
Описание: Треклист 01. Battle Hymn/Rapid Fire 02. Metal Gods 03. Heading Out to the Highway 04. Judas Rising 05. Starbreaker 06. Victim of Changes 07. Never Satisfied 08. Diamonds and Rust 09. Prophecy 10. Night Crawler 11. Turbo Lover 12. Beyond the Realms of Death 13. The Sentinel 14. Blood Red Skies 15. The Green Manalishi (With the Two-Pronged Crown) 16. Breaking the Law 17. Painkiller 18. The Hellion/Electric Eye 19. Hell Bent for Leather 20. You've Got Another Thing Coming 21. Living ...

08
мар
2018

Judas Priest - Firepower [2018, Heavy Metal, MP3]

Формат: MP3, tracks, 320kbps
Год выпуска: 2018
Страна: UK
Жанр: Heavy Metal
Продолжительность: 00:58:25
Описание: 01. Firepower 02. Lightning Strike 03. Evil Never Dies 04. Never the Heroes 05. Necromancer 06. Children of the Sun 07. Guardians 08. Rising From Ruins 09. Flame Thrower 10. Spectre 11. Traitors Gate 12. No Surrender 13. Lone Wolf 14. Sea of Red
Доп. информация: Иэн Хилл - Бас Роб Хэлфорд - Вокал Глен Типтон - Гитара Скотт Трэвис - Ударные Ричи Фолкнер - Гитара

06
июн
2013

Judas Priest - Epitaph [2013, Heavy Metal, BDRip]

Формат: BDRip, MKV, H.264, DTS, FLAC
Песня: Epitaph
Жанр: Heavy Metal
Продолжительность: 02:22:30
Год выпуска: 2013
Видео: 1280x720 (16:9), 29.970fps, MPEG-4 AVC (H.264), ~5500 kbps, 0.199 bit/pixel
Аудио: #1: 48 kHz, DTS, 6 ch (Front: L C R, Side: L R, LFE), 1509 kbps #2: FLAC, 2 ch, ~1804 kbps (Отдельно)
Доп. информация: Judas Priest — британская метал-группа, одна из которых определила звучание метала 1970-х годов, а также оказала огромное влияние на дальнейшее развитие этого стиля в целом. В мае 2012 года Judas Priest подвели итоги своего эпоса "Epitaph" мирового турне выступлением в ло ...

07
мая
2011

Judas Priest - Видеография [1980-2008, Heavy Metal, DVD Video]

Формат: DVD Video, MPEG2, VOB, AC 3, PCM
Песня: Видеоклипы
Жанр: Heavy Metal
Продолжительность: 01:08:27
Год выпуска: 1980-2008
Доп. информация: Current members Ian Hill – bass (1970–present) Rob Halford – lead vocals (1973–1992, 2003–present) Glenn Tipton – lead guitars, rhythm guitars, keyboards, synthesizer (1974–present) Scott Travis – drums, percussion (1989–present) Richie Faulkner – lead guitars, rhythm guitars (2011–present) Former members John Ellis – drums, percussion (1970–1971) Al Atkins – lead vocals (1970–1973) K. K. Downing – lead guitars, rhythm guitars (1970– ...

20
апр
2010

Judas Priest - Дискография [1974-2009, Heavy-Metal, FLAC]

Формат: FLAC, (image + .cue), lossless
Год выпуска: 1974-2009
Страна: Великобритания
Жанр: Heavy-Metal
Продолжительность: 41:05:02
Описание: В каждом альбоме большое количество обложек, инлеев, фото дисков. Отчёты EAC присутствуют. БиографияБританский коллектив JUDAS PRIEST по праву называют одним из родоначальников хэви-металла. JUDAS PRIEST первыми ввели в обиход многие из нынешних атрибутов стиля, и стали связующим звеном между тяжелым роком конца 60-х/начала 70-х и «новой волной британского хэви-металла», появившейся в конце 70-х. Кроме того, JUDAS PRIEST отличаются творческим долголетием, ...