15
апр
2012

Chris de Burgh - Коллекция [1975-2012, Soft Rock, FLAC]

Chris de Burgh - Коллекция
Формат: FLAC, (image + .cue), lossless
Год выпуска: 1975-2012
Страна: Ireland
Жанр: Soft Rock
Продолжительность: 32:22:55
Описание:
1975 - Far Beyond These Castle Walls 00
01. Hold On
02. Key
03. Windy Night
04. Sin City
05. New Moon
06. Watching The World
07. Lonesome Cowboy
08. Satin Green Shutters
09. Turning Round
10. Goodnight
Log EAC
Exact Audio Copy V0.99 prebeta 3 from 28. July 2007

EAC extraction logfile from 19. January 2008, 20:57

Chris de Burgh / Far Beyond These Castle Walls

Used drive : PLEXTOR CD-ROM PX-40TS Adapter: 2 ID: 3

Read mode : Secure
Utilize accurate stream : Yes
Defeat audio cache : Yes
Make use of C2 pointers : No

Read offset correction : 676
Overread into Lead-In and Lead-Out : No
Fill up missing offset samples with silence : Yes
Delete leading and trailing silent blocks : No
Null samples used in CRC calculations : Yes
Used interface : Installed external ASPI interface

Used output format : Internal WAV Routines
Sample format : 44.100 Hz; 16 Bit; Stereo

TOC of the extracted CD

Track | Start | Length | Start sector | End sector
---------------------------------------------------------
1 | 0:00.33 | 4:07.20 | 33 | 18577
2 | 4:07.53 | 4:08.57 | 18578 | 37234
3 | 8:16.35 | 4:55.30 | 37235 | 59389
4 | 13:11.65 | 4:41.53 | 59390 | 80517
5 | 17:53.43 | 4:59.52 | 80518 | 102994
6 | 22:53.20 | 3:33.40 | 102995 | 119009
7 | 26:26.60 | 4:24.48 | 119010 | 138857
8 | 30:51.33 | 5:02.25 | 138858 | 161532
9 | 35:53.58 | 6:22.42 | 161533 | 190224
10 | 42:16.25 | 2:08.00 | 190225 | 199824

Range status and errors

Selected range

Filename I:TorrentsChris de BurghChris de Burgh - Far Beyond These Castle Walls.wav

Peak level 98.7 %
Range quality 100.0 %
Copy CRC CCC20C04
Copy OK

No errors occurred

AccurateRip summary

Track 1 accurately ripped (confidence 7) [562ECBCF]
Track 2 accurately ripped (confidence 7) [2EA64245]
Track 3 accurately ripped (confidence 7) [9BC73321]
Track 4 accurately ripped (confidence 7) [BADECBF6]
Track 5 accurately ripped (confidence 7) [3FE4B571]
Track 6 accurately ripped (confidence 7) [9455ED85]
Track 7 accurately ripped (confidence 7) [D3E6F5C1]
Track 8 accurately ripped (confidence 7) [70C48FD5]
Track 9 accurately ripped (confidence 7) [EB37AAB7]
Track 10 accurately ripped (confidence 7) [1A7A9BA4]

All tracks accurately ripped

End of status report
1976 - Spanish Train And Other Stories 00
01. Spanish Train
02. Lonely Sky
03. This Song For You
04. Patricia The Stripper
05. A Spaceman Came Travelling
06. I'm Going Home
07. The Painter
08. Old Friend
09. The Tower
10. Just Another Poor Boy
Log EAC
Exact Audio Copy V0.99 prebeta 1 from 25. May 2007

EAC extraction logfile from 21. August 2007, 22:30

Chris de Burgh / Spanish Train And Other Stories

Used drive : Optiarc DVD RW AD-7173S Adapter: 1 ID: 1

Read mode : Secure
Utilize accurate stream : Yes
Defeat audio cache : Yes
Make use of C2 pointers : No

Read offset correction : 66
Overread into Lead-In and Lead-Out : No
Fill up missing offset samples with silence : Yes
Delete leading and trailing silent blocks : No
Used interface : Installed external ASPI interface

Used output format : Internal WAV Routines
Sample format : 44.100 Hz; 16 Bit; Stereo
Use compression offset : 66

TOC of the extracted CD

Track | Start | Length | Start sector | End sector
---------------------------------------------------------
1 | 0:00.00 | 5:03.17 | 0 | 22741
2 | 5:03.17 | 3:54.33 | 22742 | 40324
3 | 8:57.50 | 4:13.25 | 40325 | 59324
4 | 13:11.00 | 3:33.72 | 59325 | 75371
5 | 16:44.72 | 5:08.45 | 75372 | 98516
6 | 21:53.42 | 3:34.63 | 98517 | 114629
7 | 25:28.30 | 4:20.50 | 114630 | 134179
8 | 29:49.05 | 3:42.30 | 134180 | 150859
9 | 33:31.35 | 5:27.50 | 150860 | 175434
10 | 38:59.10 | 4:42.05 | 175435 | 196589

Range status and errors

Selected range

Filename C:TEMPChris de Burgh - Spanish Train And Other Stories.wav

Peak level 89.7 %
Range quality 99.9 %
Copy CRC 716C80D8
Copy OK

No errors occurred

End of status report
1977 - At The End Of A Perfect Day 00
01. Broken Wings
02. Round And Around
03. I Will
04. Summer Rain
05. Discovery
06. Brazil
07. In A Country Churchyard (Let Your Love Shine On)
08. A Rainy Night In Paris
09. If You Really Love Her, Let Her Go
10. Perfect Day
Log EAC
Exact Audio Copy V0.99 prebeta 4 from 23. January 2008

EAC extraction logfile from 31. August 2008, 0:14

Chris De Burgh / At The End Of A Perfect Day

Used drive : PLEXTOR CD-ROM PX-40TS Adapter: 1 ID: 3

Read mode : Secure
Utilize accurate stream : Yes
Defeat audio cache : Yes
Make use of C2 pointers : No

Read offset correction : 676
Overread into Lead-In and Lead-Out : No
Fill up missing offset samples with silence : Yes
Delete leading and trailing silent blocks : No
Null samples used in CRC calculations : Yes
Used interface : Installed external ASPI interface

Used output format : Internal WAV Routines
Sample format : 44.100 Hz; 16 Bit; Stereo

TOC of the extracted CD

Track | Start | Length | Start sector | End sector
---------------------------------------------------------
1 | 0:00.32 | 3:09.25 | 32 | 14231
2 | 3:09.57 | 3:07.03 | 14232 | 28259
3 | 6:16.60 | 3:31.10 | 28260 | 44094
4 | 9:47.70 | 4:00.65 | 44095 | 62159
5 | 13:48.60 | 2:55.17 | 62160 | 75301
6 | 16:44.02 | 3:14.13 | 75302 | 89864
7 | 19:58.15 | 3:58.22 | 89865 | 107736
8 | 23:56.37 | 3:23.15 | 107737 | 122976
9 | 27:19.52 | 4:00.65 | 122977 | 141041
10 | 31:20.42 | 4:01.23 | 141042 | 159139

Range status and errors

Selected range

Filename F:RipChris De Burgh - At The End Of A Perfect DayChris De Burgh - At The End Of A Perfect Day.wav

Peak level 81.7 %
Range quality 100.0 %
Copy CRC 95D67F47
Copy OK

No errors occurred

AccurateRip summary

Track 1 accurately ripped (confidence 9) [181CBA9D]
Track 2 accurately ripped (confidence 9) [5E126F2A]
Track 3 accurately ripped (confidence 9) [A85F90FF]
Track 4 accurately ripped (confidence 9) [74595633]
Track 5 accurately ripped (confidence 9) [9B6B3005]
Track 6 accurately ripped (confidence 9) [75031859]
Track 7 accurately ripped (confidence 7) [3FEB49A7]
Track 8 accurately ripped (confidence 9) [FEB47C78]
Track 9 accurately ripped (confidence 9) [9BF29079]
Track 10 accurately ripped (confidence 9) [5506BD3A]

All tracks accurately ripped

End of status report
1979 - Crusader 00
01. Carry On
02. I Had The Love In My Eyes
03. Something Else Again
04. The Girl With April In Her Eyes
05. Just In Time
06. Carry On (Reprise)
07. The Devil's Eye
08. It's Such A Long Way Home
09. Old-Fashioned People
10. Quiet Moments
11. Crusader
12. You And Me
Log EAC
Exact Audio Copy V0.99 prebeta 4 from 23. January 2008

EAC extraction logfile from 23. March 2008, 18:53

Chris de Burgh / Crusader

Used drive : PLEXTOR CD-ROM PX-40TS Adapter: 2 ID: 3

Read mode : Secure
Utilize accurate stream : Yes
Defeat audio cache : Yes
Make use of C2 pointers : No

Read offset correction : 676
Overread into Lead-In and Lead-Out : No
Fill up missing offset samples with silence : Yes
Delete leading and trailing silent blocks : No
Null samples used in CRC calculations : Yes
Used interface : Installed external ASPI interface

Used output format : Internal WAV Routines
Sample format : 44.100 Hz; 16 Bit; Stereo

TOC of the extracted CD

Track | Start | Length | Start sector | End sector
---------------------------------------------------------
1 | 0:00.32 | 3:57.68 | 32 | 17874
2 | 3:58.25 | 3:30.12 | 17875 | 33636
3 | 7:28.37 | 3:46.65 | 33637 | 50651
4 | 11:15.27 | 4:14.65 | 50652 | 69766
5 | 15:30.17 | 5:13.65 | 69767 | 93306
6 | 20:44.07 | 0:33.58 | 93307 | 95839
7 | 21:17.65 | 4:34.30 | 95840 | 116419
8 | 25:52.20 | 2:51.65 | 116420 | 129309
9 | 28:44.10 | 3:28.05 | 129310 | 144914
10 | 32:12.15 | 1:41.42 | 144915 | 152531
11 | 33:53.57 | 8:54.68 | 152532 | 192649
12 | 42:48.50 | 1:14.15 | 192650 | 198214

Range status and errors

Selected range

Filename I:TorrentsChris de Burgh - CrusaderChris de Burgh - Crusader.wav

Peak level 92.5 %
Range quality 100.0 %
Copy CRC F233FDE6
Copy OK

No errors occurred

AccurateRip summary

Track 1 accurately ripped (confidence 11) [3B38D712]
Track 2 accurately ripped (confidence 12) [E87A8612]
Track 3 accurately ripped (confidence 12) [8086CC37]
Track 4 accurately ripped (confidence 12) [3D8FDC67]
Track 5 accurately ripped (confidence 12) [5D0019E7]
Track 6 accurately ripped (confidence 12) [136A77CA]
Track 7 accurately ripped (confidence 11)
Track 8 accurately ripped (confidence 12) [D3500EDF]
Track 9 accurately ripped (confidence 12) [ABC9A000]
Track 10 accurately ripped (confidence 12) [619FAFD3]
Track 11 accurately ripped (confidence 12) [632E0115]
Track 12 accurately ripped (confidence 12) [BF397026]

All tracks accurately ripped

End of status report
1980 - Eastern Wind 00
01. The Traveller
02. The Record Company Bash
03. Tonight
04. Wall Of Silence
05. Flying Home
06. Shadow And Lights
07. Sailor
08. Some Things Never Change
09. Tourist Attraction
10. Eastern Wind
Log EAC
Exact Audio Copy V0.99 prebeta 4 from 23. January 2008

EAC extraction logfile from 31. August 2008, 0:33

Chris De Burgh / Eastern Wind

Used drive : PLEXTOR CD-ROM PX-40TS Adapter: 1 ID: 3

Read mode : Secure
Utilize accurate stream : Yes
Defeat audio cache : Yes
Make use of C2 pointers : No

Read offset correction : 676
Overread into Lead-In and Lead-Out : No
Fill up missing offset samples with silence : Yes
Delete leading and trailing silent blocks : No
Null samples used in CRC calculations : Yes
Used interface : Installed external ASPI interface

Used output format : Internal WAV Routines
Sample format : 44.100 Hz; 16 Bit; Stereo

TOC of the extracted CD

Track | Start | Length | Start sector | End sector
---------------------------------------------------------
1 | 0:00.32 | 4:11.15 | 32 | 18871
2 | 4:11.47 | 3:54.73 | 18872 | 36494
3 | 8:06.45 | 3:28.55 | 36495 | 52149
4 | 11:35.25 | 3:51.00 | 52150 | 69474
5 | 15:26.25 | 3:59.57 | 69475 | 87456
6 | 19:26.07 | 3:11.10 | 87457 | 101791
7 | 22:37.17 | 4:15.58 | 101792 | 120974
8 | 26:53.00 | 3:16.67 | 120975 | 135741
9 | 30:09.67 | 3:11.55 | 135742 | 150121
10 | 33:21.47 | 5:17.60 | 150122 | 173956

Range status and errors

Selected range

Filename F:RipChris De Burgh - Eastern WindChris De Burgh - Eastern Wind.wav

Peak level 100.0 %
Range quality 100.0 %
Copy CRC F71C630A
Copy OK

No errors occurred

AccurateRip summary

Track 1 accurately ripped (confidence 6)
Track 2 accurately ripped (confidence 6) [3513B9F7]
Track 3 accurately ripped (confidence 6) [AA084957]
Track 4 accurately ripped (confidence 6) [783DCBFA]
Track 5 accurately ripped (confidence 6) [04F3631A]
Track 6 accurately ripped (confidence 6) [AD75D751]
Track 7 accurately ripped (confidence 6)
Track 8 accurately ripped (confidence 6) [0DF76189]
Track 9 accurately ripped (confidence 6) [FCB27B30]
Track 10 accurately ripped (confidence 6) [94ACA7A7]

All tracks accurately ripped

End of status report
1982 - The Getaway 00
01. Don't Pay The Ferryman
02. Living On The Island
03. Crying And Laughing
04. I'm Counting On You
05. The Getaway
06. Ship To Shore
07. All The Love I Have Inside
08. Borderline
09. Where Peaceful Waters Flow
10. The Revolution
11. Light A Fire
12. Liberty
Log EAC
Exact Audio Copy V0.99 prebeta 4 from 23. January 2008

EAC extraction logfile from 3. July 2009, 22:34

Chris De Burgh / The Getaway

Used drive : PLEXTOR CD-ROM PX-40TS Adapter: 3 ID: 3

Read mode : Secure
Utilize accurate stream : Yes
Defeat audio cache : Yes
Make use of C2 pointers : No

Read offset correction : 676
Overread into Lead-In and Lead-Out : No
Fill up missing offset samples with silence : Yes
Delete leading and trailing silent blocks : No
Null samples used in CRC calculations : Yes
Used interface : Installed external ASPI interface

Used output format : Monkey's Audio Lossless Encoder v3.99 DLL
Sample format : High Lossless Compression

TOC of the extracted CD

Track | Start | Length | Start sector | End sector
---------------------------------------------------------
1 | 0:00.33 | 3:48.67 | 33 | 17199
2 | 3:49.25 | 3:31.18 | 17200 | 33042
3 | 7:20.43 | 4:33.50 | 33043 | 53567
4 | 11:54.18 | 4:27.60 | 53568 | 73652
5 | 16:22.03 | 3:52.02 | 73653 | 91054
6 | 20:14.05 | 3:49.18 | 91055 | 108247
7 | 24:03.23 | 3:18.52 | 108248 | 123149
8 | 27:22.00 | 4:37.63 | 123150 | 143987
9 | 31:59.63 | 3:54.20 | 143988 | 161557
10 | 35:54.08 | 1:46.07 | 161558 | 169514
11 | 37:40.15 | 2:08.30 | 169515 | 179144
12 | 39:48.45 | 5:02.08 | 179145 | 201802

Range status and errors

Selected range

Filename F:RipChris De Burgh - The GetawayChris De Burgh - The Getaway.ape

Peak level 84.9 %
Range quality 100.0 %
Test CRC 90EBCEA2
Copy CRC 90EBCEA2
Copy OK

No errors occurred

AccurateRip summary

Track 1 accurately ripped (confidence 42) [4A9FBAAA]
Track 2 accurately ripped (confidence 41) [CF91AADB]
Track 3 accurately ripped (confidence 41) [F423A132]
Track 4 accurately ripped (confidence 41) [666D9D50]
Track 5 accurately ripped (confidence 41) [D340D133]
Track 6 accurately ripped (confidence 41) [F03FCE11]
Track 7 accurately ripped (confidence 41) [45430DD3]
Track 8 accurately ripped (confidence 41) [1E1337C0]
Track 9 accurately ripped (confidence 41) [CA5303E8]
Track 10 accurately ripped (confidence 40) [8DAF87D6]
Track 11 accurately ripped (confidence 39) [1865313B]
Track 12 accurately ripped (confidence 40) [37CECAA5]

All tracks accurately ripped

End of status report
1984 - Man On The Line 00
01. The Ecstasy Of Flight (I Love The Night)
02. Sight And Touch
03. Taking It To The Top
04. The Head And The Heart
05. The Sound Of A Gun
06. High On Emotion
07. Much More Than This
08. Man On The Line
09. Moonlight And Vodka
10. Transmission Ends
Log EAC
Exact Audio Copy V0.99 prebeta 3 from 28. July 2007

EAC extraction logfile from 30. December 2007, 0:46

Chris De Burgh / Man On The Line

Used drive : PLEXTOR CD-ROM PX-40TS Adapter: 2 ID: 3

Read mode : Secure
Utilize accurate stream : Yes
Defeat audio cache : Yes
Make use of C2 pointers : No

Read offset correction : 676
Overread into Lead-In and Lead-Out : No
Fill up missing offset samples with silence : Yes
Delete leading and trailing silent blocks : No
Null samples used in CRC calculations : Yes
Used interface : Installed external ASPI interface

Used output format : Internal WAV Routines
Sample format : 44.100 Hz; 16 Bit; Stereo

TOC of the extracted CD

Track | Start | Length | Start sector | End sector
---------------------------------------------------------
1 | 0:00.32 | 4:01.10 | 32 | 18116
2 | 4:01.42 | 3:14.28 | 18117 | 32694
3 | 7:15.70 | 4:01.52 | 32695 | 50821
4 | 11:17.47 | 4:01.33 | 50822 | 68929
5 | 15:19.05 | 4:29.15 | 68930 | 89119
6 | 19:48.20 | 4:26.17 | 89120 | 109086
7 | 24:14.37 | 2:57.08 | 109087 | 122369
8 | 27:11.45 | 4:24.32 | 122370 | 142201
9 | 31:36.02 | 3:37.33 | 142202 | 158509
10 | 35:13.35 | 5:59.25 | 158510 | 185459

Range status and errors

Selected range

Filename I:TorrentsChris De BurghMan On The LineChris De Burgh - Man On The Line.wav

Peak level 100.0 %
Range quality 100.0 %
Copy CRC 1C10539D
Copy OK

No errors occurred

End of status report
1985 - Best Moves 00
01. The Traveller
02. Every Drop of Rain
03. In a Country Churchyard
04. Patricia the Stripper
05. Satin Green Shutters
06. Spanish Train
07. Waiting for the Hurricane
08. Broken Wings
09. Lonely Sky
10. A Spaceman Came Travelling
11. Crusader
Log EAC
Отчёт EAC об извлечении, выполненном 5. июля 2007, 6:35 для диска:
Chris de Burgh / Best Moves

Дисковод: TEAC DV-W516GDM Adapter: 1 ID: 0
Режим чтения: Достоверный (C2: нет, Точный поток: да, Отключение кэша: да)
Коррекция смещения при чтении: 6
Способность читать области Lead-in и Lead-out : Нет

Выходной формат: Внутренние WAV-операции
44.100 Гц; 16 бит; стерео

Другие параметры:
Заполнение пропущенных сэмплов тишиной : Да
Удаление блоков с тишиной в начале и конце : Нет
Установленный внешний ASPI-интерфейс

Характеристики диапазона извлечения и сообщения об ошибках
Выбранный диапазон
Имя файла D:$Temp$eacCDImage.wav

Пиковый уровень 100.0 %
Качество диапазона 100.0 %
CRC FE33C23C
Копирование... OK

Ошибок не произошло

Конец отчёта
1986 - Into The Light 00
01. Last Night
02. Fire On The Water
03. The Ballroom Of Romance
04. The Lady In Red
05. Say Goodbye To It All
06. The Spirit Of Man
07. Fatal Hesitation
08. One Word (Straight To The Heart)
09. For Rosanna
10. The Leader
11. The Vision
12. What About Me?
Log EAC
Exact Audio Copy V0.99 prebeta 3 from 28. July 2007

EAC extraction logfile from 30. December 2007, 0:38

Chris De Burgh / Into The Light

Used drive : PLEXTOR CD-ROM PX-40TS Adapter: 2 ID: 3

Read mode : Secure
Utilize accurate stream : Yes
Defeat audio cache : Yes
Make use of C2 pointers : No

Read offset correction : 676
Overread into Lead-In and Lead-Out : No
Fill up missing offset samples with silence : Yes
Delete leading and trailing silent blocks : No
Null samples used in CRC calculations : Yes
Used interface : Installed external ASPI interface

Used output format : Internal WAV Routines
Sample format : 44.100 Hz; 16 Bit; Stereo

TOC of the extracted CD

Track | Start | Length | Start sector | End sector
---------------------------------------------------------
1 | 0:00.33 | 6:08.45 | 33 | 27677
2 | 6:09.03 | 4:31.05 | 27678 | 48007
3 | 10:40.08 | 4:27.10 | 48008 | 68042
4 | 15:07.18 | 4:16.12 | 68043 | 87254
5 | 19:23.30 | 5:24.05 | 87255 | 111559
6 | 24:47.35 | 4:41.73 | 111560 | 132707
7 | 29:29.33 | 4:17.27 | 132708 | 152009
8 | 33:46.60 | 4:33.08 | 152010 | 172492
9 | 38:19.68 | 3:39.32 | 172493 | 188949
10 | 41:59.25 | 2:16.00 | 188950 | 199149
11 | 44:15.25 | 3:13.50 | 199150 | 213674
12 | 47:29.00 | 3:03.63 | 213675 | 227462

Range status and errors

Selected range

Filename I:TorrentsChris De BurghInto The LightChris De Burgh - Into The Light.wav

Peak level 87.7 %
Range quality 100.0 %
Copy CRC D8E8FC1E
Copy OK

No errors occurred

End of status report
1986 - Into The Light (1st Press USA) 00
01. Last Night
02. Fire On The Water
03. The Ballroom Of Romance
04. The Lady In Red
05. Say Goodbye To It All
06. The Spirit Of Man
07. Fatal Hesitation
08. One Word (Straight To The Heart)
09. For Rosanna
10. The Leader
11. The Vision
12. What About Me?
Log EAC
Exact Audio Copy V0.99 prebeta 5 from 4. May 2009

EAC extraction logfile from 11. November 2010, 19:41

Chris De Burgh / Into The Light

Used drive : PIONEER DVD-RW DVR-112D Adapter: 2 ID: 0

Read mode : Secure
Utilize accurate stream : Yes
Defeat audio cache : Yes
Make use of C2 pointers : No

Read offset correction : 48
Overread into Lead-In and Lead-Out : No
Fill up missing offset samples with silence : Yes
Delete leading and trailing silent blocks : No
Null samples used in CRC calculations : Yes
Used interface : Installed external ASPI interface

Used output format : User Defined Encoder
Selected bitrate : 1024 kBit/s
Quality : High
Add ID3 tag : No
Command line compressor : C:Program Files (x86)Exact Audio CopyFlacflac.exe
Additional command line options : -5 -V -T "ARTIST=%a" -T "TITLE=%t" -T "ALBUM=%g" -T "DATE=%y" -T "TRACKNUMBER=%n" -T "GENRE=%m" -T "COMMENT=EAC FLAC -5" %s

TOC of the extracted CD

Track | Start | Length | Start sector | End sector
---------------------------------------------------------
1 | 0:00.00 | 6:09.18 | 0 | 27692
2 | 6:09.18 | 4:30.67 | 27693 | 48009
3 | 10:40.10 | 4:27.38 | 48010 | 68072
4 | 15:07.48 | 4:16.37 | 68073 | 87309
5 | 19:24.10 | 5:22.50 | 87310 | 111509
6 | 24:46.60 | 4:41.28 | 111510 | 132612
7 | 29:28.13 | 4:17.47 | 132613 | 151934
8 | 33:45.60 | 4:33.10 | 151935 | 172419
9 | 38:18.70 | 3:39.60 | 172420 | 188904
10 | 41:58.55 | 2:16.03 | 188905 | 199107
11 | 44:14.58 | 3:13.62 | 199108 | 213644
12 | 47:28.45 | 3:05.30 | 213645 | 227549

Range status and errors

Selected range

Filename F:Chris De Burgh - Into The Light - 1986Chris De Burgh - Into The Light.wav

Peak level 90.6 %
Range quality 100.0 %
Test CRC A9864522
Copy CRC A9864522
Copy OK

No errors occurred

AccurateRip summary

Track 1 accurately ripped (confidence 6) [0EBCBB96]
Track 2 accurately ripped (confidence 6) [D968DEDF]
Track 3 accurately ripped (confidence 6) [7C337964]
Track 4 accurately ripped (confidence 7) [C1E9E657]
Track 5 accurately ripped (confidence 6)
Track 6 accurately ripped (confidence 6) [CF2041E0]
Track 7 accurately ripped (confidence 6) [9718A0C6]
Track 8 accurately ripped (confidence 6)
Track 9 accurately ripped (confidence 6) [DC2A4C3E]
Track 10 accurately ripped (confidence 6) [71BA84AA]
Track 11 accurately ripped (confidence 6) [0358CA61]
Track 12 accurately ripped (confidence 6)

All tracks accurately ripped

End of status report
1988 - Flying Colours 00
01. Sailing Away
02. Carry Me (Like A Fire In Your Heart)
03. Tender Hands
04. A Night On The River
05. Leather On My Shoes
06. Suddenly Love
07. The Simple Truth (A Child Is Born)
08. Missing You
09. I'm Not Scared Anymore
10. Don't Look Back
11. Just A Word Away
12. The Risen Lord
13. The Last Time I Cried
Log EAC
Exact Audio Copy V0.99 prebeta 3 from 28. July 2007

EAC extraction logfile from 28. December 2007, 19:17

Chris De Burgh / Flying Colours

Used drive : PLEXTOR CD-ROM PX-40TS Adapter: 2 ID: 3

Read mode : Secure
Utilize accurate stream : Yes
Defeat audio cache : Yes
Make use of C2 pointers : No

Read offset correction : 676
Overread into Lead-In and Lead-Out : No
Fill up missing offset samples with silence : Yes
Delete leading and trailing silent blocks : No
Null samples used in CRC calculations : Yes
Used interface : Installed external ASPI interface

Used output format : Internal WAV Routines
Sample format : 44.100 Hz; 16 Bit; Stereo

TOC of the extracted CD

Track | Start | Length | Start sector | End sector
---------------------------------------------------------
1 | 0:00.33 | 5:02.62 | 33 | 22744
2 | 5:03.20 | 4:24.48 | 22745 | 42592
3 | 9:27.68 | 4:29.55 | 42593 | 62822
4 | 13:57.48 | 3:49.32 | 62823 | 80029
5 | 17:47.05 | 4:35.15 | 80030 | 100669
6 | 22:22.20 | 3:14.15 | 100670 | 115234
7 | 25:36.35 | 4:27.38 | 115235 | 135297
8 | 30:03.73 | 4:07.05 | 135298 | 153827
9 | 34:11.03 | 4:48.47 | 153828 | 175474
10 | 38:59.50 | 2:56.55 | 175475 | 188729
11 | 41:56.30 | 3:17.43 | 188730 | 203547
12 | 45:13.73 | 3:39.50 | 203548 | 220022
13 | 48:53.48 | 5:33.17 | 220023 | 245014

Range status and errors

Selected range

Filename I:TorrentsChris De BurghFlying ColoursChris De Burgh - Flying Colours.wav

Peak level 100.0 %
Range quality 99.9 %
Copy CRC 113E1242
Copy OK

No errors occurred

End of status report
1989 - Spark To A Flame - The Very Best of 01
01. This Waiting Heart
02. Don't Pay The Ferryman
03. Fire On The Water
04. Sailing Away
05. The Lady In Red
06. Borderline
07. Say Goodbye To It All
08. One World
09. A Spaceman Came Travelling
10. Ship To Shore
11. Missing You
12. Diamond In The Dark
13. Tender Hands
14. The Getaway
15. Where Peaceful Waters Flow
16. High On Emotion
Log EAC
Exact Audio Copy V0.99 prebeta 1 from 25. May 2007

EAC extraction logfile from 1. August 2007, 16:08

Chris de Burgh / Spark To A Flame - The very best of

Used drive : Optiarc DVD RW AD-7170S Adapter: 1 ID: 1

Read mode : Secure
Utilize accurate stream : Yes
Defeat audio cache : Yes
Make use of C2 pointers : No

Read offset correction : 66
Overread into Lead-In and Lead-Out : No
Fill up missing offset samples with silence : Yes
Delete leading and trailing silent blocks : No
Used interface : Installed external ASPI interface

Used output format : Internal WAV Routines
Sample format : 44.100 Hz; 16 Bit; Stereo
Use compression offset : 0

TOC of the extracted CD

Track | Start | Length | Start sector | End sector
---------------------------------------------------------
1 | 0:00.00 | 4:09.62 | 0 | 18736
2 | 4:09.62 | 3:24.20 | 18737 | 34056
3 | 7:34.07 | 4:27.48 | 34057 | 54129
4 | 12:01.55 | 4:59.10 | 54130 | 76564
5 | 17:00.65 | 4:17.22 | 76565 | 95861
6 | 21:18.12 | 4:33.40 | 95862 | 116376
7 | 25:51.52 | 5:04.60 | 116377 | 139236
8 | 30:56.37 | 4:31.00 | 139237 | 159561
9 | 35:27.37 | 5:02.50 | 159562 | 182261
10 | 40:30.12 | 3:48.13 | 182262 | 199374
11 | 44:18.25 | 4:08.00 | 199375 | 217974
12 | 48:26.25 | 3:31.67 | 217975 | 233866
13 | 51:58.17 | 4:28.63 | 233867 | 254029
14 | 56:27.05 | 3:50.27 | 254030 | 271306
15 | 60:17.32 | 3:53.13 | 271307 | 288794
16 | 64:10.45 | 4:26.57 | 288795 | 308801

Range status and errors

Selected range

Filename C:RIPChris de Burgh - Spark To A Flame - The very best of.wav

Peak level 100.0 %
Range quality 100.0 %
Copy CRC 0580C0A1
Copy OK

No errors occurred

End of status report
1990 - High On Emotion - Live From Dublin 01
01. Last Night
02. Sailing Away
03. The Revolution
04. I'm Not Scared Anymore
05. Spanish Train
06. Borderline
07. The Risen Lord
08. The Last Time I Cried
09. The Lady In Red
10. A Spaceman Came Travelling
11. Patricia The Stripper
12. Missing You
13. Say Goodbye To It All
14. Don't Pay The Ferryman
15. High On Emotion
Log EAC
Exact Audio Copy V0.99 prebeta 4 from 23. January 2008

EAC extraction logfile from 4. March 2009, 23:24

Chris de Burgh (1990) / High On Emotion - Live From Dublin

Used drive : _NEC DVD_RW ND-3540A Adapter: 0 ID: 0

Read mode : Secure
Utilize accurate stream : Yes
Defeat audio cache : Yes
Make use of C2 pointers : No

Read offset correction : 48
Overread into Lead-In and Lead-Out : No
Fill up missing offset samples with silence : Yes
Delete leading and trailing silent blocks : No
Null samples used in CRC calculations : Yes
Used interface : Installed external ASPI interface

Used output format : Internal WAV Routines
Sample format : 44.100 Hz; 16 Bit; Stereo

TOC of the extracted CD

Track | Start | Length | Start sector | End sector
---------------------------------------------------------
1 | 0:00.33 | 7:13.12 | 33 | 32519
2 | 7:13.45 | 5:14.38 | 32520 | 56107
3 | 12:28.08 | 4:03.00 | 56108 | 74332
4 | 16:31.08 | 4:40.37 | 74333 | 95369
5 | 21:11.45 | 6:00.50 | 95370 | 122419
6 | 27:12.20 | 4:51.13 | 122420 | 144257
7 | 32:03.33 | 3:36.37 | 144258 | 160494
8 | 35:39.70 | 6:16.00 | 160495 | 188694
9 | 41:55.70 | 4:07.63 | 188695 | 207282
10 | 46:03.58 | 3:43.25 | 207283 | 224032
11 | 49:47.08 | 4:21.37 | 224033 | 243644
12 | 54:08.45 | 4:25.63 | 243645 | 263582
13 | 58:34.33 | 5:58.62 | 263583 | 290494
14 | 64:33.20 | 4:11.63 | 290495 | 309382
15 | 68:45.08 | 5:11.25 | 309383 | 332732

Range status and errors

Selected range

Filename C:Documents and SettingsАдминМои документыChris de Burgh (1990) - High On Emotion - Live From DublinChris de Burgh (1990) - High On Emotion - Live From Dublin.wav

Peak level 100.0 %
Range quality 100.0 %
Copy CRC 70B53946
Copy OK

No errors occurred

AccurateRip summary

Track 1 accurately ripped (confidence 7) [CE9F567A]
Track 2 accurately ripped (confidence 7) [70A1B75D]
Track 3 accurately ripped (confidence 7) [0BBDBD08]
Track 4 accurately ripped (confidence 7) [D80AC755]
Track 5 accurately ripped (confidence 7) [E5ECD272]
Track 6 accurately ripped (confidence 7) [75F82D46]
Track 7 accurately ripped (confidence 7) [3907FC63]
Track 8 accurately ripped (confidence 7) [68394D10]
Track 9 accurately ripped (confidence 7) [C3229EDD]
Track 10 accurately ripped (confidence 7) [626643FE]
Track 11 accurately ripped (confidence 7) [556FF509]
Track 12 accurately ripped (confidence 7) [30ADC302]
Track 13 accurately ripped (confidence 7) [28438639]
Track 14 accurately ripped (confidence 7) [3C07948B]
Track 15 accurately ripped (confidence 6) [F9EF1673]

All tracks accurately ripped

End of status report
1992 - Power Of Ten 00
01. Where We Will Be Going
02. By My Side
03. Heart Of Darkness
04. In Your Eyes
05. Separate Tables
06. Talk To Me
07. The Connemara Coast
08. Brother John
09. Shine On
10. A Celebration
11. She Means Everything To Me
12. Making The Perfect Man
Log EAC
Exact Audio Copy V0.99 prebeta 3 from 28. July 2007

EAC extraction logfile from 28. December 2007, 19:28

Chris De Burgh / Power Of Ten

Used drive : PLEXTOR CD-ROM PX-40TS Adapter: 2 ID: 3

Read mode : Secure
Utilize accurate stream : Yes
Defeat audio cache : Yes
Make use of C2 pointers : No

Read offset correction : 676
Overread into Lead-In and Lead-Out : No
Fill up missing offset samples with silence : Yes
Delete leading and trailing silent blocks : No
Null samples used in CRC calculations : Yes
Used interface : Installed external ASPI interface

Used output format : Internal WAV Routines
Sample format : 44.100 Hz; 16 Bit; Stereo

TOC of the extracted CD

Track | Start | Length | Start sector | End sector
---------------------------------------------------------
1 | 0:00.33 | 4:30.27 | 33 | 20309
2 | 4:30.60 | 4:25.08 | 20310 | 40192
3 | 8:55.68 | 4:54.55 | 40193 | 62297
4 | 13:50.48 | 4:40.25 | 62298 | 83322
5 | 18:30.73 | 3:37.55 | 83323 | 99652
6 | 22:08.53 | 3:49.57 | 99653 | 116884
7 | 25:58.35 | 3:45.40 | 116885 | 133799
8 | 29:44.00 | 4:54.70 | 133800 | 155919
9 | 34:38.70 | 4:59.50 | 155920 | 178394
10 | 39:38.45 | 3:49.40 | 178395 | 195609
11 | 43:28.10 | 3:19.43 | 195610 | 210577
12 | 46:47.53 | 5:15.47 | 210578 | 234249

Range status and errors

Selected range

Filename I:TorrentsChris De BurghPower Of TenChris De Burgh - Power Of Ten.wav

Peak level 83.1 %
Range quality 100.0 %
Copy CRC 6B2416E1
Copy OK

No errors occurred

End of status report
1994 - This Way Up 00
01. This Silent World
02. This Is Love
03. This Weight On Me
04. Here Is Your Paradise
05. Oh My Brave Hearts
06. Blonde Hair, Blue Jeans
07. The Son And The Father
08. Up Here In Heaven
09. You Are The Reason
10. Love's Got A Hold On Me
11. The Snows Of New York
Log EAC
Exact Audio Copy V0.99 prebeta 3 from 28. July 2007

EAC extraction logfile from 30. December 2007, 19:26

Chris de Burgh / This Way Up

Used drive : PLEXTOR CD-ROM PX-40TS Adapter: 2 ID: 3

Read mode : Secure
Utilize accurate stream : Yes
Defeat audio cache : Yes
Make use of C2 pointers : No

Read offset correction : 676
Overread into Lead-In and Lead-Out : No
Fill up missing offset samples with silence : Yes
Delete leading and trailing silent blocks : No
Null samples used in CRC calculations : Yes
Used interface : Installed external ASPI interface

Used output format : Internal WAV Routines
Sample format : 44.100 Hz; 16 Bit; Stereo

TOC of the extracted CD

Track | Start | Length | Start sector | End sector
---------------------------------------------------------
1 | 0:00.00 | 4:07.15 | 0 | 18539
2 | 4:07.15 | 3:47.55 | 18540 | 35619
3 | 7:54.70 | 4:04.72 | 35620 | 53991
4 | 11:59.67 | 3:28.68 | 53992 | 69659
5 | 15:28.60 | 6:51.52 | 69660 | 100536
6 | 22:20.37 | 3:25.43 | 100537 | 115954
7 | 25:46.05 | 2:49.32 | 115955 | 128661
8 | 28:35.37 | 5:56.35 | 128662 | 155396
9 | 34:31.72 | 4:00.50 | 155397 | 173446
10 | 38:32.47 | 3:44.73 | 173447 | 190319
11 | 42:17.45 | 3:03.65 | 190320 | 204109

Range status and errors

Selected range

Filename I:TorrentsChris De BurghThis Way UpChris de Burgh - This Way Up.wav

Peak level 98.7 %
Range quality 100.0 %
Copy CRC 89C40681
Copy OK

No errors occurred

AccurateRip summary

Track 1 accurately ripped (confidence 14) [016506CC]
Track 2 accurately ripped (confidence 14) [4E8A6F93]
Track 3 accurately ripped (confidence 14) [4EE3272C]
Track 4 accurately ripped (confidence 14) [50291CD7]
Track 5 accurately ripped (confidence 14) [0BAA389C]
Track 6 accurately ripped (confidence 14) [6731F600]
Track 7 accurately ripped (confidence 14) [166C8062]
Track 8 accurately ripped (confidence 14) [6FB37D88]
Track 9 accurately ripped (confidence 14) [59487F50]
Track 10 accurately ripped (confidence 14) [6CCE795F]
Track 11 accurately ripped (confidence 14) [12F0CDE0]

All tracks accurately ripped

End of status report
1995 - Beautiful Dreams 00
01. Missing You
02. Girl
03. Carry Me (Like a Fire in Your Heart)
04. Discovery
05. The Snows of New York
06. In Love Forever
07. Shine On
08. The Lady in Red
09. In Dreams
10. I'm Not Crying Over You
11. Always on My Mind
12. Say Goodbye to it All
13. One More Mile to Go
Log EAC
Exact Audio Copy V0.99 prebeta 3 from 28. July 2007

EAC extraction logfile from 13. March 2008, 10:50

Chris de Burgh / Beautiful Dreams

Used drive : TSSTcorpCDDVDW SH-S203B Adapter: 6 ID: 0

Read mode : Secure
Utilize accurate stream : Yes
Defeat audio cache : Yes
Make use of C2 pointers : No

Read offset correction : 6
Overread into Lead-In and Lead-Out : No
Fill up missing offset samples with silence : Yes
Delete leading and trailing silent blocks : No
Null samples used in CRC calculations : Yes
Used interface : Installed external ASPI interface

Used output format : Monkey's Audio Lossless Encoder
Selected bitrate : Fast Lossless Compression
Quality : High
Add ID3 tag : No
Command line compressor : C:Program FilesMonkey's AudioMAC.exe
Additional command line options : -6 -V -T "ARTIST=%a" -T "TITLE=%t" -T "ALBUM=%g" -T "DATE=%y" -T "TRACKNUMBER=%n" -T "GENRE=%m" -T "COMMENT=%e" %s -o %d

TOC of the extracted CD

Track | Start | Length | Start sector | End sector
---------------------------------------------------------
1 | 0:00.00 | 3:57.61 | 0 | 17835
2 | 3:57.61 | 2:51.47 | 17836 | 30707
3 | 6:49.33 | 4:05.64 | 30708 | 49146
4 | 10:55.22 | 3:22.63 | 49147 | 64359
5 | 14:18.10 | 3:35.34 | 64360 | 80518
6 | 17:53.44 | 3:54.33 | 80519 | 98101
7 | 21:48.02 | 3:58.51 | 98102 | 116002
8 | 25:46.53 | 4:05.22 | 116003 | 134399
9 | 29:52.00 | 3:10.67 | 134400 | 148716
10 | 33:02.67 | 3:59.04 | 148717 | 166645
11 | 37:01.71 | 3:23.24 | 166646 | 181894
12 | 40:25.20 | 4:35.05 | 181895 | 202524
13 | 45:00.25 | 3:31.04 | 202525 | 218353

Range status and errors

Selected range

Filename C:uTorrentCDChris de Burgh - Beautiful DreamsChris de Burgh - Beautiful Dreams.wav

Peak level 98.1 %
Range quality 100.0 %
Copy CRC FDE77CAF
Copy OK

No errors occurred

AccurateRip summary

Track 1 not present in database
Track 2 not present in database
Track 3 not present in database
Track 4 not present in database
Track 5 not present in database
Track 6 not present in database
Track 7 not present in database
Track 8 not present in database
Track 9 not present in database
Track 10 not present in database
Track 11 not present in database
Track 12 not present in database
Track 13 not present in database

None of the tracks are present in the AccurateRip database

End of status report
1995 - Golden Ballads 01
01. Lady In Red
02. Sailing
03. Borderline
04. Moonlight And Vodka
05. This Is Love
06. Separate Table
07. A Spaceman Came Travelling
08. I Had The Love In My Eyes
09. The Simple Truth (A Child Is Born)
10. Diamonds In The Dark
11. Fatal Hesitation
12. Missing You
13. A Rainy Night In Paris
14. Sight And Touch
15. You Are The Reason
Log EAC
Exact Audio Copy V0.99 prebeta 5 from 4. May 2009

Отчёт EAC об извлечении, выполненном 19. октября 2010, 15:53

Chris de Burgh / Golden Ballads

Дисковод: HL-DT-STDVD-RAM GH22NS30 Adapter: 3 ID: 0

Режим чтения : Достоверность
Использование точного потока : Да
Отключение кэша аудио : Да
Использование указателей C2 : Нет

Коррекция смещения при чтении : 102
Способность читать области Lead-in и Lead-out : Нет
Заполнение пропущенных сэмплов тишиной : Да
Удаление блоков с тишиной в начале и конце : Нет
При вычислениях CRC использовались нулевые сэмплы : Да
Интерфейс : Встроенный Win32-интерфейс для Win NT/2000

Выходной формат : Внутренние WAV-операции
Формат сэмплов : 44.100 Гц; 16 бит; стерео

TOC извлечённого CD

Трек | Старт | Длительность | Начальный сектор | Конечный сектор
---------------------------------------------------------------------
1 | 0:00.00 | 4:22.25 | 0 | 19674
2 | 4:22.25 | 5:04.45 | 19675 | 42519
3 | 9:26.70 | 4:42.55 | 42520 | 63724
4 | 14:09.50 | 3:42.72 | 63725 | 80446
5 | 17:52.47 | 3:47.45 | 80447 | 97516
6 | 21:40.17 | 3:43.23 | 97517 | 114264
7 | 25:23.40 | 5:10.05 | 114265 | 137519
8 | 30:33.45 | 3:36.02 | 137520 | 153721
9 | 34:09.47 | 4:30.33 | 153722 | 174004
10 | 38:40.05 | 3:39.32 | 174005 | 190461
11 | 42:19.37 | 4:21.65 | 190462 | 210101
12 | 46:41.27 | 4:09.03 | 210102 | 228779
13 | 50:50.30 | 3:26.60 | 228780 | 244289
14 | 54:17.15 | 3:20.35 | 244290 | 259324
15 | 57:37.50 | 3:58.12 | 259325 | 277186

Характеристики диапазона извлечения и сообщения об ошибках

Выбранный диапазон

Имя файла C:UsersEDDYSS@NDesktopChris de Burgh(1995) - Golden Ballads[lossless]Chris de Burgh - Golden Ballads.wav

Пиковый уровень 100.0 %
Качество диапазона 100.0 %
CRC теста 78150B61
CRC копии 78150B61
Копирование... OK

Ошибок не произошло

AccurateRip: сводка

Трек 1 точность не определена (достоверность 2) [66DF251F], AccurateRip вернул [BD060961]
Трек 2 точность не определена (достоверность 2) [09ABC8EC], AccurateRip вернул [004EE440]
Трек 3 точность не определена (достоверность 2) [91608147], AccurateRip вернул [E97A54D2]
Трек 4 точность не определена (достоверность 2) , AccurateRip вернул [BA78D9CD]
Трек 5 точность не определена (достоверность 2) [1F157F4A], AccurateRip вернул [7B2BD34C]
Трек 6 точность не определена (достоверность 2) [3845DC11], AccurateRip вернул [A45DFB1B]
Трек 7 точность не определена (достоверность 2) [206ABF95], AccurateRip вернул [D2644D4D]
Трек 8 точность не определена (достоверность 2) [AE11B352], AccurateRip вернул [032BC162]
Трек 9 точность не определена (достоверность 2) [E927178A], AccurateRip вернул [66945674]
Трек 10 точность не определена (достоверность 2) [702949BE], AccurateRip вернул [878D8673]
Трек 11 точность не определена (достоверность 2) [BDCDE5C0], AccurateRip вернул [11DEB221]
Трек 12 точность не определена (достоверность 2) , AccurateRip вернул [87101C95]
Трек 13 точность не определена (достоверность 2) [43709295], AccurateRip вернул [0B56A96A]
Трек 14 точность не определена (достоверность 2) [32A3EA53], AccurateRip вернул [02AF3683]
Трек 15 точность не определена (достоверность 2) [39CD5A4D], AccurateRip вернул [61990FEE]

Ни один трек не прошёл проверки на точность
В вашей базе может быть иной вариант штамповки диска

Конец отчёта
1995 - The Lady in Red - The Instrumental Hits of Chris de Burgh 01
01. Intro
02. Don't pay the Ferryman
03. The Getaway
04. A Spaceman come travelling
05. Sailing away
06. Diamond in the Dark
07. High on Emotion
08. The Lady in Red
09. Borderline
10. Missing you
11. Tender Hands
12. Ship to Shore
13. Extro
Log EAC
Exact Audio Copy V0.99 prebeta 5 from 4. May 2009

EAC extraction logfile from 6. October 2009, 22:45

Chris De Burgh / The Lady In Red

Used drive : ASUS DRW-2014L1T Adapter: 0 ID: 2

Read mode : Secure
Utilize accurate stream : Yes
Defeat audio cache : Yes
Make use of C2 pointers : No

Read offset correction : 6
Overread into Lead-In and Lead-Out : No
Fill up missing offset samples with silence : Yes
Delete leading and trailing silent blocks : No
Null samples used in CRC calculations : Yes
Used interface : Native Win32 interface for Win NT & 2000

Used output format : Internal WAV Routines
Sample format : 44.100 Hz; 16 Bit; Stereo

TOC of the extracted CD

Track | Start | Length | Start sector | End sector
---------------------------------------------------------
1 | 0:00.32 | 5:38.58 | 32 | 25439
2 | 5:39.15 | 3:25.32 | 25440 | 40846
3 | 9:04.47 | 3:59.53 | 40847 | 58824
4 | 13:04.25 | 5:09.45 | 58825 | 82044
5 | 18:13.70 | 4:56.62 | 82045 | 104306
6 | 23:10.57 | 3:36.15 | 104307 | 120521
7 | 26:46.72 | 4:44.18 | 120522 | 141839
8 | 31:31.15 | 4:22.67 | 141840 | 161556
9 | 35:54.07 | 4:39.13 | 161557 | 182494
10 | 40:33.20 | 4:36.22 | 182495 | 203216
11 | 45:09.42 | 5:04.65 | 203217 | 226081
12 | 50:14.32 | 3:38.60 | 226082 | 242491
13 | 53:53.17 | 7:56.25 | 242492 | 278216

Range status and errors

Selected range

Filename D:MUSICLady in RedChris De Burgh - The Lady In Red.wav

Peak level 89.5 %
Range quality 100.0 %
Test CRC E31CA357
Copy CRC E31CA357
Copy OK

No errors occurred

End of status report
1997 - The Love Songs 01
01. Here Is Your Paradise
02. Missing You
03. So Beautiful
04. In Love Forever
05. Borderline
06. The Lady In Red
07. Much More Than This
08. It's Me (And I'm Ready To Go)
09. Separate Tables
10. Fatal Hesitation
11. Forevermore
12. The Head And The Heart
13. Lonely Sky (Remix)
14. Suddenly Love
15. If You Really Love Her, Let Her Go
16. In A Country Churchyard
Log EAC
Отчёт EAC об извлечении, выполненном 10. августа 2008, 11:27 для диска:
Chris De Burgh / The Love Songs

Дисковод: _NEC DVD_RW ND-4550A Adapter: 1 ID: 1
Режим чтения: Достоверный (C2: нет, Точный поток: да, Отключение кэша: да)
Коррекция смещения при чтении: 48
Способность читать области Lead-in и Lead-out : Нет

Выходной формат: C:Program FilesExact Audio CopyMonkey's AudioMAC.exe (Monkey's Audio (без потерь))
Extra High Lossless Compression

Другие параметры:
Заполнение пропущенных сэмплов тишиной : Да
Удаление блоков с тишиной в начале и конце : Нет
Установленный внешний ASPI-интерфейс

Характеристики диапазона извлечения и сообщения об ошибках
Выбранный диапазон
Имя файла E:TorrensChris De Burgh - The Love SongsChris De Burgh - The Love Songs.wav.wav

Пиковый уровень 100.0 %
Качество диапазона 100.0 %
CRC DAD39037
Копирование... OK

Ошибок не произошло

Конец отчёта
1999 - Quiet Revolution 01
01. When I Think Of You
02. Love Of The Heart Divine
03. Living In The World
04. The Same Sun
05. Nothing Ever Happens Round Here
06. A Woman's Heart
07. The Last Moments Of The Dawn
08. I See You Everywhere
09. Saint Peter's Gate
10. You Look Beautiful
11. I Want It, (And I Want It Now!)
12. Natasha Dance
13. The Rivers Of Abraham
14. My Lover Is
15. Quiet Revolution
Log EAC
Exact Audio Copy V0.99 prebeta 3 from 28. July 2007

EAC extraction logfile from 30. December 2007, 21:33

Chris De Burgh / Quiet Revolution

Used drive : PLEXTOR CD-ROM PX-40TS Adapter: 2 ID: 3

Read mode : Secure
Utilize accurate stream : Yes
Defeat audio cache : Yes
Make use of C2 pointers : No

Read offset correction : 676
Overread into Lead-In and Lead-Out : No
Fill up missing offset samples with silence : Yes
Delete leading and trailing silent blocks : No
Null samples used in CRC calculations : Yes
Used interface : Installed external ASPI interface

Used output format : Internal WAV Routines
Sample format : 44.100 Hz; 16 Bit; Stereo

TOC of the extracted CD

Track | Start | Length | Start sector | End sector
---------------------------------------------------------
1 | 0:00.00 | 3:25.10 | 0 | 15384
2 | 3:25.10 | 4:56.20 | 15385 | 37604
3 | 8:21.30 | 4:46.15 | 37605 | 59069
4 | 13:07.45 | 5:03.03 | 59070 | 81797
5 | 18:10.48 | 3:37.22 | 81798 | 98094
6 | 21:47.70 | 4:51.68 | 98095 | 119987
7 | 26:39.63 | 3:20.27 | 119988 | 135014
8 | 30:00.15 | 4:02.45 | 135015 | 153209
9 | 34:02.60 | 5:05.15 | 153210 | 176099
10 | 39:08.00 | 3:41.50 | 176100 | 192724
11 | 42:49.50 | 4:17.00 | 192725 | 211999
12 | 47:06.50 | 3:54.55 | 212000 | 229604
13 | 51:01.30 | 4:05.35 | 229605 | 248014
14 | 55:06.65 | 3:22.08 | 248015 | 263172
15 | 58:28.73 | 4:29.32 | 263173 | 283379

Range status and errors

Selected range

Filename I:TorrentsChris De BurghQuiet RevolutionChris De Burgh - Quiet Revolution.wav

Peak level 99.6 %
Range quality 100.0 %
Copy CRC E0721BC6
Copy OK

No errors occurred

AccurateRip summary

Track 1 accurately ripped (confidence 6) [22309992]
Track 2 accurately ripped (confidence 6) [C5E12F73]
Track 3 accurately ripped (confidence 6) [953F4E39]
Track 4 accurately ripped (confidence 6) [C713FAC4]
Track 5 accurately ripped (confidence 6) [9F3056C2]
Track 6 accurately ripped (confidence 6) [164EABC9]
Track 7 accurately ripped (confidence 6) [3F6D20D1]
Track 8 accurately ripped (confidence 6) [76B61BDF]
Track 9 accurately ripped (confidence 6) [521B033D]
Track 10 accurately ripped (confidence 6) [DEE1B6FD]
Track 11 accurately ripped (confidence 6) [76985571]
Track 12 accurately ripped (confidence 6) [11FB1460]
Track 13 accurately ripped (confidence 6) [31BC0DD7]
Track 14 accurately ripped (confidence 6) [A16AD377]
Track 15 accurately ripped (confidence 6) [D920946B]

All tracks accurately ripped

End of status report
2000 - The Lady In Red - The Very Best Of Chris De Burgh 01
01. Here Is Your Paradise
02. Don't Pay the Ferryman
03. In Love Forever
04. Sailing Away
05. The Lady In Red
06. Borderline
07. Say Goodbye To It All
08. Spanish Train
09. The Snows of New York
10. Missing You
11. There's a New Star Up In Heaven Tonight
12. Blonde Hair, Blue Jeans
13. A Spaceman Came Travelling
14. Fatal Hesitation
15. Up Here In Heaven
16. High On Emotion
Log EAC
Exact Audio Copy V0.99 prebeta 3 from 28. July 2007

EAC extraction logfile from 30. December 2007, 21:44

Chris De Burgh / The Lady In Red - The Very Best Of Chris De Burgh

Used drive : PLEXTOR CD-ROM PX-40TS Adapter: 2 ID: 3

Read mode : Secure
Utilize accurate stream : Yes
Defeat audio cache : Yes
Make use of C2 pointers : No

Read offset correction : 676
Overread into Lead-In and Lead-Out : No
Fill up missing offset samples with silence : Yes
Delete leading and trailing silent blocks : No
Null samples used in CRC calculations : Yes
Used interface : Installed external ASPI interface

Used output format : Internal WAV Routines
Sample format : 44.100 Hz; 16 Bit; Stereo

TOC of the extracted CD

Track | Start | Length | Start sector | End sector
---------------------------------------------------------
1 | 0:00.00 | 3:29.55 | 0 | 15729
2 | 3:29.55 | 3:24.67 | 15730 | 31096
3 | 6:54.47 | 4:01.25 | 31097 | 49196
4 | 10:55.72 | 4:59.30 | 49197 | 71651
5 | 15:55.27 | 4:17.43 | 71652 | 90969
6 | 20:12.70 | 4:33.57 | 90970 | 111501
7 | 24:46.52 | 5:04.48 | 111502 | 134349
8 | 29:51.25 | 4:58.70 | 134350 | 156769
9 | 34:50.20 | 3:34.60 | 156770 | 172879
10 | 38:25.05 | 4:07.25 | 172880 | 191429
11 | 42:32.30 | 2:56.17 | 191430 | 204646
12 | 45:28.47 | 3:21.30 | 204647 | 219751
13 | 48:50.02 | 5:05.20 | 219752 | 242646
14 | 53:55.22 | 4:14.13 | 242647 | 261709
15 | 58:09.35 | 5:52.65 | 261710 | 288174
16 | 64:02.25 | 4:25.62 | 288175 | 308111

Range status and errors

Selected range

Filename I:TorrentsChris De BurghThe Lady In RedChris De Burgh - The Lady In Red.wav

Peak level 99.6 %
Range quality 100.0 %
Copy CRC 4ED75305
Copy OK

No errors occurred

AccurateRip summary

Track 1 not present in database
Track 2 not present in database
Track 3 not present in database
Track 4 not present in database
Track 5 accurately ripped (confidence 1) [97B9A2D9]
Track 6 not present in database
Track 7 not present in database
Track 8 not present in database
Track 9 not present in database
Track 10 not present in database
Track 11 not present in database
Track 12 not present in database
Track 13 not present in database
Track 14 not present in database
Track 15 not present in database
Track 16 accurately ripped (confidence 1) [1BA233AE]

2 track(s) accurately ripped
14 track(s) not present in the AccurateRip database

Some tracks could not be verified as accurate

End of status report


Доп. информация:
Об исполнителе
Ирландский композитор и музыкант Chris De Burgh родился 15.10.1948 года в Аргентине в г. Буэнос-Айрес. Его отец британский дипломат, а мать секретарша из Ирландии. Из-за карьеры отца, семье приходилось неоднократно переезжать в разные страны (Мальта, Нигерия, Заир). Когда Chris исполнилось 12 лет, семья возвращается в Ирландию в графство Уэксфорд, где его отец покупает замок XII века, который переделывает в гостиницу.

Chris заканчивает в Дублине Тринити Колледж, и решает стать певцом. Он меняет свою фамилию на фамилию ма

29
авг
2014

Chris de Burgh - Spark To A Flame - The Very Best Of Chris de Burgh [1989, Soft Rock, FLAC]

Формат: FLAC, (image + .cue), lossless
Год выпуска: 1989
Страна: Ирландия
Жанр: Soft Rock
Продолжительность: 01:07:44
Описание: 01. This Waiting Heart (04:09) 02. Don't Pay the Ferryman (03:24) 03. Much More Than This (02:55) 04. Sailing Away (04:59) 05. The Lady in Red (04:17) 06. Borderline (04:33) 07. Say Goodbye to it All (05:04) 08. Spanish Train (04:58 ) 09. Patricia the Stripper (03:28 ) 10. Ship to Shore (03:47) 11. Missing You (04:08 ) 12. Diamond in the Dark (03:31) 13. Tender Hands (04:28 ) 14. A Spaceman Came Travelling (05:03) 15. Where Peaceful Waters Flow (03:53) 16. High on Emo ...

11
окт
2011

Chris de Burgh - Дискография [1975-2011, Pop Rock, Soft Rock, Alternative, MP3]

Формат: MP3, tracks, 256-320 kbps
Год выпуска: 1975-2011
Страна: Ирландия
Жанр: Pop Rock, Soft Rock, Alternative
Продолжительность: 41:29:36
Описание: STUDIO ALBUMS 1975 Far Beyond These Castle Walls 00 01. Hold On 02. The Key 03. Windy Night 04. Sin City 05. New Moon 06. Watching The World 07. Lonesome Cowboy 08. Satin Green Shutters 09. Turning Around 10. Goodnight 1975 Spanish Train And Other Stories 00 01. Spanish Train 02. Lonely Sky 03. This Song For You 04. Patricia The Stripper 05. A Spaceman Came Travelling 06. I'm Going Home 07. The Painter 08. Old Friend 09. The Tower 10. Just Anot ...

09
окт
2012

Chris de Burgh - Home [2012, Pop Rock, Soft Rock, FLAC]

Формат: FLAC, (tracks+.cue), lossless
Год выпуска: 2012
Страна: Ireland
Жанр: Pop Rock, Soft Rock
Продолжительность: 00:47:46
Описание:
Трeклист: 01. Waiting For The Hurricane 02:59 02. Tender Hands 03:59 03. Fatal Hesitation 03:30 04. Love & Time 04:10 05. Sailor 04:03 06. Living On The Island 02:51 07. It's Such A Long Way Home 03:04 08. Where We Will Be Going 04:19 09. Forevermore 03:20 10. Fire On Water 03:03 11. Suddenly Love 03:12 12. I Will 03:10 13. I'm Not Scared Anymore 03:43 14. Goodnight 02:18
Доп. информация: Отчёт EACExact Audio Copy V1.0 beta 3 from 29. August 2011 EAC ext ...

10
окт
2012

Chris de Burgh - Home [2012, Pop Rock, Soft Rock, MP3]

Формат: MP3, tracks, 320kbps
Год выпуска: 2012
Страна: Ireland
Жанр: Pop Rock, Soft Rock
Продолжительность: 00:47:48
Описание: 01. Waiting For The Hurricane 02. Tender Hands 03. Fatal Hesitation 04. Love & Time 05. Sailor 06. Living On The Island 07. It's Such A Long Way Home 08. Where We Will Be Going 09. Forevermore 10. Fire On Water 11. Suddenly Love 12. I Will 13. I'm Not Scared Anymore 14. Goodnight

05
мая
2012

Chris De Burgh - Discography [1975 - 2012, Progressive Rock , Art Rock , Soft Rock , AOR, MP3]

Формат: MP3, tracks, 320kbps
Год выпуска: 1975 - 2012
Страна: Ireland
Жанр: Progressive Rock, Art Rock, Soft Rock, AOR
Продолжительность: 54:25:12
Описание: 1975 - Far Beyond These Castle Walls 00 01. Hold On 02. The Key 03. Windy Night 04. Sin City 05. New Moon 06. Watching The World 07. Lonesome Cowboy 08. Satin Green Shutters 09. Turning Around 10. Goodnight 1975 - Spanish Train And Other Stories (Vinyl Rip) 00 01. Spanish Train 02. Lonely Sky 03. This Song For You 04. Patricia The Stripper 05. A Spaceman Came Travelling... 06. I'm Going Home 07. The Painter 08. Ols Friend 09. T ...

14
фев
2014

Chris De Burgh - Рор Collection [2002, Pop, FLAC]

Формат: FLAC, tracks, lossless
Год выпуска: 2002
Страна: Ireland
Жанр: Pop
Продолжительность: 01:10:36
Описание: 01. When I Think Of You 02. The Lady In Red 03. Here Is Your Paradise 04. The Same Sun 05. Moonlight And Vodka 06. It's Me (And I'm Ready To Go) 07. A Woman's Heart 08. Love's Got A Hold On Me 09. Saint Peter's Gate 10. The Snows Of New York 11. Seperate Tables 12. The Last Moments Of The Dawn 13. Forevermore 14. Lonely Sky [Remix] 15. You Look Beautiful 16. Shine On 17. She Means Everything To Me
Доп. информация: audiochecker.logAUDIOCHECKER v2.0 beta (build 457) - by Dester - opde ...

03
янв
2011

Chris De Burgh - Flying Colours [1988, Pop, FLAC]

Формат: FLAC, (image + .cue), lossless
Год выпуска: 1988
Страна: Germany
Жанр: Pop
Продолжительность: 00:54:26
Описание: 1. Sailing Away 2. Carry Me 3. Tender Hands 4. A Night On The River 5. Leather On My Shoes 6. Suddenly Love 7. The Simple Truth 8. Missing You 9. I'm Not Scared Anymore 10. Don't Look Back 11. Just A Word Away 12. The Risen Lord 13. The Last Time I Cried
Доп. информация: EAC log fileExact Audio Copy V0.99 prebeta 5 from 4. May 2009 Отчёт EAC об извлечении, выполненном 3. января 2011, 18:19 Chris De Burgh / Flying Colours
Дисковод: PIONEER DVD-RW DVRKD08A Adapter: 2 ID: ...

24
дек
2010

Chris de Burgh - The Road To Freedom [2004, Pop, DVD5]

Формат: DVD5, DVD Video, MPEG2, MPEG Layer 3
Название: The Road To Freedom
Жанр: Pop
Продолжительность: 01:29:54
Год выпуска: 2004
Видео: 720x480 (16:9), NTSC, 29.970 fps, MPEG-2, ~2891 kbps avg, 0.279 bit/pixel
Аудио: 48 kHz, MPEG Layer 3, 2 ch, 192.00 kbps avg
Доп. информация: Крис де Бург (англ. Chris de Burgh; настоящее имя Кристофер Джон Дэвисон родился 15 октября 1948 года) — ирландский музыкант и композитор. Запись концерта сделана в Stadthalle Bielefeld, Germany, 28 мая 2004, сольное выступление Криса де Бурга, в сопровождении только его гитары или фортепьяно. Спеты 21 песня, которые ...

15
окт
2011

Chris de Burgh - Footsteps 2 [2011, Pop, FLAC]

Формат: FLAC, (tracks + .cue), lossless
Год выпуска: 2011
Страна: Ireland
Жанр: Pop
Продолжительность: 00:49:39
Описание: 01. While You See A Chance 02. Let It Be 03. The Living Years 04. Blue Bayou 05. S.O.S. 06. Seven Bridges 07. Lady Madonna 08. Time In A Bottle 09. Already There 10. In The Ghetto 11. Long Train Running 12. On A Christmas Night 13. Every Step Of The Way 14. The Footsteps 2 Theme
Доп. информация:
Страна-производитель диска: Austria Издатель (лейбл): Ferryman / Starwatch Номер по каталогу: 886979466326 EACExact Audio Copy V1.0 beta 3 from 29. August 2011 EAC ...

28
окт
2010

Chris de Burgh - Moonfleet Other Stories [2010, Pop Rock, FLAC]

Формат: FLAC, (image + .cue), lossless
Год выпуска: 2010
Страна: Austria
Жанр: Pop Rock
Продолжительность: 01:11:32
Описание: 01. The Moonfleet Overture 02. The village of Moonfleet... (Narration) 03. The Light on the Bay 04. Have a Care 05. For two days and nights... (Narration) 06. Go Where Your Heart Believes 07. The Escape 08. And so it was... (Naration) 09. The Days of Our Age 10. The Secret of the Locket 11. With heavy heart... (Narration) 12. My Heart's Surrender 13. Treasure and Betrayal 14. Moonfleet Bay 15. The Storm 16. Greater Love 17. In the years that followed... (N ...

27
сен
2016

Chris de Burgh - A Better World [2016, Pop, Rock, MP3]

Формат: MP3, tracks, 320kbps
Год выпуска: 2016
Страна: Ireland
Жанр: Pop, Rock
Продолжительность: 00:50:04
Описание: 01. Hope in the Human Heart (00:55) 02. Bethlehem (04:13) 03. Once in a Lifetime (03:45) 04. The Open Door (03:51) 05. Heart and Soul (02:45) 06. Chain of Command (03:38) 07. Confession (03:01) 08. Homeland (04:33) 09. Cry No More (03:07) 10. Shipboard Romance (02:57) 11. Falling Rain (03:08) 12. All For Love (04:00) 13. Hold On (I'm On My Way) (02:50) 14. The Land of the Free (03:34) 15. The Soldier (03:47)

17
окт
2014

Chris de Burgh - The Hands of Man [2014, Pop, Pop-Rock, MP3]

Формат: MP3, tracks, 320kbps
Год выпуска: 2014
Страна: Ireland
Жанр: Pop, Pop-Rock
Продолжительность: 00:55:21
Описание: 1. The Hands of Man 2. There Goes My Heart Again 3. Big City Sundays 4. Where Would I Be? 5. The Ghost of Old King Richard 6. The Candlestick 7. Through These Eyes 8. The Keeper of the Keys 9. Meridiem 10. Letting Go 11. When the Dream Is Over 12. Empty Rooms 13. The Bridge 14. The Fields of Agincourt 15. One More Goodbye

06
ноя
2011

Chris de Burgh - Footsteps 2 (+ Bonus tracks) [2011, Pop, FLAC]

Формат: FLAC, (image + .cue), lossless
Год выпуска: 2011
Страна: Ireland
Жанр: Pop
Продолжительность: 01:19:13
Описание:
Трeклист: 01. While You See A Chance (Steve Linwood, Will Jennings) 04:58 02. Let It Be (John Lennon, Paul McCartney) 04:07 03. The Living Years (Mike Rutherford, B. A. Robertson) 05:37 04. Blue Bayou (Roy Orbison, Joe Melson) 02:40 05. S.O.S (Bjorn Ulvaeus, Benny Andersson,Stig Anderson) 03:21 06. Seven Bridges (Helmut Richter, Ulrich Swillms, Chris de Burgh) 03:53 07. Lady Madonna (John Lennon, Paul McCartney) 02:21 08. Time In A Bottle (Jim Croce) 02:33 09. Already Ther ...

20
фев
2012

Chris de Burgh - Greatest Hits (2CD) [2012, Pop, FLAC]

Формат: FLAC, (image + .cue), lossless
Год выпуска: 2012
Страна: Ireland
Жанр: Pop
Продолжительность: 02:37:39
Описание:
Трэклист: Greatest Hits (CD1) 0101. Here Is Your Paradise [0:03:29.29] 02. Forever More [0:04:19.15] 03. The Lady In Red [0:04:17.03] 04. Missing You [0:04:07.16] 05. Much More Than This [0:02:58.38] 06. Fatal Hesitation [0:04:14.16] 07. In Love Forever [0:04:02.47] 08. So Beautiful [0:03:49.03] 09. Almays On My Mind [0:03:24.02] 10. Seperate Tables [0:03:39.32] 11. If You Really Love Her,Let Her Go [0:03:33.15] 12. Suddenly Love [0:03:14.17] 13. Lonely Sky [0:03:54.18] 1 ...

21
мар
2015

Chris de Burgh & Band - Footsteps: Live In Concert [2009, Pop, DVD5]

Формат: DVD5, DVD Video, MPEG2, AC3
Песня: Footsteps: Live In Concert
Жанр: Pop
Продолжительность: 01:48:52
Год выпуска: 2009
Видео: 720х576 (PAL, 16:9), 25,000 fps, MPEG-2, ~5022 kbps avg, 0.484 bit/pixel
Аудио: 48.0 КГц, Audio Coding 3, 6 ch (Front: L C R, Side: L R, LFE), 448 kbps
Доп. информация: Будущий талант впервые взял в руки гитару не потому, что хотел играть, а потому, что хотел понравиться девушкам: "На вечеринках у играющих на гитаре было большое преимущество: ты сидел в углу, наигрывая какую-нибудь сентиментальную чепуху вроде "Как много должен пройти человек", а напротив сидит ...