04
июн
2012

The Prodigy - Discography [1991-2009, Electro, Breakbeat, FLAC]

The Prodigy - Discography
Формат: FLAC, (tracks + .cue), lossless
Год выпуска: 1991-2009
Страна: Great Britain (Великобритания)
Жанр: Electro, Breakbeat
Продолжительность: 105:20:05
Описание:

Albums

1992 - Experience 00

01 - Jericho (3:43 )
02 - Music Reach (1/2/3/4) (4:12 )
03 - Wind It Up (4:33 )
04 - Your Love (Remix) (5:31 )
05 - Hyperspeed (G-Force Part 2 ) (5:15 )
06 - Charly (Trip Into Drum and Bass Version) (5:12 )
07 - Out Of Space (4:58 )
08 - Everbody In The Place (155 and Кising) (4:10 )
09 - Weather Experience (8:04 )
10 - Fire (Sunrise Version) (4:57 )
11 - Ruff In The Jungle Bizness (5:10 )
12 - Death Of The Prodigy Dancers (Live) (3:43 )

log.EAC
Exact Audio Copy V0.99 prebeta 5 from 4. May 2009

EAC extraction logfile from 2. September 2009, 20:46

The Prodigy / Experience

Used drive : ASUS DRW-2014L1T Adapter: 3 ID: 1

Read mode : Secure
Utilize accurate stream : Yes
Defeat audio cache : Yes
Make use of C2 pointers : No

Read offset correction : 6
Overread into Lead-In and Lead-Out : No
Fill up missing offset samples with silence : Yes
Delete leading and trailing silent blocks : No
Null samples used in CRC calculations : Yes
Used interface : Native Win32 interface for Win NT & 2000
Gap handling : Appended to previous track

Used output format : User Defined Encoder
Selected bitrate : 768 kBit/s
Quality : High
Add ID3 tag : No
Command line compressor : C:Program Files (x86)Exact Audio CopyFLACFLAC.EXE
Additional command line options : -8 -V -T "ARTIST=%a" -T "TITLE=%t" -T "ALBUM=%g" -T "DATE=%y" -T "TRACKNUMBER=%n" -T "GENRE=%m" -T "COMMENT=%e" %s -o %d

TOC of the extracted CD

Track | Start | Length | Start sector | End sector
---------------------------------------------------------
1 | 0:00.00 | 3:43.65 | 0 | 16789
2 | 3:43.65 | 4:12.07 | 16790 | 35696
3 | 7:55.72 | 4:33.05 | 35697 | 56176
4 | 12:29.02 | 5:31.20 | 56177 | 81021
5 | 18:00.22 | 5:15.05 | 81022 | 104651
6 | 23:15.27 | 5:12.53 | 104652 | 128104
7 | 28:28.05 | 4:58.17 | 128105 | 150471
8 | 33:26.22 | 4:10.73 | 150472 | 169294
9 | 37:37.20 | 8:04.62 | 169295 | 205656
10 | 45:42.07 | 4:57.70 | 205657 | 228001
11 | 50:40.02 | 5:10.20 | 228002 | 251271
12 | 55:50.22 | 3:43.05 | 251272 | 268001

Track 1

Filename F:Flac1 - Jericho.wav

Pre-gap length 0:00:02.00

Peak level 90.0 %
Track quality 100.0 %
Test CRC 20EB7C7D
Copy CRC 20EB7C7D
Accurately ripped (confidence 2) [CA64D76E]
Copy OK

Track 2

Filename F:Flac2 - Music Reach (1,2,3,4).wav

Pre-gap length 0:00:00.04

Peak level 100.0 %
Track quality 100.0 %
Test CRC 9B934F2F
Copy CRC 9B934F2F
Accurately ripped (confidence 2) [7077CDF5]
Copy OK

Track 3

Filename F:Flac3 - Wind It Up.wav

Pre-gap length 0:00:00.02

Peak level 99.9 %
Track quality 100.0 %
Test CRC 0C0B862A
Copy CRC 0C0B862A
Accurately ripped (confidence 2) [7F5B3877]
Copy OK

Track 4

Filename F:Flac4 - Your Love (Remix).wav

Pre-gap length 0:00:00.02

Peak level 99.8 %
Track quality 100.0 %
Test CRC 5B28F1D4
Copy CRC 5B28F1D4
Accurately ripped (confidence 2)
Copy OK

Track 5

Filename F:Flac5 - Hyperspeed (G-Force Part 2).wav

Pre-gap length 0:00:00.02

Peak level 83.0 %
Track quality 100.0 %
Test CRC A06BA465
Copy CRC A06BA465
Accurately ripped (confidence 2) [0A0B96DD]
Copy OK

Track 6

Filename F:Flac6 - Charly (Trip Into Drum and Bass Version).wav

Pre-gap length 0:00:00.02

Peak level 86.5 %
Track quality 100.0 %
Test CRC CACCF31B
Copy CRC CACCF31B
Accurately ripped (confidence 2) [F13E356D]
Copy OK

Track 7

Filename F:Flac7 - Out Of Space.wav

Pre-gap length 0:00:00.04

Peak level 92.9 %
Track quality 100.0 %
Test CRC 0F1FD882
Copy CRC 0F1FD882
Accurately ripped (confidence 2) [AC1FD5A8]
Copy OK

Track 8

Filename F:Flac8 - Everbody In The Place (155 and Кising).wav

Pre-gap length 0:00:00.02

Peak level 76.3 %
Track quality 100.0 %
Test CRC FA537EB4
Copy CRC FA537EB4
Accurately ripped (confidence 2) [2B8CFC3D]
Copy OK

Track 9

Filename F:Flac9 - Weather Experience.wav

Pre-gap length 0:00:00.04

Peak level 80.2 %
Track quality 99.9 %
Test CRC 94F67A0E
Copy CRC 94F67A0E
Accurately ripped (confidence 2) [C79814DC]
Copy OK

Track 10

Filename F:Flac10 - Fire (Sunrise Version).wav

Pre-gap length 0:00:00.02

Peak level 81.6 %
Track quality 100.0 %
Test CRC BA86FDF8
Copy CRC BA86FDF8
Accurately ripped (confidence 2) [9E2D630B]
Copy OK

Track 11

Filename F:Flac11 - Ruff In The Jungle Bizness.wav

Pre-gap length 0:00:00.02

Peak level 91.6 %
Track quality 100.0 %
Test CRC D677EFDF
Copy CRC D677EFDF
Accurately ripped (confidence 2) [FA788A3A]
Copy OK

Track 12

Filename F:Flac12 - Death Of The Prodigy Dancers (Live).wav

Pre-gap length 0:00:00.02

Peak level 100.0 %
Track quality 100.0 %
Test CRC B33F9C54
Copy CRC B33F9C54
Accurately ripped (confidence 2)
Copy OK

All tracks accurately ripped

No errors occurred

End of status report


1992 - Experience (Avex AVCD-11071) 00

01 - Jericho (3:43 )
02 - Music Reach (1/2/3/4 ) (4:12 )
03 - Wind It Up (4:33 )
04 - Your Love (Remix) (5:31 )
05 - Hyperspeed (G-Force Part 2 ) (5:15 )
06 - Charly (Trip into Drum and Bass Version) (5:12 )
07 - Out of Space (4:58 )
08 - Everybody in the Place (155 and Rising) (4:11 )
09 - Weather Experience (8:04 )
10 - Fire (Sunrise Version) (4:58 )
11 - Ruff in the Jungle Bizness (5:11 )
12 - Death of the Prodigy Dancers (Live) (3:43 )

log.EAC
Exact Audio Copy V0.99 prebeta 5 from 4. May 2009

EAC extraction logfile from 2. September 2009, 21:09

The Prodigy / Experience

Used drive : PIONEER DVD-RW DVR-111 Adapter: 0 ID: 0

Read mode : Secure
Utilize accurate stream : Yes
Defeat audio cache : Yes
Make use of C2 pointers : No

Read offset correction : 48
Overread into Lead-In and Lead-Out : No
Fill up missing offset samples with silence : Yes
Delete leading and trailing silent blocks : No
Null samples used in CRC calculations : Yes
Used interface : Native Win32 interface for Win NT & 2000
Gap handling : Appended to previous track

Used output format : User Defined Encoder
Selected bitrate : 768 kBit/s
Quality : High
Add ID3 tag : No
Command line compressor : C:Program Files (x86)Exact Audio CopyFLACFLAC.EXE
Additional command line options : -8 -V -T "ARTIST=%a" -T "TITLE=%t" -T "ALBUM=%g" -T "DATE=%y" -T "TRACKNUMBER=%n" -T "GENRE=%m" -T "COMMENT=%e" %s -o %d

TOC of the extracted CD

Track | Start | Length | Start sector | End sector
---------------------------------------------------------
1 | 0:00.00 | 3:43.45 | 0 | 16769
2 | 3:43.45 | 4:12.10 | 16770 | 35679
3 | 7:55.55 | 4:33.03 | 35680 | 56157
4 | 12:28.58 | 5:31.22 | 56158 | 81004
5 | 18:00.05 | 5:15.08 | 81005 | 104637
6 | 23:15.13 | 5:12.65 | 104638 | 128102
7 | 28:28.03 | 4:58.10 | 128103 | 150462
8 | 33:26.13 | 4:11.10 | 150463 | 169297
9 | 37:37.23 | 8:04.45 | 169298 | 205642
10 | 45:41.68 | 4:58.27 | 205643 | 228019
11 | 50:40.20 | 5:11.15 | 228020 | 251359
12 | 55:51.35 | 3:43.45 | 251360 | 268129

Track 1

Filename F:Flac1 - Jericho.wav

Pre-gap length 0:00:02.00

Peak level 90.0 %
Track quality 100.0 %
Test CRC 50A93C55
Copy CRC 50A93C55
Accurately ripped (confidence 3) [84CB413A]
Copy OK

Track 2

Filename F:Flac2 - Music Reach (1,2,3,4).wav

Peak level 100.0 %
Track quality 100.0 %
Test CRC 1AC39CBC
Copy CRC 1AC39CBC
Accurately ripped (confidence 3) [638C6728]
Copy OK

Track 3

Filename F:Flac3 - Wind It Up.wav

Peak level 99.9 %
Track quality 100.0 %
Test CRC 70675056
Copy CRC 70675056
Accurately ripped (confidence 3) [ACAB2A8B]
Copy OK

Track 4

Filename F:Flac4 - Your Love (Remix).wav

Peak level 99.8 %
Track quality 100.0 %
Test CRC A02D2195
Copy CRC A02D2195
Accurately ripped (confidence 3) [6EFAC3B6]
Copy OK

Track 5

Filename F:Flac5 - Hyperspeed (G-Force Part 2).wav

Peak level 83.0 %
Track quality 99.9 %
Test CRC EBD35E27
Copy CRC EBD35E27
Accurately ripped (confidence 3)
Copy OK

Track 6

Filename F:Flac6 - Charly (Trip into Drum and Bass Version).wav

Peak level 86.5 %
Track quality 100.0 %
Test CRC 89C84170
Copy CRC 89C84170
Accurately ripped (confidence 3) [4134036C]
Copy OK

Track 7

Filename F:Flac7 - Out of Space.wav

Peak level 92.9 %
Track quality 100.0 %
Test CRC 1690F944
Copy CRC 1690F944
Accurately ripped (confidence 3) [89FB04F1]
Copy OK

Track 8

Filename F:Flac8 - Everybody in the Place (155 and Rising).wav

Peak level 76.3 %
Track quality 100.0 %
Test CRC AD6FECB8
Copy CRC AD6FECB8
Accurately ripped (confidence 3) [AD2AF196]
Copy OK

Track 9

Filename F:Flac9 - Weather Experience.wav

Peak level 80.2 %
Track quality 100.0 %
Test CRC 91A964BE
Copy CRC 91A964BE
Accurately ripped (confidence 3) [1BF19021]
Copy OK

Track 10

Filename F:Flac10 - Fire (Sunrise Version).wav

Peak level 81.6 %
Track quality 100.0 %
Test CRC CFA8B7DD
Copy CRC CFA8B7DD
Accurately ripped (confidence 4)
Copy OK

Track 11

Filename F:Flac11 - Ruff in the Jungle Bizness.wav

Peak level 91.6 %
Track quality 100.0 %
Test CRC 185C831C
Copy CRC 185C831C
Accurately ripped (confidence 3) [3DDD442F]
Copy OK

Track 12

Filename F:Flac12 - Death of the Prodigy Dancers (Live).wav

Peak level 100.0 %
Track quality 100.0 %
Test CRC 03CD0D7E
Copy CRC 03CD0D7E
Accurately ripped (confidence 4) [A71764B0]
Copy OK

All tracks accurately ripped

No errors occurred

End of status report


1994 - Music For The Jilted Generation 01

01 - Intro (0:46 )
02 - Break & Enter (8:24 )
03 - Their Law (Featuring Pop Will Eat Itself) (6:40 )
04 - Full Throttle (5:02 )
05 - Voodoo People (6:27 )
06 - Speedway (Theme From Fastlane) (8:56 )
07 - The Heat (The Energy) (4:27 )
08 - Poison (6:42 )
09 - No Good (Start The Dance) (6:17 )
10 - One Love (Edit) (3:53 )
11 - The Narcotic Suite: 3 Kilos (7:25 )
12 - The Narcotic Suite: Skylined (5:58 )
13 - The Narcotic Suite: Claustrophobic Sting (7:11 )

log.EAC
Exact Audio Copy V0.99 prebeta 5 from 4. May 2009

EAC extraction logfile from 2. September 2009, 21:42

The Prodigy / Music for the Jilted Generation

Used drive : PIONEER DVD-RW DVR-111 Adapter: 0 ID: 0

Read mode : Secure
Utilize accurate stream : Yes
Defeat audio cache : Yes
Make use of C2 pointers : No

Read offset correction : 48
Overread into Lead-In and Lead-Out : No
Fill up missing offset samples with silence : Yes
Delete leading and trailing silent blocks : No
Null samples used in CRC calculations : Yes
Used interface : Native Win32 interface for Win NT & 2000
Gap handling : Appended to previous track

Used output format : User Defined Encoder
Selected bitrate : 768 kBit/s
Quality : High
Add ID3 tag : No
Command line compressor : C:Program Files (x86)Exact Audio CopyFLACFLAC.EXE
Additional command line options : -8 -V -T "ARTIST=%a" -T "TITLE=%t" -T "ALBUM=%g" -T "DATE=%y" -T "TRACKNUMBER=%n" -T "GENRE=%m" -T "COMMENT=%e" %s -o %d

TOC of the extracted CD

Track | Start | Length | Start sector | End sector
---------------------------------------------------------
1 | 0:00.00 | 0:46.20 | 0 | 3469
2 | 0:46.20 | 8:24.32 | 3470 | 41301
3 | 9:10.52 | 6:40.58 | 41302 | 71359
4 | 15:51.35 | 5:02.42 | 71360 | 94051
5 | 20:54.02 | 6:27.00 | 94052 | 123076
6 | 27:21.02 | 8:56.28 | 123077 | 163304
7 | 36:17.30 | 4:27.55 | 163305 | 183384
8 | 40:45.10 | 6:42.35 | 183385 | 213569
9 | 47:27.45 | 6:17.67 | 213570 | 241911
10 | 53:45.37 | 3:53.35 | 241912 | 259421
11 | 57:38.72 | 7:25.68 | 259422 | 292864
12 | 65:04.65 | 5:58.07 | 292865 | 319721
13 | 71:02.72 | 7:11.68 | 319722 | 352114

Track 1

Filename F:Flac1 - Intro.wav

Pre-gap length 0:00:02.00

Peak level 49.5 %
Track quality 100.0 %
Test CRC 9E4679FC
Copy CRC 9E4679FC
Accurately ripped (confidence 12) [261F1F61]
Copy OK

Track 2

Filename F:Flac2 - Break & Enter.wav

Peak level 98.8 %
Track quality 100.0 %
Test CRC CAAB244F
Copy CRC CAAB244F
Accurately ripped (confidence 12) [52A754CC]
Copy OK

Track 3

Filename F:Flac3 - Their Law (Featuring Pop Will Eat Itself).wav

Peak level 98.8 %
Track quality 99.9 %
Test CRC A193D11F
Copy CRC A193D11F
Accurately ripped (confidence 12) [FB5A9198]
Copy OK

Track 4

Filename F:Flac4 - Full Throttle.wav

Pre-gap length 0:00:01.20

Peak level 98.8 %
Track quality 100.0 %
Test CRC 03B225A4
Copy CRC 03B225A4
Accurately ripped (confidence 12) [282ECFAD]
Copy OK

Track 5

Filename F:Flac5 - Voodoo People.wav

Peak level 98.8 %
Track quality 100.0 %
Test CRC 91D993B6
Copy CRC 91D993B6
Accurately ripped (confidence 11) [F7018B22]
Copy OK

Track 6

Filename F:Flac6 - Speedway (Theme From Fastlane).wav

Pre-gap length 0:00:00.66

Peak level 98.8 %
Track quality 100.0 %
Test CRC 5DCE9F2C
Copy CRC 5DCE9F2C
Accurately ripped (confidence 12) [C1F0B19D]
Copy OK

Track 7

Filename F:Flac7 - The Heat (The Energy).wav

Peak level 98.8 %
Track quality 100.0 %
Test CRC ED21358D
Copy CRC ED21358D
Accurately ripped (confidence 11) [7635ABCB]
Copy OK

Track 8

Filename F:Flac8 - Poison.wav

Pre-gap length 0:00:00.37

Peak level 98.8 %
Track quality 99.9 %
Test CRC 588C2607
Copy CRC 588C2607
Accurately ripped (confidence 11) [1F22E353]
Copy OK

Track 9

Filename F:Flac9 - No Good (Start The Dance).wav

Pre-gap length 0:00:00.04

Peak level 98.8 %
Track quality 99.9 %
Test CRC 9FA54F00
Copy CRC 9FA54F00
Accurately ripped (confidence 11) [BA8DFC9A]
Copy OK

Track 10

Filename F:Flac10 - One Love (Edit).wav

Peak level 98.8 %
Track quality 100.0 %
Test CRC 0FBA0F8C
Copy CRC 0FBA0F8C
Accurately ripped (confidence 11) [010C0764]
Copy OK

Track 11

Filename F:Flac11 - The Narcotic Suite- 3 Kilos.wav

Pre-gap length 0:00:01.00

Peak level 98.8 %
Track quality 100.0 %
Test CRC 91880673
Copy CRC 91880673
Accurately ripped (confidence 11) [92DC9CB3]
Copy OK

Track 12

Filename F:Flac12 - The Narcotic Suite- Skylined.wav

Peak level 98.8 %
Track quality 100.0 %
Test CRC 94056DED
Copy CRC 94056DED
Accurately ripped (confidence 12) [241E54E8]
Copy OK

Track 13

Filename F:Flac13 - The Narcotic Suite- Claustrophobic Sting.wav

Peak level 85.8 %
Track quality 100.0 %
Test CRC E9FCE377
Copy CRC E9FCE377
Accurately ripped (confidence 12) [D08C146C]
Copy OK

All tracks accurately ripped

No errors occurred

End of status report


1994 - Music For The Jilted Generation (Avex AVCD-11204) 01

01 - Intro (0:46 )
02 - Break & Enter (8:24 )
03 - Their Law (Feauturing Pop Will Eat Itself) (6:40 )
04 - Full Throttle (5:02 )
05 - Voodoo People (6:27 )
06 - Speedway (Theme From Fastlane) (8:56 )
07 - The Heat (The Energy) (4:27 )
08 - Poison (6:42 )
09 - No Good (Start The Dance) (6:17 )
10 - One Love (Edit) (3:53 )
11 - 3 Kilos (7:25 )
12 - Skylined (5:58 )
13 - Claustrophobic Sting (7:12 )

CD2 - Avex AVCD-11204-B
01 - Charly (Alley Cat Mix) (4:59 )
02 - Everybody In The Place (Fairground Remix) (5:09 )
03 - Out Of Space (Techno Underworld Remix) (4:44 )

log.EAC
Exact Audio Copy V0.99 prebeta 5 from 4. May 2009

EAC extraction logfile from 5. September 2009, 14:14

The Prodigy / Music For The Jilted Generation (CD1)

Used drive : PIONEER DVD-RW DVR-111 Adapter: 0 ID: 0

Read mode : Secure
Utilize accurate stream : Yes
Defeat audio cache : Yes
Make use of C2 pointers : No

Read offset correction : 48
Overread into Lead-In and Lead-Out : No
Fill up missing offset samples with silence : Yes
Delete leading and trailing silent blocks : No
Null samples used in CRC calculations : Yes
Used interface : Native Win32 interface for Win NT & 2000
Gap handling : Appended to previous track

Used output format : User Defined Encoder
Selected bitrate : 768 kBit/s
Quality : High
Add ID3 tag : No
Command line compressor : C:Program Files (x86)Exact Audio CopyFLACFLAC.EXE
Additional command line options : -8 -V -T "ARTIST=%a" -T "TITLE=%t" -T "ALBUM=%g" -T "DATE=%y" -T "TRACKNUMBER=%n" -T "GENRE=%m" -T "COMMENT=%e" %s -o %d

TOC of the extracted CD

Track | Start | Length | Start sector | End sector
---------------------------------------------------------
1 | 0:00.00 | 0:46.07 | 0 | 3456
2 | 0:46.07 | 8:24.48 | 3457 | 41304
3 | 9:10.55 | 6:40.45 | 41305 | 71349
4 | 15:51.25 | 5:02.40 | 71350 | 94039
5 | 20:53.65 | 6:27.00 | 94040 | 123064
6 | 27:20.65 | 8:56.27 | 123065 | 163291
7 | 36:17.17 | 4:27.55 | 163292 | 183371
8 | 40:44.72 | 6:42.38 | 183372 | 213559
9 | 47:27.35 | 6:17.65 | 213560 | 241899
10 | 53:45.25 | 3:53.37 | 241900 | 259411
11 | 57:38.62 | 7:25.65 | 259412 | 292851
12 | 65:04.52 | 5:58.18 | 292852 | 319719
13 | 71:02.70 | 7:12.27 | 319720 | 352146

Track 1

Filename F:Flac1 - Intro.wav

Pre-gap length 0:00:02.00

Peak level 75.4 %
Track quality 100.0 %
Test CRC 1325F5E1
Copy CRC 1325F5E1
Accurately ripped (confidence 2) [16BC89B8]
Copy OK

Track 2

Filename F:Flac2 - Break & Enter.wav

Peak level 99.2 %
Track quality 100.0 %
Test CRC 0C016E4D
Copy CRC 0C016E4D
Accurately ripped (confidence 2) [FA8A9151]
Copy OK

Track 3

Filename F:Flac3 - Their Law (Feauturing Pop Will Eat Itself).wav

Peak level 99.2 %
Track quality 100.0 %
Test CRC F0372559
Copy CRC F0372559
Accurately ripped (confidence 2) [CF52743F]
Copy OK

Track 4

Filename F:Flac4 - Full Throttle.wav

Pre-gap length 0:00:01.00

Peak level 99.2 %
Track quality 100.0 %
Test CRC FEDC2F04
Copy CRC FEDC2F04
Accurately ripped (confidence 2) [5D48582A]
Copy OK

Track 5

Filename F:Flac5 - Voodoo People.wav

Peak level 99.2 %
Track quality 100.0 %
Test CRC 698AD255
Copy CRC 698AD255
Accurately ripped (confidence 2) [61F639CF]
Copy OK

Track 6

Filename F:Flac6 - Speedway (Theme From Fastlane).wav

Peak level 99.2 %
Track quality 100.0 %
Test CRC 05156D69
Copy CRC 05156D69
Accurately ripped (confidence 2) [9A9D054A]
Copy OK

Track 7

Filename F:Flac7 - The Heat (The Energy).wav

Peak level 99.2 %
Track quality 100.0 %
Test CRC 47FE33D6
Copy CRC 47FE33D6
Accurately ripped (confidence 2) [EF2ADEEF]
Copy OK

Track 8

Filename F:Flac8 - Poison.wav

Peak level 99.2 %
Track quality 100.0 %
Test CRC C79EE33C
Copy CRC C79EE33C
Accurately ripped (confidence 2) [D6BA1BC1]
Copy OK

Track 9

Filename F:Flac9 - No Good (Start The Dance).wav

Peak level 99.2 %
Track quality 99.9 %
Test CRC 2E7579A2
Copy CRC 2E7579A2
Accurately ripped (confidence 2) [C63CF09C]
Copy OK

Track 10

Filename F:Flac10 - One Love (Edit).wav

Peak level 99.2 %
Track quality 100.0 %
Test CRC 4DCBFE49
Copy CRC 4DCBFE49
Accurately ripped (confidence 2) [27AA852C]
Copy OK

Track 11

Filename F:Flac11 - 3 Kilos.wav

Peak level 99.2 %
Track quality 100.0 %
Test CRC FEEA8F7A
Copy CRC FEEA8F7A
Accurately ripped (confidence 2) [FF81D3D2]
Copy OK

Track 12

Filename F:Flac12 - Skylined.wav

Peak level 99.2 %
Track quality 100.0 %
Test CRC F1F96508
Copy CRC F1F96508
Accurately ripped (confidence 2) [87693165]
Copy OK

Track 13

Filename F:Flac13 - Claustrophobic Sting.wav

Peak level 99.2 %
Track quality 99.9 %
Test CRC DDFCF82F
Copy CRC DDFCF82F
Accurately ripped (confidence 2) [E7BCB98E]
Copy OK

All tracks accurately ripped

No errors occurred

End of status report


1997 - The Fat Of The Land 00

01 - Smack My Bitch Up (5:42 )
02 - Breathe (5:34 )
03 - Diesel Power (4:17 )
04 - Funky Shit (5:16 )
05 - Serial Thrilla (5:11)
06 - Mindfields (5:39 )
07 - Narayan (9:05 )
08 - Firestarter (4:39 )
09 - Climbatize (6:38 )
10 - Fuel My Fire (4:18 )

log.EAC
Exact Audio Copy V0.99 prebeta 5 from 4. May 2009

EAC extraction logfile from 18. September 2009, 22:22

The Prodigy / The Fat of the Land

Used drive : ASUS DRW-2014L1T Adapter: 3 ID: 1

Read mode : Secure
Utilize accurate stream : Yes
Defeat audio cache : Yes
Make use of C2 pointers : No

Read offset correction : 6
Overread into Lead-In and Lead-Out : No
Fill up missing offset samples with silence : Yes
Delete leading and trailing silent blocks : No
Null samples used in CRC calculations : Yes
Used interface : Native Win32 interface for Win NT & 2000
Gap handling : Appended to previous track

Used output format : User Defined Encoder
Selected bitrate : 768 kBit/s
Quality : High
Add ID3 tag : No
Command line compressor : C:Program Files (x86)Exact Audio CopyFLACFLAC.EXE
Additional command line options : -8 -V -T "ARTIST=%a" -T "TITLE=%t" -T "ALBUM=%g" -T "DATE=%y" -T "TRACKNUMBER=%n" -T "GENRE=%m" -T "COMMENT=%e" %s -o %d

TOC of the extracted CD

Track | Start | Length | Start sector | End sector
---------------------------------------------------------
1 | 0:00.00 | 5:42.55 | 0 | 25704
2 | 5:42.55 | 5:34.60 | 25705 | 50814
3 | 11:17.40 | 4:17.45 | 50815 | 70134
4 | 15:35.10 | 5:16.32 | 70135 | 93866
5 | 20:51.42 | 5:11.25 | 93867 | 117216
6 | 26:02.67 | 5:39.68 | 117217 | 142709
7 | 31:42.60 | 9:05.72 | 142710 | 183656
8 | 40:48.57 | 4:39.60 | 183657 | 204641
9 | 45:28.42 | 6:38.25 | 204642 | 234516
10 | 52:06.67 | 4:18.68 | 234517 | 253934

Track 1

Filename F:Flac1 - Smack My Bitch Up.wav

Pre-gap length 0:00:02.00

Peak level 100.0 %
Track quality 100.0 %
Test CRC 21B658DD
Copy CRC 21B658DD
Accurately ripped (confidence 2) [DCA2C3F3]
Copy OK

Track 2

Filename F:Flac2 - Breathe.wav

Peak level 100.0 %
Track quality 100.0 %
Test CRC 140A30F6
Copy CRC 140A30F6
Accurately ripped (confidence 2) [9C1B0335]
Copy OK

Track 3

Filename F:Flac3 - Diesel Power.wav

Peak level 100.0 %
Track quality 100.0 %
Test CRC E842FB36
Copy CRC E842FB36
Accurately ripped (confidence 2) [FD0DF884]
Copy OK

Track 4

Filename F:Flac4 - Funky Shit.wav

Peak level 100.0 %
Track quality 99.9 %
Test CRC 93936822
Copy CRC 93936822
Accurately ripped (confidence 2) [48B6792D]
Copy OK

Track 5

Filename F:Flac5 - Serial Thrilla.wav

Peak level 100.0 %
Track quality 100.0 %
Test CRC 15EB4790
Copy CRC 15EB4790
Accurately ripped (confidence 2) [CFA75637]
Copy OK

Track 6

Filename F:Flac6 - Mindfields.wav

Peak level 100.0 %
Track quality 100.0 %
Test CRC E812D5A3
Copy CRC E812D5A3
Cannot be verified as accurate (confidence 126) [D5E4B913], AccurateRip returned [92FD09DA]
Copy OK

Track 7

Filename F:Flac7 - Narayan.wav

Peak level 100.0 %
Track quality 100.0 %
Test CRC EB0F68F5
Copy CRC EB0F68F5
Cannot be verified as accurate (confidence 122) [88959202], AccurateRip returned [CB100B43]
Copy OK

Track 8

Filename F:Flac8 - Firestarter.wav

Peak level 100.0 %
Track quality 100.0 %
Test CRC 131B243A
Copy CRC 131B243A
Cannot be verified as accurate (confidence 126) [4FFBFC5C], AccurateRip returned [43E45E7E]
Copy OK

Track 9

Filename F:Flac9 - Climbatize.wav

Peak level 100.0 %
Track quality 100.0 %
Test CRC EAA2083B
Copy CRC EAA2083B
Cannot be verified as accurate (confidence 123) [214E30B6], AccurateRip returned [E746F674]
Copy OK

Track 10

Filename F:Flac10 - Fuel My Fire.wav

Pre-gap length 0:00:01.86

Peak level 100.0 %
Track quality 100.0 %
Test CRC D6D00BA3
Copy CRC D6D00BA3
Cannot be verified as accurate (confidence 119) [66C07801], AccurateRip returned [068118F9]
Copy OK

5 track(s) accurately ripped
5 track(s) could not be verified as accurate

Some tracks could not be verified as accurate

No errors occurred

End of status report


1997 - The Fat Of The Land (XLCD 121) 00

01 - Smack My Bitch Up (5:42 )
02 - Breathe (5:34 )
03 - Diesel Power (4:17 )
04 - Funky Shit (5:16 )
05 - Serial Thrilla (5:11 )
06 - Mindfields (5:39 )
07 - Narayan (9:05 )
08 - Firestarter (4:39 )
09 - Climbatize (6:38 )
10 - Fuel My Fire (4:18 )

log.EAC
Exact Audio Copy V0.99 prebeta 5 from 4. May 2009

EAC extraction logfile from 27. June 2009, 14:16

The Prodigy / The Fat Of The Land

Used drive : ASUS DRW-2014L1T Adapter: 3 ID: 1

Read mode : Secure
Utilize accurate stream : Yes
Defeat audio cache : Yes
Make use of C2 pointers : No

Read offset correction : 6
Overread into Lead-In and Lead-Out : No
Fill up missing offset samples with silence : Yes
Delete leading and trailing silent blocks : No
Null samples used in CRC calculations : Yes
Used interface : Native Win32 interface for Win NT & 2000
Gap handling : Appended to previous track

Used output format : User Defined Encoder
Selected bitrate : 768 kBit/s
Quality : High
Add ID3 tag : No
Command line compressor : C:Program Files (x86)Exact Audio CopyFLACFLAC.EXE
Additional command line options : -8 -V -T "ARTIST=%a" -T "TITLE=%t" -T "ALBUM=%g" -T "DATE=%y" -T "TRACKNUMBER=%n" -T "GENRE=%m" -T "COMMENT=%e" %s -o %d

TOC of the extracted CD

Track | Start | Length | Start sector | End sector
---------------------------------------------------------
1 | 0:00.00 | 5:42.55 | 0 | 25704
2 | 5:42.55 | 5:34.60 | 25705 | 50814
3 | 11:17.40 | 4:17.45 | 50815 | 70134
4 | 15:35.10 | 5:16.32 | 70135 | 93866
5 | 20:51.42 | 5:11.25 | 93867 | 117216
6 | 26:02.67 | 5:39.68 | 117217 | 142709
7 | 31:42.60 | 9:05.72 | 142710 | 183656
8 | 40:48.57 | 4:39.60 | 183657 | 204641
9 | 45:28.42 | 6:38.25 | 204642 | 234516
10 | 52:06.67 | 4:18.68 | 234517 | 253934

Track 1

Filename F:Flac1 - Smack My Bitch Up.wav

Pre-gap length 0:00:02.00

Peak level 100.0 %
Track quality 100.0 %
Test CRC 8711B22E
Copy CRC 8711B22E
Accurately ripped (confidence 50) [11EC9BB5]
Copy OK

Track 2

Filename F:Flac2 - Breathe.wav

Peak level 100.0 %
Track quality 100.0 %
Test CRC 33C6AAA9
Copy CRC 33C6AAA9
Accurately ripped (confidence 49) [D2FC315D]
Copy OK

Track 3

Filename F:Flac3 - Diesel Power.wav

Peak level 100.0 %
Track quality 100.0 %
Test CRC AD70AAFD
Copy CRC AD70AAFD
Accurately ripped (confidence 50) [42FDB9F6]
Copy OK

Track 4

Filename F:Flac4 - Funky Shit.wav

Peak level 100.0 %
Track quality 99.9 %
Test CRC A752A8EE
Copy CRC A752A8EE
Accurately ripped (confidence 49) [65BF596C]
Copy OK

Track 5

Filename F:Flac5 - Serial Thrilla.wav

Peak level 100.0 %
Track quality 100.0 %
Test CRC ADF42121
Copy CRC ADF42121
Accurately ripped (confidence 49) [000D2C44]
Copy OK

Track 6

Filename F:Flac6 - Mindfields.wav

Peak level 100.0 %
Track quality 100.0 %
Test CRC 9D016A2E
Copy CRC 9D016A2E
Accurately ripped (confidence 49) [18C2BE6F]
Copy OK

Track 7

Filename F:Flac7 - Narayan.wav

Peak level 100.0 %
Track quality 100.0 %
Test CRC A058AFEC
Copy CRC A058AFEC
Accurately ripped (confidence 50) [4755FEFD]
Copy OK

Track 8

Filename F:Flac8 - Firestarter.wav

Peak level 100.0 %
Track quality 100.0 %
Test CRC 26C3C367
Copy CRC 26C3C367
Accurately ripped (confidence 50) [CFF13462]
Copy OK

Track 9

Filename F:Flac9 - Climbatize.wav

Peak level 100.0 %
Track quality 100.0 %
Test CRC FD879A4D
Copy CRC FD879A4D
Accurately ripped (confidence 48) [669BFE78]
Copy OK

Track 10

Filename F:Flac10 - Fuel My Fire.wav

Pre-gap length 0:00:01.85

Peak level 100.0 %
Track quality 100.0 %
Test CRC E7A58FAC
Copy CRC E7A58FAC
Accurately ripped (confidence 49) [C74DB439]
Copy OK

All tracks accurately ripped

No errors occurred

End of status report


2001 - Experience - Expanded (Remixes & B-Sides) - CD1 00

01 - Jericho (3:42 )
02 - Music Reach (1/2/3/4) (4:12 )
03 - Wind It Up (4:33 )
04 - Your Love (Remix) (5:31 )
05 - Hyperspeed (G-Force Part 2) (5:15 )
06 - Charly (Trip Into Drum And Bass Version) (5:12 )
07 - Out Of Space (4:58 )
08 - Everbody In The Place (155 and rising) (4:11 )
09 - Weather Experience (8:04 )
10 - Fire (Sunrise Version) (4:59 )
11 - Ruff In The Jungle Bizness (5:07 )
12 - Death Of The Prodigy Dancers (Live) (3:44 )
12 - Death Of The Prodigy Dancers (Live)

log.EAC
Exact Audio Copy V0.99 prebeta 5 from 4. May 2009

EAC extraction logfile from 27. June 2009, 17:55

The Prodigy / Experience

Used drive : ASUS DRW-2014L1T Adapter: 3 ID: 1

Read mode : Secure
Utilize accurate stream : Yes
Defeat audio cache : Yes
Make use of C2 pointers : No

Read offset correction : 6
Overread into Lead-In and Lead-Out : No
Fill up missing offset samples with silence : Yes
Delete leading and trailing silent blocks : No
Null samples used in CRC calculations : Yes
Used interface : Native Win32 interface for Win NT & 2000
Gap handling : Appended to previous track

Used output format : User Defined Encoder
Selected bitrate : 768 kBit/s
Quality : High
Add ID3 tag : No
Command line compressor : C:Program Files (x86)Exact Audio CopyFLACFLAC.EXE
Additional command line options : -8 -V -T "ARTIST=%a" -T "TITLE=%t" -T "ALBUM=%g" -T "DATE=%y" -T "TRACKNUMBER=%n" -T "GENRE=%m" -T "COMMENT=%e" %s -o %d

TOC of the extracted CD

Track | Start | Length | Start sector | End sector
---------------------------------------------------------
1 | 0:00.00 | 3:42.65 | 0 | 16714
2 | 3:42.65 | 4:12.10 | 16715 | 35624
3 | 7:55.00 | 4:33.05 | 35625 | 56104
4 | 12:28.05 | 5:31.25 | 56105 | 80954
5 | 17:59.30 | 5:15.07 | 80955 | 104586
6 | 23:14.37 | 5:12.58 | 104587 | 128044
7 | 28:27.20 | 4:58.45 | 128045 | 150439
8 | 33:25.65 | 4:11.32 | 150440 | 169296
9 | 37:37.22 | 8:04.08 | 169297 | 205604
10 | 45:41.30 | 4:59.07 | 205605 | 228036
11 | 50:40.37 | 5:07.73 | 228037 | 251134
12 | 55:48.35 | 3:44.17 | 251135 | 267951

Track 1

Filename F:Flac1 - Jericho.wav

Pre-gap length 0:00:02.00

Peak level 100.0 %
Track quality 100.0 %
Test CRC CE3E228A
Copy CRC CE3E228A
Accurately ripped (confidence 14) [E646531C]
Copy OK

Track 2

Filename F:Flac2 - Music Reach (1,2,3,4).wav

Peak level 100.0 %
Track quality 100.0 %
Test CRC FD3D2260
Copy CRC FD3D2260
Accurately ripped (confidence 14) [5143FAAC]
Copy OK

Track 3

Filename F:Flac3 - Wind It Up.wav

Peak level 100.0 %
Track quality 100.0 %
Test CRC 1B3C9C08
Copy CRC 1B3C9C08
Accurately ripped (confidence 14) [66E4E939]
Copy OK

Track 4

Filename F:Flac4 - Your Love (Remix).wav

Peak level 100.0 %
Track quality 100.0 %
Test CRC 94FD9299
Copy CRC 94FD9299
Accurately ripped (confidence 14) [1A30FB2C]
Copy OK

Track 5

Filename F:Flac5 - Hyperspeed (G-Force Part 2).wav

Peak level 100.0 %
Track quality 99.9 %
Test CRC A8C49D83
Copy CRC A8C49D83
Accurately ripped (confidence 14) [023D439A]
Copy OK

Track 6

Filename F:Flac6 - Charly (Trip Into Drum And Bass Version).wav

Peak level 100.0 %
Track quality 100.0 %
Test CRC 6EE57450
Copy CRC 6EE57450
Accurately ripped (confidence 14) [CDE04825]
Copy OK

Track 7

Filename F:Flac7 - Out Of Space.wav

Peak level 100.0 %
Track quality 100.0 %
Test CRC 24EA49AF
Copy CRC 24EA49AF
Accurately ripped (confidence 14) [692C599D]
Copy OK

Track 8

Filename F:Flac8 - Everbody In The Place (155 and rising).wav

Peak level 100.0 %
Track quality 100.0 %
Test CRC A65BCCC3
Copy CRC A65BCCC3
Accurately ripped (confidence 14) [E10FC222]
Copy OK

Track 9

Filename F:Flac9 - Weather Experience.wav

Peak level 100.0 %
Track quality 100.0 %
Test CRC E0ABE62C
Copy CRC E0ABE62C
Accurately ripped (confidence 14) [35105C69]
Copy OK

Track 10

Filename F:Flac10 - Fire (Sunrise Version).wav

Peak level 100.0 %
Track quality 100.0 %
Test CRC B8CBF6BA
Copy CRC B8CBF6BA
Accurately ripped (confidence 14) [BBB5D659]
Copy OK

Track 11

Filename F:Flac11 - Ruff In The Jungle Bizness.wav

Peak level 100.0 %
Track quality 100.0 %
Test CRC A3799F74
Copy CRC A3799F74
Accurately ripped (confidence 13) [D5B35488]
Copy OK

Track 12

Filename F:Flac12 - Death Of The Prodigy Dancers (Live).wav

Peak level 100.0 %
Track quality 100.0 %
Test CRC A0FE93C5
Copy CRC A0FE93C5
Accurately ripped (confidence 13) [C4EEBC71]
Copy OK

All tracks accurately ripped

No errors occurred

End of status report


2001 - Experience - Expanded (Remixes & B-Sides) - CD2 00

01 - Your Love (6:02 )
02 - Ruff In The Jungle Bizness (Uplifting Vibes Remix) (4:16 )
03 - Charly (Alley Cat Remix) (5:22 )
04 - Fire (Edit) (3:24 )
05 - We Are The Ruffest (5:18 )
06 - Weather Experience (Top Buzz Remix) (6:54 )
07 - Wind It Up (Rewound) (6:21 )
08 - G-Force (Energy Flow) (5:23 )
09 - Crazy Man (4:05 )
10 - Out Of Space (Techno Underworld Remix) (4:44 )
11 - Everybody In The Place (Fairground Remix) (5:08 )

log.EAC
Exact Audio Copy V0.99 prebeta 5 from 4. May 2009

EAC extraction logfile from 27. June 2009, 18:17

The Prodigy / Experience Expanded: Remixes & B-Sides

Used drive : ASUS DRW-2014L1T Adapter: 3 ID: 1

Read mode : Secure
Utilize accurate stream : Yes
Defeat audio cache : Yes
Make use of C2 pointers : No

Read offset correction : 6
Overread into Lead-In and Lead-Out : No
Fill up missing offset samples with silence : Yes
Delete leading and trailing silent blocks : No
Null samples used in CRC calculations : Yes
Used interface : Native Win32 interface for Win NT & 2000
Gap handling : Appended to previous track

Used output format : User Defined Encoder
Selected bitrate : 768 kBit/s
Quality : High
Add ID3 tag : No
Command line compressor : C:Program Files (x86)Exact Audio CopyFLACFLAC.EXE
Additional command line options : -8 -V -T "ARTIST=%a" -T "TITLE=%t" -T "ALBUM=%g" -T "DATE=%y" -T "TRACKNUMBER=%n" -T "GENRE=%m" -T "COMMENT=%e" %s -o %d

TOC of the extracted CD

Track | Start | Length | Start sector | End sector
---------------------------------------------------------
1 | 0:00.00 | 6:02.50 | 0 | 27199
2 | 6:02.50 | 4:16.52 | 27200 | 46451
3 | 10:19.27 | 5:22.23 | 46452 | 70624
4 | 15:41.50 | 3:24.67 | 70625 | 85991
5 | 19:06.42 | 5:18.63 | 85992 | 109904
6 | 24:25.30 | 6:54.07 | 109905 | 140961
7 | 31:19.37 | 6:21.60 | 140962 | 169596
8 | 37:41.22 | 5:23.65 | 169597 | 193886
9 | 43:05.12 | 4:05.73 | 193887 | 212334
10 | 47:11.10 | 4:44.65 | 212335 | 233699
11 | 51:56.00 | 5:08.00 | 233700 | 256799

Track 1

Filename F:Flac1 - Your Love.wav

Pre-gap length 0:00:02.00

Peak level 100.0 %
Track quality 100.0 %
Test CRC 9EE81061
Copy CRC 9EE81061
Accurately ripped (confidence 18) [015A29E4]
Copy OK

Track 2

Filename F:Flac2 - Ruff In The Jungle Bizness (Uplifting Vibes Remix).wav

Pre-gap length 0:00:01.57

Peak level 100.0 %
Track quality 99.9 %
Test CRC 8F8BAA54
Copy CRC 8F8BAA54
Accurately ripped (confidence 18) [EEC7EACF]
Copy OK

Track 3

Filename F:Flac3 - Charly (Alley Cat Remix).wav

Pre-gap length 0:00:01.33

Peak level 100.0 %
Track quality 100.0 %
Test CRC 6ACDB48D
Copy CRC 6ACDB48D
Accurately ripped (confidence 18) [FBBF99D9]
Copy OK

Track 4

Filename F:Flac4 - Fire (Edit).wav

Peak level 100.0 %
Track quality 99.9 %
Test CRC 4901B5CC
Copy CRC 4901B5CC
Accurately ripped (confidence 18) [2F7C82D6]
Copy OK

Track 5

Filename F:Flac5 - We Are The Ruffest.wav

Pre-gap length 0:00:01.73

Peak level 100.0 %
Track quality 100.0 %
Test CRC F9598B18
Copy CRC F9598B18
Accurately ripped (confidence 18) [80127118]
Copy OK

Track 6

Filename F:Flac6 - Weather Experience (Top Buzz Remix).wav

Pre-gap length 0:00:01.60

Peak level 100.0 %
Track quality 99.9 %
Test CRC E040F345
Copy CRC E040F345
Accurately ripped (confidence 18) [507CA210]
Copy OK

Track 7

Filename F:Flac7 - Wind It Up (Rewound).wav

Pre-gap length 0:00:01.22

Peak level 100.0 %
Track quality 100.0 %
Test CRC 25AD6897
Copy CRC 25AD6897
Accurately ripped (confidence 18) [27296E60]
Copy OK

Track 8

Filename F:Flac8 - G-Force (Energy Flow).wav

Pre-gap length 0:00:01.62

Peak level 100.0 %
Track quality 100.0 %
Test CRC 30C870CA
Copy CRC 30C870CA
Accurately ripped (confidence 17) [71999DA4]
Copy OK

Track 9

Filename F:Flac9 - Crazy Man.wav

Pre-gap length 0:00:01.73

Peak level 100.0 %
Track quality 100.0 %
Test CRC EF1DC7B8
Copy CRC EF1DC7B8
Accurately ripped (confidence 17) [F8A64213]
Copy OK

Track 10

Filename F:Flac10 - Out Of Space (Techno Underworld Remix).wav

Pre-gap length 0:00:02.04

Peak level 100.0 %
Track quality 100.0 %
Test CRC 189B689D
Copy CRC 189B689D
Accurately ripped (confidence 17) [1A09DFDA]
Copy OK

Track 11

Filename F:Flac11 - Everybody In The Place (Fairground Remix).wav

Pre-gap length 0:00:01.60

Peak level 100.0 %
Track quality 100.0 %
Test CRC 3B34EBAB
Copy CRC 3B34EBAB
Accurately ripped (confidence 17) [94B10F6E]
Copy OK

All tracks accurately ripped

No errors occurred

End of status report


2004 - Always Outnumbered, Never Outgunned 00

01 - Spitfire (5:07 )
02 - Girls (4:07 )
03 - Memphis Bells (4:28 )
04 - Get Up Get Off (4:19 )
05 - Hot Ride (4:36 )
06 - Wake Up Call (4:56 )
07 - Action Radar (5:32 )
08 - Medusa's Path (6:08 )
09 - Phoenix (4:38 )
10 - You'll Be Under My Wheels (3:56 )
11 - The Way It Is (5:46 )
12 - Shoot Down (4:31 )

log.EAC
Exact Audio Copy V0.99 prebeta 5 from 4. May 2009

EAC extraction logfile from 2. September 2009, 22:08

The Prodigy / Always Outnumbered Never Outgunned

Used drive : ASUS DRW-2014L1T Adapter: 3 ID: 1

Read mode : Secure
Utilize accurate stream : Yes
Defeat audio cache : Yes
Make use of C2 pointers : No

Read offset correction : 6
Overread into Lead-In and Lead-Out : No
Fill up missing offset samples with silence : Yes
Delete leading and trailing silent blocks : No
Null samples used in CRC calculations : Yes
Used interface : Native Win32 interface for Win NT & 2000
Gap handling : Appended to previous track

Used output format : User Defined Encoder
Selected bitrate : 768 kBit/s
Quality : High
Add ID3 tag : No
Command line compressor : C:Program Files (x86)Exact Audio CopyFLACFLAC.EXE
Additional command line options : -8 -V -T "ARTIST=%a" -T "TITLE=%t" -T "ALBUM=%g" -T "DATE=%y" -T "TRACKNUMBER=%n" -T "GENRE=%m" -T "COMMENT=%e" %s -o %d

TOC of the extracted CD

Track | Start | Length | Start sector | End sector
---------------------------------------------------------
1 | 0:00.00 | 5:07.67 | 0 | 23091
2 | 5:07.67 | 4:07.16 | 23092 | 41632
3 | 9:15.08 | 4:28.64 | 41633 | 61796
4 | 13:43.72 | 4:19.47 | 61797 | 81268
5 | 18:03.44 | 4:36.18 | 81269 | 101986
6 | 22:39.62 | 4:56.30 | 101987 | 124216
7 | 27:36.17 | 5:32.58 | 124217 | 149174
8 | 33:09.00 | 6:08.64 | 149175 | 176838
9 | 39:17.64 | 4:38.67 | 176839 | 197755
10 | 43:56.56 | 3:56.69 | 197756 | 215524
11 | 47:53.50 | 5:46.32 | 215525 | 241506
12 | 53:40.07 | 4:31.36 | 241507 | 261867

Track 1

Filename F:Flac1 - Spitfire.wav

Pre-gap length 0:00:02.00

Peak level 100.0 %
Track quality 100.0 %
Test CRC 7D1A1D21
Copy CRC 7D1A1D21
Accurately ripped (confidence 38) [BFA036A7]
Copy OK

Track 2

Filename F:Flac2 - Girls.wav

Peak level 100.0 %
Track quality 100.0 %
Test CRC 907243BA
Copy CRC 907243BA
Accurately ripped (confidence 38) [53A8C737]
Copy OK

Track 3

Filename F:Flac3 - Memphis Bells.wav

Peak level 100.0 %
Track quality 100.0 %
Test CRC 3EE0B19B
Copy CRC 3EE0B19B
Accurately ripped (confidence 38) [2FE3E91B]
Copy OK

Track 4

Filename F:Flac4 - Get Up Get Off.wav

Peak level 100.0 %
Track quality 100.0 %
Test CRC FB5A26F0
Copy CRC FB5A26F0
Accurately ripped (confidence 38) [357F23AD]
Copy OK

Track 5

Filename F:Flac5 - Hot Ride.wav

Pre-gap length 0:00:00.04

Peak level 100.0 %
Track quality 100.0 %
Test CRC 6E36BB8C
Copy CRC 6E36BB8C
Accurately ripped (confidence 39) [BC6B191A]
Copy OK

Track 6

Filename F:Flac6 - Wake Up Call.wav

Peak level 100.0 %
Track quality 100.0 %
Test CRC 5ADCBBEB
Copy CRC 5ADCBBEB
Accurately ripped (confidence 38) [838B87B0]
Copy OK

Track 7

Filename F:Flac7 - Action Radar.wav

Peak level 100.0 %
Track quality 100.0 %
Test CRC 64F10AD9
Copy CRC 64F10AD9
Accurately ripped (confidence 37) [C33FCC0E]
Copy OK

Track 8

Filename F:Flac8 - Medusa's Path.wav

Pre-gap length 0:00:00.04

Peak level 100.0 %
Track quality 100.0 %
Test CRC 54F7F68F
Copy CRC 54F7F68F
Accurately ripped (confidence 37) [0120DC97]
Copy OK

Track 9

Filename F:Flac9 - Phoenix.wav

Peak level 100.0 %
Track quality 100.0 %
Test CRC 1ED42212
Copy CRC 1ED42212
Accurately ripped (confidence 38)
Copy OK

Track 10

Filename F:Flac10 - You'll Be Under My Wheels.wav

Peak level 100.0 %
Track quality 100.0 %
Test CRC 208D7B1F
Copy CRC 208D7B1F
Accurately ripped (confidence 38) [7F7741E9]
Copy OK

Track 11

Filename F:Flac11 - The Way It Is.wav

Pre-gap length 0:00:00.20

Peak level 100.0 %
Track quality 100.0 %
Test CRC 7D7A4746
Copy CRC 7D7A4746
Accurately ripped (confidence 38) [42957C8B]
Copy OK

Track 12

Filename F:Flac12 - Shoot Down.wav

Pre-gap length 0:00:00.26

Peak level 100.0 %
Track quality 100.0 %
Test CRC 9EB85DBA
Copy CRC 9EB85DBA
Accurately ripped (confidence 37) [06551D41]
Copy OK

All tracks accurately ripped

No errors occurred

End of status report


2004 - Always Outnumbered, Never Outgunned (Sony SRCP 373) 01

01 - Spitfire (5:08 )
02 - Girls (4:07 )
03 - Memphis Bells (4:28 )
04 - Get Up Get Off (4:19 )
05 - Hotride (4:36 )
06 - Wake Up Call (4:56 )
07 - Action Radar (5:32 )
08 - Medusa's Path (6:08 )
09 - Phoenix (4:38 )
10 - You'll Be Under My Wheels (3:56 )
11 - The Way It Is (5:46 )
12 - Shoot Down (4:32 )
13 - More Girls (4:26 )

log.EAC
Exact Audio Copy V0.99 prebeta 5 from 4. May 2009

EAC extraction logfile from 11. October 2009, 16:10

The Prodigy / Always Outnumbered, Never Outgunned

Used drive : ASUS DRW-2014L1T Adapter: 3 ID: 1

Read mode : Secure
Utilize accurate stream : Yes
Defeat audio cache : Yes
Make use of C2 pointers : No

Read offset correction : 6
Overread into Lead-In and Lead-Out : No
Fill up missing offset samples with silence : Yes
Delete leading and trailing silent blocks : No
Null samples used in CRC calculations : Yes
Used interface : Native Win32 interface for Win NT & 2000
Gap handling : Appended to previous track

Used output format : User Defined Encoder
Selected bitrate : 768 kBit/s
Quality : High
Add ID3 tag : No
Command line compressor : C:Program Files (x86)Exact Audio CopyFLACFLAC.EXE
Additional command line options : -8 -V -T "ARTIST=%a" -T "TITLE=%t" -T "ALBUM=%g" -T "DATE=%y" -T "TRACKNUMBER=%n" -T "GENRE=%m" -T "COMMENT=%e" %s -o %d

TOC of the extracted CD

Track | Start | Length | Start sector | End sector
---------------------------------------------------------
1 | 0:00.00 | 5:08.27 | 0 | 23126
2 | 5:08.27 | 4:07.08 | 23127 | 41659
3 | 9:15.35 | 4:28.68 | 41660 | 61827
4 | 13:44.28 | 4:19.36 | 61828 | 81288
5 | 18:03.64 | 4:36.18 | 81289 | 102006
6 | 22:40.07 | 4:56.29 | 102007 | 124235
7 | 27:36.36 | 5:32.53 | 124236 | 149188
8 | 33:09.14 | 6:08.65 | 149189 | 176853
9 | 39:18.04 | 4:38.67 | 176854 | 197770
10 | 43:56.71 | 3:56.68 | 197771 | 215538
11 | 47:53.64 | 5:46.32 | 215539 | 241520
12 | 53:40.21 | 4:32.57 | 241521 | 261977
13 | 58:13.03 | 4:26.36 | 261978 | 281963

Track 1

Filename F:Flac1 - Spitfire.wav

Pre-gap length 0:00:02.00

Peak level 100.0 %
Track quality 100.0 %
Test CRC 83011062
Copy CRC 83011062
Accurately ripped (confidence 1) [F7C7F7C8]
Copy OK

Track 2

Filename F:Flac2 - Girls.wav

Peak level 100.0 %
Track quality 100.0 %
Test CRC D720BD0F
Copy CRC D720BD0F
Accurately ripped (confidence 1) [A7EAA020]
Copy OK

Track 3

Filename F:Flac3 - Memphis Bells.wav

Peak level 100.0 %
Track quality 100.0 %
Test CRC 15B59E40
Copy CRC 15B59E40
Accurately ripped (confidence 1) [E3632A7F]
Copy OK

Track 4

Filename F:Flac4 - Get Up Get Off.wav

Peak level 100.0 %
Track quality 100.0 %
Test CRC CD491E5D
Copy CRC CD491E5D
Accurately ripped (confidence 1) [CD1C10AD]
Copy OK

Track 5

Filename F:Flac5 - Hotride.wav

Peak level 100.0 %
Track quality 100.0 %
Test CRC 90FC4052
Copy CRC 90FC4052
Accurately ripped (confidence 1) [3A6AF2F0]
Copy OK

Track 6

Filename F:Flac6 - Wake Up Call.wav

Peak level 100.0 %
Track quality 100.0 %
Test CRC 0A89C62B
Copy CRC 0A89C62B
Accurately ripped (confidence 1) [5C238BCF]
Copy OK

Track 7

Filename F:Flac7 - Action Radar.wav

Peak level 100.0 %
Track quality 99.9 %
Test CRC 9885C745
Copy CRC 9885C745
Accurately ripped (confidence 1) [C88664C1]
Copy OK

Track 8

Filename F:Flac8 - Medusa's Path.wav

Peak level 100.0 %
Track quality 100.0 %
Test CRC 5B1C2F29
Copy CRC 5B1C2F29
Accurately ripped (confidence 1) [D67161A9]
Copy OK

Track 9

Filename F:Flac9 - Phoenix.wav

Peak level 100.0 %
Track quality 100.0 %
Test CRC A1B311C1
Copy CRC A1B311C1
Accurately ripped (confidence 1) [A28C69A2]
Copy OK

Track 10

Filename F:Flac10 - You'll Be Under My Wheels.wav

Peak level 100.0 %
Track quality 100.0 %
Test CRC 59DF9222
Copy CRC 59DF9222
Accurately ripped (confidence 1) [C07C9935]
Copy OK

Track 11

Filename F:Flac11 - The Way It Is.wav

Peak level 100.0 %
Track quality 100.0 %
Test CRC 510A108B
Copy CRC 510A108B
Accurately ripped (confidence 1) [FC860B95]
Copy OK

Track 12

Filename F:Flac12 - Shoot Down.wav

Peak level 100.0 %
Track quality 100.0 %
Test CRC 53944CE3
Copy CRC 53944CE3
Accurately ripped (confidence 1) [76DBE359]
Copy OK

Track 13

Filename F:Flac13 - More Girls.wav

Peak level 100.0 %
Track quality 100.0 %
Test CRC 01F5307B
Copy CRC 01F5307B
Accurately ripped (confidence 1) [8A9D27DA]
Copy OK

All tracks accurately ripped

No errors occurred

End of status report


2004 - The Fat Of The Land 01

01 - Smack My Bitch Up (05:42 )
02 - Breathe (05:34 )
03 - Diesel Power (04:16 )
04 - Funky Shit (05:16 )
05 - Serial Thrilla (05:11 )
06 - Mindfields (05:39 )
07 - Narayan (09:06 )
08 - Firestarter (04:39 )
09 - Climbatize (06:34 )
10 - Fuel My Fire (04:18 )
11 - Molotov Bitch (Bonus Japan Track) (04:51 )
12 - No Man Army (Bonus Japan Track) (04:44 )

log.EAC
Exact Audio Copy V0.99 prebeta 5 from 4. May 2009

EAC extraction logfile from 11. February 2010, 20:07

The Prodigy / The Fat Of The Land (Japanese Release)

Used drive : ASUS DRW-2014L1T Adapter: 3 ID: 1

Read mode : Secure
Utilize accurate stream : Yes
Defeat audio cache : Yes
Make use of C2 pointers : No

Read offset correction : 6
Overread into Lead-In and Lead-Out : No
Fill up missing offset samples with silence : Yes
Delete leading and trailing silent blocks : No
Null samples used in CRC calculations : Yes
Used interface : Native Win32 interface for Win NT & 2000
Gap handling : Appended to previous track

Used output format : User Defined Encoder
Selected bitrate : 768 kBit/s
Quality : High
Add ID3 tag : No
Command line compressor : C:Program Files (x86)Exact Audio CopyFLACFLAC.EXE
Additional command line options : -8 -V -T "ARTIST=%a" -T "TITLE=%t" -T "ALBUM=%g" -T "DATE=%y" -T "TRACKNUMBER=%n" -T "GENRE=%m" -T "COMMENT=%e" %s -o %d

TOC of the extracted CD

Track | Start | Length | Start sector | End sector
---------------------------------------------------------
1 | 0:00.00 | 5:42.68 | 0 | 25717
2 | 5:42.68 | 5:34.60 | 25718 | 50827
3 | 11:17.53 | 4:17.46 | 50828 | 70148
4 | 15:35.24 | 5:16.07 | 70149 | 93855
5 | 20:51.31 | 5:11.59 | 93856 | 117239
6 | 26:03.15 | 5:39.57 | 117240 | 142721
7 | 31:42.72 | 9:06.07 | 142722 | 183678
8 | 40:49.04 | 4:41.07 | 183679 | 204760
9 | 45:30.11 | 6:36.71 | 204761 | 234531
10 | 52:07.07 | 4:21.48 | 234532 | 254154
11 | 56:28.55 | 4:53.40 | 254155 | 276169
12 | 61:22.20 | 4:44.64 | 276170 | 297533

Track 1

Filename F:Flac1 - Smack My Bitch Up.wav

Pre-gap length 0:00:02.00

Peak level 100.0 %
Track quality 100.0 %
Test CRC 6AD4A01C
Copy CRC 6AD4A01C
Accurately ripped (confidence 2) [F0C75422]
Copy OK

Track 2

Filename F:Flac2 - Breathe.wav

Pre-gap length 0:00:00.64

Peak level 100.0 %
Track quality 100.0 %
Test CRC B837D764
Copy CRC B837D764
Accurately ripped (confidence 2) [BCC94440]
Copy OK

Track 3

Filename F:Flac3 - Diesel Power.wav

Peak level 100.0 %
Track quality 100.0 %
Test CRC 41FF4B53
Copy CRC 41FF4B53
Accurately ripped (confidence 2) [1EC9B537]
Copy OK

Track 4

Filename F:Flac4 - Funky Shit.wav

Pre-gap length 0:00:00.84

Peak level 100.0 %
Track quality 99.9 %
Test CRC 796ECA09
Copy CRC 796ECA09
Accurately ripped (confidence 2) [2779AD9A]
Copy OK

Track 5

Filename F:Flac5 - Serial Thrilla.wav

Peak level 100.0 %
Track quality 99.9 %
Test CRC AF136963
Copy CRC AF136963
Accurately ripped (confidence 2) [0D639D59]
Copy OK

Track 6

Filename F:Flac6 - Mindfields.wav

Peak level 100.0 %
Track quality 100.0 %
Test CRC 140AA4A1
Copy CRC 140AA4A1
Accurately ripped (confidence 2) [D6DB3ADB]
Copy OK

Track 7

Filename F:Flac7 - Narayan.wav

Peak level 100.0 %
Track quality 100.0 %
Test CRC AD1A2587
Copy CRC AD1A2587
Accurately ripped (confidence 2) [F097108A]
Copy OK

Track 8

Filename F:Flac8 - Firestarter.wav

Peak level 100.0 %
Track quality 100.0 %
Test CRC F523D741
Copy CRC F523D741
Accurately ripped (confidence 2) [53C03DC8]
Copy OK

Track 9

Filename F:Flac9 - Climbatize.wav

Pre-gap length 0:00:01.26

Peak level 100.0 %
Track quality 100.0 %
Test CRC B3E300C8
Copy CRC B3E300C8
Accurately ripped (confidence 2) [50A01573]
Copy OK

Track 10

Filename F:Flac10 - Fuel My Fire.wav

Pre-gap length 0:00:02.05

Peak level 100.0 %
Track quality 99.9 %
Test CRC E03332A8
Copy CRC E03332A8
Accurately ripped (confidence 2) [ED63AE09]
Copy OK

Track 11

Filename F:Flac11 - Molotov Bitch (Bonus Japan Track).wav

Pre-gap length 0:00:03.00

Peak level 100.0 %
Track quality 99.9 %
Test CRC E2D146EA
Cop
Музыка / Lossless / Дискографии (Электронная музыка)
СКАЧАТЬ БЕСПЛАТНО  [18.6 GB]


10
мар
2009

The Prodigy - Discography [1992-2009, Electronic, Breakbeat, MP3]

Формат: MP3, tracks, 320kbps
Год выпуска: 1992-2009
Страна: Great Britain (Великобритания)
Жанр: Electronic, Breakbeat
Продолжительность: 09:23:00
Описание: 1992 - Experience01 Jericho 02 Music Reach (1/2/3/4) 03 Wind It Up 04 Your Love (Remix) 05 Hyperspeed (G-Force Part 2) 06 Charly (Trip Into Drum And Bass Version) 07 Out Of Space 08 Everybody In The Place (155 And Rising) 09 Weather Experience 10 Fire (Sunrise Version) 11 Ruff In The Jungle Bizness 12 Death Of The Prodigy Dancers (Live) 1994 - Music For The Jilted Generation01 Intro 02 Break & Enter 03 Their Law 04 Full Throttle 05 Voodoo ...

16
фев
2010

The Prodigy - Discography [1992-2009, BreakBeat, Drum'n'Bass, Electronic, m4a]

Формат: M4A, tracks, lossless
Год выпуска: 1992-2009
Страна: USA
Жанр: BreakBeat, Drum'n'Bass, Electronic
Продолжительность: 08:32:41
Описание: 1992 - Experience (00 01. Jericho (3:44) 02. Music Reach (1/2/3/4) (4:12) 03. Wind It Up (4:33) 04. Your Love (Remix) (5:31) 05. Hyperspeed (G-Force Part 2) (5:15) 06. Charly (Trip Into Drum And Bass Version) (5:13) 07. Out Of Space (4:58 ) 08. Everybody In The Place (155 And Rising) (4:11) 09. Weather Experience (8:05) 10. Fire (Sunrise Version) (4:58 ) 11. Ruff In The Jungle Bizness (5:10) 12. Death Of The Prodigy Dancers (Live) (3:43) 1994 - Music F ...

10
апр
2009

VooDoo Presents The Prodigy - Prodigy Remixes (2009) [2009, Drum n Bass]

Формат: MP3, tracks, 256kbps
Год выпуска: 2009
Страна: Великобритания
Жанр: Drum n Bass
Продолжительность: 00:17:00
Описание: ТРЭКЛИСТ01.Wake The Fuck Up (Unknown & Ygidorp Remix) 02.Their Law (Dubstep Refix) 03.Wake The Fuck Up (Dave Clarke D'n'B Remix)

13
фев
2007

Prodigy- Tribute of prodigy [2002, Club, mp3]

Prodigy- Tribute of prodigy (ремиксы на продигу)
Формат: MP3, tracks, 192kbps
Страна: World
Год выпуска: 2002
Жанр: Club
Продолжительность: 00:55:47 1. DJ Matthew Grimm & Alan T. - Breathe (4:39) 2. Haujobb - Smack my Bitch Up (4:55) 3. Glampire - Serial Thrilla (4:32) 8) 8) 4. Imperious Rex - Diesel Power (3:59) 5. Funker Vogt - Narayan (4:55) 6. DKAY.COM - Firestarter (3:42) 7. Razed in Black - Poison (4:58) 8. Mentallo & The Fixer - Jericho (4:44) 9. Mindless Faith - Voodoo People (4:44) 10. Joolz - Climbatize (4:03) 11. Neotek - Mindfields (4:51) 12. DJ BP - No Good (4:55)

25
янв
2008

The Prodigy [mp3, 192]

Страна: Великобритания
Жанр: Электропанк, брейкбит, хаус, техно, альтернативный рок
Продолжительность: 13:00:56
Формат: MP3
Битрейт аудио: 192 kbps; 44 kHz; stereo
Трэклист: 1991 Charly 1 - charly (original mix) 2 - charly (alley cat mix) 3 - pandemonium (original mix) 1991 What Evil Lirks 1 - everybody in the place 2 - android 3 - we gonna rock 4 - what evil lirks 1992 Everybody In The Place 1 - your love (1) 2 - on love 3 - no good 4 - voodoo people 5 - goa 6 - poison 7 - rat poison 8 - scienide 9 - charly 10 - everybody in the place 11 - your love (2) 12 - g-force 13 - breathe 14 - firest ...

11
фев
2016

The Prodigy - The best of Prodigy [1992-2015, Dubstep, Breakbeat, MP3]

Формат: MP3, tracks, 192-320kbps [VBR]
Год выпуска: 1992-2015
Страна: UK
Жанр: Dubstep, Breakbeat
Продолжительность: 02:10:52
Описание: 1. Android (Remaster-2008) 2. Brainstorm 3. Breathe 4. Climbatize 5. Diesel Power 6. Everybody In The Place (Fairground Edit) 7. Fire (Edit) 8. Firestarter 9. Invanders Must Die 10. Invisible Sun 11. Medusa's Path 12. Mindfields 13. Narayan 14. No Man Army 15. Omen 16. Poison (remastered) 17. Poison 18. Rat poison (remastered) 19. Smack My Bitch Up 20. Spitfire 21. The Day Is My Enemy 22. Their Law (05-Edit) 23. Voodoo People (Original Mix) 24. Voodoo People ...

28
апр
2015

The Prodigy - Their law [1990-2005, Electronic, Breakbeat, DVDRip-AVC]

Формат: DVDRip, MKV, H264, AC3
Песня: Their law
Жанр: Electronic, Breakbeat
Продолжительность: 01:57:51
Год выпуска: 1990-2005
Видео: 720x536p (2.35), 25,000 fps, MPEG4 AVC (x264), High@L4.1 ~1799 Kbps avg, 0.186 bit/pixel
Аудио: 48 kHz, AC3, 2 ch ~ 256 Kbps
Дополнительная информация: Треклист Live: Brixton Academy, 1997 The prodigy their law 01 01. Smack My Bitch Up 02. Voodoo People 03. Voodoo Beats 04. Their Law 05. Funky Shit 06. Breathe 07. Serial Thrilla 08. Mindfields 09. Fuel My Fire 10. Firestarter The prodigy their law 02 01. Firestarter 02. Poison 03. No Good (Start The Dance) 0 ...

24
мар
2012

The Prodigy - Best hits [2011, Techno, Rave, Punk, Breakbeat, MP3]

Формат: MP3, tracks, 320kbps
Год выпуска: 2011
Страна: Great Britain (Великобритания)
Жанр: Techno, Rave, Punk, Breakbeat
Продолжительность: 02:27:27
Описание: Треклист 1. Black Smoke (Original Mix) 2. Breathe (Original Mix) 3. Ckaustrophobic Sting (Original Mix) 4. Climbatize (Original Mix) 5. Colours (Original Mix) 6. Death Of The Prodigy Dancers (Original Mix) 7. Diesel Power (Original Mix) 8. Firestarter (Original Mix) 9. Fuel My Fire (Original Mix) 10. Girls (Original Mix) 11. Invaders Must Die (Original Mix) 12. Jericho (Original Mix) 13. Memphis Bell (Original Mix) 14. No G ...

02
ноя
2018

The Prodigy - No Tourists [2018, Breakbeat, Electronic, MP3]

Формат: MP3, tracks, 320kbps
Год выпуска: 2018
Страна: UK
Жанр: Breakbeat, Electronic
Продолжительность: 00:37:48
Описание: 01. Need Some1 02. Light Up The Sky 03. We Live Forever 04. No Tourists 05. Fight Fire With Fire (Feat. Ho99o9) 06. Timebomb Zone 07. Champions Of London 08. Boom Boom Tap 09. Resonate 10. Give Me A Signal (Feat. Barns Courtney)

06
ноя
2007

Prodigy-Breathe[1995, B.Beat-Techno, TVRip]

Страна: United Kingdom
Год выпуска: 1995
Продолжительность: 04:01
Жанр: B.Beat-Techno
Язык: English
Описание:Мега качественное видео!!! ВОЛОСЫ ДЫБОМ!!!)))
Доп. информация: МАСТ ХЭВ!!!
Формат: M2V
Качество: TVRip
Видео кодек: MPEG2
Аудио кодек: MPEG Audio
Видео: MPEG2 Video 480x576 (4:3) 25.00fps 2500Kbps [Video]
Аудио: MPEG Audio 44100Hz stereo 224Kbps [Mpeg-1]

05
июн
2007

PRODIGY ALL ALBUMS

Страна: England
Жанр: Эйсид Хаус
Продолжительность: 169 Tracks 18 Albums
Формат: MP3
Битрейт аудио: 128 Kbps
Трэклист: 01 Everybody In The Place (1992) 02 Out Of Space (1992) 03 The Prodigy Experience (1992) 04 One Love (1993) 05 Wind It Up (1993) 06 Music For The Jilted Generation (1994) 07 No Good (1994) 08 The Rest The Unreleased (1994) 09 Voodoo People (1994) 10 Poison (1995) 11 Breath (1996) 12 Firestarter (1996) 13 Smack My Bitch Up (1997) 14 The Fat Of The Land (1997) 15 Castbreeder (1998) 16 Babys Got A Tamper (2002) 17 Always Outnumbered, Never Outgu (2004) 18 Maxim - Fallen Angel (20 ...

16
сен
2010

The Prodigy - Take Me To The Hospital (Remixes) [2009, Breakbeat, Drum'n'Bass, Dubstep, MP3]

Формат: MP3, tracks, 320kbps
Год выпуска: 2009
Страна: Великобритания
Жанр: Breakbeat, Drum'n'Bass, Dubstep
Продолжительность: 00:18:11
Описание: 01. Take Me To The Hospital (09 EQ) 02. Take Me To The Hospital (Subfocus Remix) 03. Take Me To The Hospital (Rusko Remix) 04. Take Me To The Hospital (Adam F & Horx Remix) 05. Take Me To The Hospital (Losers Middlesex A & E Remix) 06. Take Me To The Hospital (Josh Homme & Liam H's Wreckage Mix)
Доп. информация: Не забывайте сказать и ставить в профиле "+"

27
дек
2007

THE PRODIGY - THEIR LAW [1990-2005, БРЕК-БИТ, DVDRip]

Исполнитель: THE PRODIGY(THEIR LAW 1990-2005alboms)DVDRIP
Песня: THEIR LAW
Страна: США
Год выпуска: 2005
Продолжительность: 7часов 20мин
Жанр: БРЕК-БИТ
Язык: АНГЛИЙСКИЙ
Описание: КОНЦЕРТЫ В
ЖИВУЮ:SMACK MY BITCHUP,Voodoo People,Poison,и другие.EXTRAS:4 альбома.VIDEOS:,Voodoo People,Poison,Breathe,FirestarteR,SMACK MY BITCHUP,Out Of Space,Wind It Up,Everybody In The Place и другие.BEHIND THE SCENES:4 альбома.
Доп. информация: КОРОЧЕ ОФИГЕННЫЙ АЛЬБОМЧИК!!!!!!!!! :o
Качество: DVDRip
Формат: DVD Video
Видео кодек: XviD
Аудио кодек: AC3
Видео: PAL 4:3 (720x576) VBR
Аудио: English (LinearPCM, 2 ch)И ...

27
фев
2015

Without Walls - Prodigy [2015, Progressive Metal, Djent, MP3]

Формат: MP3, tracks, 320kbps
Год выпуска: 2015
Страна: USA
Жанр: Progressive Metal, Djent
Продолжительность: 00:37:28
Описание: 01. Rebirth (Samsara) (03:19) 02. Failure (Dukka) (03:39) 03. Illusions (Maya) (04:20) 04. Solitude (Kaivalya) (01:41) 05. Desire (Kama) (04:46) 06. New Life (Brahmacharya) (ft. Jaleel Faulk) (04:23) 07. Homeostasis (Manmukh) (04:27) 08. Reality (Avidya) (06:18) 09. Liberation (Moksha) (ft. Al Joseph) (04:30)

22
мар
2009

The Prodigy - The Singles [1998, Electronic]

Формат: MP3, tracks, 128kbps
Год выпуска: 1998
Страна: UK
Жанр: Electronic
Продолжительность: 1:15:35
Описание: Android (5:24) The Time Frequency - Retribution '93 (Live) (The Prodigy Meets Ttf) (4:31) Baby D - Casanova (The Prodigy Pump Action Remix) (4:56) Method Man - Release Yo' Delf (The Prodigy Mix) (5:52) Front 242 - Religion (The Prodigy Bass Under Siege Mix) (4:43) Front 242 - Religion (The Prodigy Trance U Down Mix) (4:50) Art Of Noise - Instruments Of Darkness (The Prodigy Mix) (3:39) Everybody Say Love (5:50) Bug Kann & The Plastic Jam - Made In Two Minutes (The Prodigy) (6:39) Je ...