05
янв
2014

Jonny Jakobsen [Dr. Bombay, Dr.Macdoo, Carlito] - Discography [1998 - 2007, EuroDance , Pop , Dance Pop , Electronic Pop, FLAC]

Jonny Jakobsen - Discography
Формат: FLAC, (image + .cue; tracks+.cue), lossless
Год выпуска: 1998 - 2007
Страна: Sweden
Жанр: EuroDance, Pop, Dance Pop, Electronic Pop
Продолжительность: 04:43:46
Описание: Dr. Bombay
1998 - Calcutta 00

Jonny Jakobsen
01. Calcutta [Original Version]
02. Calcutta [Extended Version]
1998 - Rice & Curry (FLAC; tracks+.cue) 00

Jonny Jakobsen
01. Intro
02. Dr. Boom-Bombay
03. Calcutta [Taxi, Taxi, Taxi]
04. Rice & Curry
05. Safari
06. S.O.S. [The Tiger Took My Family]
07. Holabaloo
08. Shaky Snake
09. Girlie Girlie
10. My Sitar
11. Indy Dancing
12. Outro
1998 - Rice & Curry (Japanese Edition) 00

Jonny Jakobsen
01. Intro
02. Dr.Boom-Bombay
03. Calcutta [Taxi,Taxi,Taxi]
04. Rice & Curry
05. Safari
06. S.O.S. [The Tiger Took My Family]
07. Holabaloo
08. Shaky Snake
09. Girlie Girlie
10. My Sitar
11. Indy Dancing
12. Outro
13. S.O.S. [Extended Ravi-Dance Version]


Dr.Macdoo
2000 - Under The Kilt 00

Jonny Jakobsen
01. Intro
02. Family Macdoo
03. Macahula Dance
04. Loch Ness
05. Under The Kilt
06. Hokey Pokey Man
07. Highland Reggae [From Glasgow To Bombay]
08. Scottish Ghost [Extra Extra]
09. Mayday! Mayday!
10. The Mad Piper
11. Bagpipesong
12. [Grandfather] Macdoo
13. Outro
14. Warrior Song


Carlito
2006 - Fiesta 00

Jonny Jakobsen
01. Carlito [Who's That Boy?]
02. Taco Boy
03. Poco Loco
04. Casa De Carlito
05. El Camino
06. Adios Amigo [My Endless Love]
07. Alarma Caramba! [Somebody Stole My Senorita]
08. I Like It
09. Vacaciones
10. My Salsa
11. Manana
12. Fiesta Night
2006 - Ultimate Collection 01

Jonny Jakobsen
01. Carlito [Who's That Boy?]
02. Taco Boy
03. Poco Loco
04. Casa De Carlito
05. El Camino
06. Adios Amigo [My Endless Love]
07. Alarma Caramba!
08. I Like It
09. Vacaciones
10. My Salsa
11. Manana
12. Fiesta Night
13. Christmas Fiesta
14. Carlito [Who's That Boy?] [Christmas Mix]
15. Carlito [Who's That Boy?] [F. Factory Latin Mix]
16. Carlito [Who's That Boy?] [F. Factory Trance Mix]
17. Carlito [Who's That Boy?] [Eurobeat Mix]
18. Carlito [Who's That Boy?] ["HBS" Mix]
19. Carlito [Who's That Boy?] [Myxx-Up Future Latin Mix]
20. Carlito [Who's That Boy?] [Karaoke Version]
2007 - World Wild 00

Jonny Jakobsen
01. Russkij Pusskij
02. Sukiyaki Teriyaki
03. Be my Pharaoh
04. Americo
05. Africa
06. All Around The World
07. Bolero
08. Jamaica
09. Crazy Carlito
10. Final Call
11. Holiday
12. Backpack Girl
13. Samba De Janerio
14. Home Sweet Home



Доп. информация: Jonny Jakobsen (род. 17 ноября 1963. Malmö, Швеция), шведский певец в стиле eurodance, известный по образу как индийский таксист доктор Бомбей



Отчёты
Dr. Bombay
1998 - Calcutta

Exact Audio Copy V1.0 beta 3 from 29. August 2011

Отчёт EAC об извлечении, выполненном 6. апреля 2012, 8:39

Dr. Bombay / Calcutta (CDS)

Дисковод: LITE-ON DVDRW SHM-165P6S Adapter: 0 ID: 0

Режим чтения : Достоверность
Использование точного потока : Да
Отключение кэша аудио : Да
Использование указателей C2 : Нет

Коррекция смещения при чтении : 6
Способность читать области Lead-in и Lead-out : Нет
Заполнение пропущенных сэмплов тишиной : Да
Удаление блоков с тишиной в начале и конце : Нет
При вычислениях CRC использовались нулевые сэмплы : Да
Интерфейс : Встроенный Win32-интерфейс для Win NT/2000

Выходной формат : Пользовательский кодировщик
Выбранный битрейт : 896 kBit/s
Качество : Высокий
Добавление ID3-тега : Нет
Утилита сжатия : C:Program FilesExact Audio CopyFlacflac.exe
Дополнительные параметры : -V -8 -T "Date=%year%" -T "Genre=%genre%" %source%

TOC извлечённого CD

Трек | Старт | Длительность | Начальный сектор | Конечный сектор
---------------------------------------------------------------------
1 | 0:00.00 | 3:21.12 | 0 | 15086
2 | 3:21.12 | 4:15.33 | 15087 | 34244

Характеристики диапазона извлечения и сообщения об ошибках

Выбранный диапазон

Имя файла E:2222222222NEWDr. Bombay - Calcutta (CDS) (1998) (lossless-DENnv)Dr. Bombay - Calcutta (CDS).wav

Пиковый уровень 99.9 %
Скорость извлечения 2.3 X
Качество диапазона 100.0 %
CRC теста 4C22626F
CRC копии 4C22626F
Копирование... OK

Ошибок не произошло

AccurateRip: сводка

Трек 1 : извлечено точно (доверие 3) [606F192A] (AR v1)
Трек 2 : извлечено точно (доверие 3) [C5489C01] (AR v1)

Все треки извлечены точно

Конец отчёта

==== Контрольная сумма отчёта D83F62413BD8553A7022F6D45CDC0F4FDD100853B3A58E66B3396801E2FB7957 ====
1998 - Rice & Curry

Exact Audio Copy V0.99 prebeta 4 from 23. January 2008

EAC extraction logfile from 18. August 2009, 20:54

Dr. Bombay / Rice & Curry

Used drive : PLEXTOR DVDR PX-716A Adapter: 0 ID: 0

Read mode : Secure
Utilize accurate stream : Yes
Defeat audio cache : Yes
Make use of C2 pointers : No

Read offset correction : 30
Overread into Lead-In and Lead-Out : No
Fill up missing offset samples with silence : Yes
Delete leading and trailing silent blocks : No
Null samples used in CRC calculations : Yes
Used interface : Installed external ASPI interface
Gap handling : Appended to previous track

Used output format : User Defined Encoder
Selected bitrate : 320 kBit/s
Quality : High
Add ID3 tag : No
Command line compressor : C:Documents and SettingsВячеславРабочий столflac-1.2.1-winbinflac.exe
Additional command line options : -8 -V -T "ARTIST=%a" -T "TITLE=%t" -T "ALBUM=%g" -T "DATE=%y" -T "TRACKNUMBER=%n" -T "GENRE=%m" -T "COMMENT=EAC FLAC -8" %s

TOC of the extracted CD

Track | Start | Length | Start sector | End sector
---------------------------------------------------------
1 | 0:00.00 | 0:38.02 | 0 | 2851
2 | 0:38.02 | 3:22.08 | 2852 | 18009
3 | 4:00.10 | 3:19.45 | 18010 | 32979
4 | 7:19.55 | 3:13.07 | 32980 | 47461
5 | 10:32.62 | 3:23.38 | 47462 | 62724
6 | 13:56.25 | 3:26.12 | 62725 | 78186
7 | 17:22.37 | 3:04.30 | 78187 | 92016
8 | 20:26.67 | 3:03.28 | 92017 | 105769
9 | 23:30.20 | 3:10.25 | 105770 | 120044
10 | 26:40.45 | 3:04.17 | 120045 | 133861
11 | 29:44.62 | 3:18.15 | 133862 | 148726
12 | 33:03.02 | 2:11.15 | 148727 | 158566

Track 1

Filename L:МузыкаDr. BombayRice & Curry1. Dr. Bombay – Intro.wav

Pre-gap length 0:00:02.00

Peak level 92.8 %
Track quality 100.0 %
Test CRC 2F1575B2
Copy CRC 2F1575B2
Accurately ripped (confidence 16)
Copy OK

Track 2

Filename L:МузыкаDr. BombayRice & Curry2. Dr. Bombay – Dr. Boom-Bombay.wav

Peak level 96.6 %
Track quality 100.0 %
Test CRC F26B36F8
Copy CRC F26B36F8
Accurately ripped (confidence 16) [FEDC3A7B]
Copy OK

Track 3

Filename L:МузыкаDr. BombayRice & Curry3. Dr. Bombay – Calcutta (Taxi, Taxi, Taxi).wav

Peak level 97.2 %
Track quality 100.0 %
Test CRC A514AC4D
Copy CRC A514AC4D
Accurately ripped (confidence 16) [49DCC9EE]
Copy OK

Track 4

Filename L:МузыкаDr. BombayRice & Curry4. Dr. Bombay – Rice & Curry.wav

Peak level 96.7 %
Track quality 100.0 %
Test CRC F58DC7F3
Copy CRC F58DC7F3
Accurately ripped (confidence 15) [AA3949AB]
Copy OK

Track 5

Filename L:МузыкаDr. BombayRice & Curry5. Dr. Bombay – Safari.wav

Peak level 96.6 %
Track quality 100.0 %
Test CRC 4E2D5D96
Copy CRC 4E2D5D96
Accurately ripped (confidence 16)
Copy OK

Track 6

Filename L:МузыкаDr. BombayRice & Curry6. Dr. Bombay – S.O.S. (The Tiger Took My Family).wav

Peak level 96.6 %
Track quality 100.0 %
Test CRC 26B95401
Copy CRC 26B95401
Accurately ripped (confidence 15) [5C5F28AE]
Copy OK

Track 7

Filename L:МузыкаDr. BombayRice & Curry7. Dr. Bombay – Holabaloo.wav

Peak level 96.9 %
Track quality 100.0 %
Test CRC C20FEEA4
Copy CRC C20FEEA4
Accurately ripped (confidence 16) [94C5E653]
Copy OK

Track 8

Filename L:МузыкаDr. BombayRice & Curry8. Dr. Bombay – Shaky Snake.wav

Peak level 96.9 %
Track quality 100.0 %
Test CRC E408DC78
Copy CRC E408DC78
Accurately ripped (confidence 16) [F7FAFF1A]
Copy OK

Track 9

Filename L:МузыкаDr. BombayRice & Curry9. Dr. Bombay – Girlie Girlie.wav

Peak level 97.2 %
Track quality 100.0 %
Test CRC 7878C255
Copy CRC 7878C255
Accurately ripped (confidence 16) [45DFA075]
Copy OK

Track 10

Filename L:МузыкаDr. BombayRice & Curry10. Dr. Bombay – My Sitar.wav

Peak level 95.6 %
Track quality 100.0 %
Test CRC 561EB55D
Copy CRC 561EB55D
Accurately ripped (confidence 16)
Copy OK

Track 11

Filename L:МузыкаDr. BombayRice & Curry11. Dr. Bombay – Indy Dancing.wav

Peak level 95.6 %
Track quality 100.0 %
Test CRC 17B92077
Copy CRC 17B92077
Accurately ripped (confidence 15) [14AB6C86]
Copy OK

Track 12

Filename L:МузыкаDr. BombayRice & Curry12. Dr. Bombay – Outro.wav

Peak level 94.4 %
Track quality 99.9 %
Test CRC 6FFF2CEC
Copy CRC 6FFF2CEC
Accurately ripped (confidence 15) [A89B46F8]
Copy OK

All tracks accurately ripped

No errors occurred

End of status report

1998 - Rice & Curry (Japanese Edition)

Exact Audio Copy V1.0 beta 3 from 29. August 2011

EAC extraction logfile from 5. September 2013, 15:56

Dr.Bombay / Rice & Curry

Used drive : ASUS DRW-20B1ST Adapter: 2 ID: 0

Read mode : Secure
Utilize accurate stream : Yes
Defeat audio cache : Yes
Make use of C2 pointers : No

Read offset correction : 6
Overread into Lead-In and Lead-Out : No
Fill up missing offset samples with silence : Yes
Delete leading and trailing silent blocks : No
Null samples used in CRC calculations : Yes
Used interface : Native Win32 interface for Win NT & 2000

Used output format : User Defined Encoder
Selected bitrate : 1024 kBit/s
Quality : High
Add ID3 tag : No
Command line compressor : C:Program FilesExact Audio CopyFlacflac.exe
Additional command line options : -V -8 -T "Date=%year%" -T "Genre=%genre%" -T "Comment=Rip made RoxMan, Enjoy!" %source%

TOC of the extracted CD

Track | Start | Length | Start sector | End sector
---------------------------------------------------------
1 | 0:00.00 | 0:37.57 | 0 | 2831
2 | 0:37.57 | 3:22.15 | 2832 | 17996
3 | 3:59.72 | 3:19.45 | 17997 | 32966
4 | 7:19.42 | 3:13.08 | 32967 | 47449
5 | 10:32.50 | 3:23.25 | 47450 | 62699
6 | 13:56.00 | 3:26.15 | 62700 | 78164
7 | 17:22.15 | 3:04.27 | 78165 | 91991
8 | 20:26.42 | 3:03.25 | 91992 | 105741
9 | 23:29.67 | 3:10.23 | 105742 | 120014
10 | 26:40.15 | 3:04.22 | 120015 | 133836
11 | 29:44.37 | 3:18.13 | 133837 | 148699
12 | 33:02.50 | 2:12.45 | 148700 | 158644
13 | 35:15.20 | 4:42.12 | 158645 | 179806

Range status and errors

Selected range

Filename D:Dr.Bombay - Rice & Curry.wav

Peak level 99.9 %
Extraction speed 6.7 X
Range quality 100.0 %
Test CRC 3633D5D6
Copy CRC 3633D5D6
Copy OK

No errors occurred

AccurateRip summary

Track 1 accurately ripped (confidence 3) [C3D974F0] (AR v1)
Track 2 accurately ripped (confidence 3) [595F144D] (AR v1)
Track 3 accurately ripped (confidence 3) [38655BE5] (AR v1)
Track 4 accurately ripped (confidence 3) [EEEEB8F6] (AR v1)
Track 5 accurately ripped (confidence 3) [7B54F43A] (AR v1)
Track 6 accurately ripped (confidence 3) [4D708324] (AR v1)
Track 7 accurately ripped (confidence 3) [486C5634] (AR v1)
Track 8 accurately ripped (confidence 3) [E173F5F7] (AR v1)
Track 9 accurately ripped (confidence 3) [6171F1BE] (AR v1)
Track 10 accurately ripped (confidence 3) [DE4A5560] (AR v1)
Track 11 accurately ripped (confidence 3) [7184B6FB] (AR v1)
Track 12 accurately ripped (confidence 3) [14E54EBD] (AR v1)
Track 13 accurately ripped (confidence 3) [6E31BDE8] (AR v1)

All tracks accurately ripped

End of status report

==== Log checksum F5AEFF5B60F1682D9A2995BCFD21487E2509093516014056DCB3D5E0E067AF30 ====


Dr.Macdoo
2000 - Under The Kilt

Exact Audio Copy V1.0 beta 3 from 29. August 2011

EAC extraction logfile from 5. September 2013, 16:22

Dr.Macdoo / Under The Kilt

Used drive : ASUS DRW-20B1ST Adapter: 2 ID: 0

Read mode : Secure
Utilize accurate stream : Yes
Defeat audio cache : Yes
Make use of C2 pointers : No

Read offset correction : 6
Overread into Lead-In and Lead-Out : No
Fill up missing offset samples with silence : Yes
Delete leading and trailing silent blocks : No
Null samples used in CRC calculations : Yes
Used interface : Native Win32 interface for Win NT & 2000

Used output format : User Defined Encoder
Selected bitrate : 1024 kBit/s
Quality : High
Add ID3 tag : No
Command line compressor : C:Program FilesExact Audio CopyFlacflac.exe
Additional command line options : -V -8 -T "Date=%year%" -T "Genre=%genre%" -T "Comment=Rip made RoxMan, Enjoy!" %source%

TOC of the extracted CD

Track | Start | Length | Start sector | End sector
---------------------------------------------------------
1 | 0:00.00 | 0:36.50 | 0 | 2749
2 | 0:36.50 | 3:12.10 | 2750 | 17159
3 | 3:48.60 | 3:04.35 | 17160 | 30994
4 | 6:53.20 | 3:13.05 | 30995 | 45474
5 | 10:06.25 | 3:13.65 | 45475 | 60014
6 | 13:20.15 | 3:06.05 | 60015 | 73969
7 | 16:26.20 | 3:27.67 | 73970 | 89561
8 | 19:54.12 | 3:02.63 | 89562 | 103274
9 | 22:57.00 | 3:13.37 | 103275 | 117786
10 | 26:10.37 | 3:19.40 | 117787 | 132751
11 | 29:30.02 | 2:58.30 | 132752 | 146131
12 | 32:28.32 | 3:07.28 | 146132 | 160184
13 | 35:35.60 | 1:36.35 | 160185 | 167419
14 | 37:12.20 | 2:56.17 | 167420 | 180636
15 | 42:40.37 | 13:06.44 | 192037 | 251030

Range status and errors

Selected range

Filename D:Dr.Macdoo - Under The Kilt.wav

Peak level 98.8 %
Extraction speed 6.6 X
Range quality 100.0 %
Test CRC 10E80249
Copy CRC 10E80249
Copy OK

No errors occurred

AccurateRip summary

Track 1 not present in database
Track 2 not present in database
Track 3 not present in database
Track 4 not present in database
Track 5 not present in database
Track 6 not present in database
Track 7 not present in database
Track 8 not present in database
Track 9 not present in database
Track 10 not present in database
Track 11 not present in database
Track 12 not present in database
Track 13 not present in database
Track 14 not present in database

None of the tracks are present in the AccurateRip database

End of status report

==== Log checksum 0DCFF97F6A9BAA1525B2760C57337DC3283FCAD3F4E9732A14CD3BEE1DBFD890 ====


Carlito
2006 - Fiesta

Exact Audio Copy V1.0 beta 3 from 29. August 2011

EAC extraction logfile from 5. September 2013, 17:04

Carlito / Fiesta

Used drive : ASUS DRW-20B1ST Adapter: 2 ID: 0

Read mode : Secure
Utilize accurate stream : Yes
Defeat audio cache : Yes
Make use of C2 pointers : No

Read offset correction : 6
Overread into Lead-In and Lead-Out : No
Fill up missing offset samples with silence : Yes
Delete leading and trailing silent blocks : No
Null samples used in CRC calculations : Yes
Used interface : Native Win32 interface for Win NT & 2000

Used output format : User Defined Encoder
Selected bitrate : 1024 kBit/s
Quality : High
Add ID3 tag : No
Command line compressor : C:Program FilesExact Audio CopyFlacflac.exe
Additional command line options : -V -8 -T "Date=%year%" -T "Genre=%genre%" -T "Comment=Rip made RoxMan, Enjoy!" %source%

TOC of the extracted CD

Track | Start | Length | Start sector | End sector
---------------------------------------------------------
1 | 0:00.00 | 3:16.40 | 0 | 14739
2 | 3:16.40 | 3:05.45 | 14740 | 28659
3 | 6:22.10 | 3:22.10 | 28660 | 43819
4 | 9:44.20 | 3:36.10 | 43820 | 60029
5 | 13:20.30 | 3:51.15 | 60030 | 77369
6 | 17:11.45 | 3:24.45 | 77370 | 92714
7 | 20:36.15 | 3:07.50 | 92715 | 106789
8 | 23:43.65 | 3:06.50 | 106790 | 120789
9 | 26:50.40 | 3:25.70 | 120790 | 136234
10 | 30:16.35 | 3:04.00 | 136235 | 150034
11 | 33:20.35 | 2:53.40 | 150035 | 163049
12 | 36:14.00 | 3:04.60 | 163050 | 176909

Range status and errors

Selected range

Filename D:Carlito - Fiesta.wav

Peak level 98.9 %
Extraction speed 7.2 X
Range quality 100.0 %
Test CRC D34919C0
Copy CRC D34919C0
Copy OK

No errors occurred

AccurateRip summary

Track 1 accurately ripped (confidence 3) [EECB90D1] (AR v2)
Track 2 accurately ripped (confidence 3) [60C1482E] (AR v2)
Track 3 accurately ripped (confidence 3) [C8F1FEEA] (AR v2)
Track 4 accurately ripped (confidence 3) [6BFF3542] (AR v2)
Track 5 accurately ripped (confidence 3) [93A5E444] (AR v2)
Track 6 accurately ripped (confidence 3) [C104155C] (AR v2)
Track 7 accurately ripped (confidence 3) [1B4299B5] (AR v2)
Track 8 accurately ripped (confidence 3) [8227F384] (AR v2)
Track 9 accurately ripped (confidence 3) [7EAC7861] (AR v2)
Track 10 accurately ripped (confidence 3) [56C3A1EF] (AR v2)
Track 11 accurately ripped (confidence 3) [D602A2CB] (AR v2)
Track 12 accurately ripped (confidence 3) [2C8EE195] (AR v2)

All tracks accurately ripped

End of status report

==== Log checksum 696C62BB990DF9184565BADA4233B8D98B0A9F57609249572AFE9B94F1929B95 ====
2006 - Ultimate Collection

Exact Audio Copy V0.99 prebeta 5 from 4. May 2009

EAC extraction logfile from 16. September 2010, 19:13

Carlito / Ultimate Collection

Used drive : SlimtypeDVD A DS8A3S Adapter: 1 ID: 0

Read mode : Secure
Utilize accurate stream : Yes
Defeat audio cache : Yes
Make use of C2 pointers : No

Read offset correction : 6
Overread into Lead-In and Lead-Out : No
Fill up missing offset samples with silence : Yes
Delete leading and trailing silent blocks : No
Null samples used in CRC calculations : Yes
Used interface : Native Win32 interface for Win NT & 2000

Used output format : User Defined Encoder
Selected bitrate : 192 kBit/s
Quality : High
Add ID3 tag : No
Command line compressor : C:Program FilesExact Audio CopyFlacflac.exe
Additional command line options : -8 -V -T "ARTIST=%a" -T "TITLE=%t" -T "ALBUM=%g" -T "DATE=%y" -T "TRACKNUMBER=%n" -T "GENRE=%m" -T "COMMENT=EAC FLAC -8" %s

TOC of the extracted CD

Track | Start | Length | Start sector | End sector
---------------------------------------------------------
1 | 0:00.00 | 3:16.70 | 0 | 14769
2 | 3:16.70 | 3:05.50 | 14770 | 28694
3 | 6:22.45 | 3:22.11 | 28695 | 43855
4 | 9:44.56 | 3:35.62 | 43856 | 60042
5 | 13:20.43 | 3:51.14 | 60043 | 77381
6 | 17:11.57 | 3:24.62 | 77382 | 92743
7 | 20:36.44 | 3:07.43 | 92744 | 106811
8 | 23:44.12 | 3:06.45 | 106812 | 120806
9 | 26:50.57 | 3:25.48 | 120807 | 136229
10 | 30:16.30 | 3:04.20 | 136230 | 150049
11 | 33:20.50 | 2:53.38 | 150050 | 163062
12 | 36:14.13 | 3:05.28 | 163063 | 176965
13 | 39:19.41 | 3:35.16 | 176966 | 193106
14 | 42:54.57 | 3:18.01 | 193107 | 207957
15 | 46:12.58 | 7:19.08 | 207958 | 240890
16 | 53:31.66 | 6:50.67 | 240891 | 271707
17 | 60:22.58 | 4:28.30 | 271708 | 291837
18 | 64:51.13 | 4:09.29 | 291838 | 310541
19 | 69:00.42 | 4:03.31 | 310542 | 328797
20 | 73:03.73 | 3:18.08 | 328798 | 343655

Range status and errors

Selected range

Filename C:!!!Carlito - Ultimate Collection.wav

Peak level 100.0 %
Range quality 100.0 %
Test CRC DC3DF9C2
Copy CRC DC3DF9C2
Copy OK

No errors occurred

AccurateRip summary

Track 1 not present in database
Track 2 not present in database
Track 3 not present in database
Track 4 not present in database
Track 5 not present in database
Track 6 not present in database
Track 7 not present in database
Track 8 not present in database
Track 9 not present in database
Track 10 not present in database
Track 11 not present in database
Track 12 not present in database
Track 13 not present in database
Track 14 not present in database
Track 15 not present in database
Track 16 not present in database
Track 17 not present in database
Track 18 not present in database
Track 19 not present in database
Track 20 not present in database

None of the tracks are present in the AccurateRip database

2007 - World Wild

Exact Audio Copy V0.99 prebeta 5 from 4. May 2009

EAC extraction logfile from 16. September 2010, 18:32

Carlito / World Wild

Used drive : SlimtypeDVD A DS8A3S Adapter: 1 ID: 0

Read mode : Secure
Utilize accurate stream : Yes
Defeat audio cache : Yes
Make use of C2 pointers : No

Read offset correction : 6
Overread into Lead-In and Lead-Out : No
Fill up missing offset samples with silence : Yes
Delete leading and trailing silent blocks : No
Null samples used in CRC calculations : Yes
Used interface : Native Win32 interface for Win NT & 2000

Used output format : User Defined Encoder
Selected bitrate : 192 kBit/s
Quality : High
Add ID3 tag : No
Command line compressor : C:Program FilesExact Audio CopyFlacflac.exe
Additional command line options : -8 -V -T "ARTIST=%a" -T "TITLE=%t" -T "ALBUM=%g" -T "DATE=%y" -T "TRACKNUMBER=%n" -T "GENRE=%m" -T "COMMENT=EAC FLAC -8" %s

TOC of the extracted CD

Track | Start | Length | Start sector | End sector
---------------------------------------------------------
1 | 0:00.00 | 3:05.26 | 0 | 13900
2 | 3:05.26 | 3:05.24 | 13901 | 27799
3 | 6:10.50 | 2:58.18 | 27800 | 41167
4 | 9:08.68 | 3:28.28 | 41168 | 56795
5 | 12:37.21 | 3:25.63 | 56796 | 72233
6 | 16:03.09 | 3:36.23 | 72234 | 88456
7 | 19:39.32 | 3:11.46 | 88457 | 102827
8 | 22:51.03 | 3:35.22 | 102828 | 118974
9 | 26:26.25 | 2:55.74 | 118975 | 132173
10 | 29:22.24 | 2:54.06 | 132174 | 145229
11 | 32:16.30 | 3:33.17 | 145230 | 161221
12 | 35:49.47 | 3:27.05 | 161222 | 176751
13 | 39:16.52 | 3:12.20 | 176752 | 191171
14 | 42:28.72 | 2:39.63 | 191172 | 203159

Range status and errors

Selected range

Filename C:!!!Carlito - World Wild.wav

Peak level 98.8 %
Range quality 99.9 %
Test CRC F6A523AB
Copy CRC F6A523AB
Copy OK

No errors occurred

AccurateRip summary

Track 1 accurately ripped (confidence 1) [49AEBC27]
Track 2 accurately ripped (confidence 1) [5DBE1682]
Track 3 accurately ripped (confidence 1) [D8C141DE]
Track 4 accurately ripped (confidence 1) [6FFB7819]
Track 5 accurately ripped (confidence 1) [40393072]
Track 6 accurately ripped (confidence 1) [AE971E9E]
Track 7 accurately ripped (confidence 1) [4F131E4C]
Track 8 accurately ripped (confidence 1) [08790756]
Track 9 accurately ripped (confidence 1) [A8DBD273]
Track 10 accurately ripped (confidence 1) [3F8DBADC]
Track 11 accurately ripped (confidence 1) [0C8642B3]
Track 12 accurately ripped (confidence 1) [CCAECFF5]
Track 13 accurately ripped (confidence 1) [7FF6DC8B]
Track 14 accurately ripped (confidence 1) [C11008D9]

All tracks accurately ripped

End of status report


30
янв
2014

Jonny Jakobsen [Dr.Bombay, Dr.MacDoo, Carlito] - Discography [1998 - 2007, EuroDance , Pop , Dance Pop , Electronic Pop , Comedy Pop , Bubblegum, MP3]

Формат: MP3, tracks, 180-320kbps [VBR]
Год выпуска: 1998 - 2007
Страна: Sweden
Жанр: EuroDance, Pop, Dance Pop, Electronic Pop, Comedy Pop, Bubblegum
Продолжительность: 05:53:45
Описание: Dr. Bombay 1998 - Calcutta 00 01. Calcutta [Original Version] 02. Calcutta [Extended Version]1998 - Calcutta (Maxi-Single) 00 01. Calcutta [Original Version] 02. Calcutta [Extended Version] 03. Calcutta [Karaokee Version] 04. Calcutta [Alternative Mix]1998 - Rice & Curry 00 01. Intro 02. Dr. Boom-Bombay 03. Calcutta [Taxi, Taxi, Taxi] 04. Rice & Curry 05. Safari 06. S.O.S. [The Tiger Took My Family] 07. Ho ...

22
фев
2018

Jonny Fritz - Sweet Creep [24 bit 44,1 khz] [2016, Country, Folk, FLAC]

Формат: FLAC, tracks, lossless
Год выпуска: 2016
Страна: USA
Жанр: Country, Folk
Продолжительность: 00:30:34
Описание: 01. Are You Thirsty 02. Happy In Hindsight 03. I Love Leaving 04. Cries After Making Love 05. Forever Whatever 06. Stone Cold Daddy-O 07. Fifteen Passenger Van 08. Stadium Inn 09. Humidifier 10. Chilidog Morning 11. Chihauhau Rescue
Доп. информация: https://en.wikipedia.org/wiki/Jonny_Fritz http://www.jonnyfritz.com Log foobar2000 1.1.10 / Dynamic Range Meter 1.1.1 log date: 2018-02-22 09:55:59 ------------------------------------------------------------------------------ ...

14
авг
2010

Jonny Lang - Live At The Ryman [2010, Blues-Rock, FLAC]

Формат: FLAC, (image + .cue), lossless
Год выпуска: 2010
Страна: USA
Жанр: Blues-Rock
Продолжительность: 01:07:06
Описание:
Трэклист: 01. One Person at a Time (Lang, Ramsey, Sanders) 04:01 02. Bump in the Road (Lang, Ramsey, Sanders) 03:49 03. Turn Around (Lang, Pearce, Pierce, Ramsey) 05:28 04. Give Me Up Again (Frederiksen, Lang) 04:00 05. A Quitter Never Wins (Ellis, Sampson) 06:55 06. Red Light (Band Intros) (Hamilton) 01:43 07. Red Light (Colapietro, Dinkins ...) 10:15 08. Don't Stop (For Anything) (Lang, Ramsey, Sanders) 05:56 09. Thankful (Lang, Ramsey, Sanders) 04:03 10. I Am (David ...

25
мар
2010

VA - Best: Aerosmith & Jonny Lang [2010, Rock & Blus, MP3]

Формат: MP3, tracks, 128-320kbps [VBR]
Год выпуска: 2010
Страна: Pоссия
Жанр: Rock & Blus
Продолжительность: 01:50:00
Описание: Aerosmith 1 Dams Apple (4:32) 2 Eat the Rich (4:!10) 3 Last Child (3:26) 4 Somebody (3:43) 5 Blind Man (4:00) 6 Draw the Line (3:43) 7 Walk This Way (3:38 ) 8 Livin on the Edge (6:06) 9 Deuces Are Wild (3:35) 10 Dude Looks Like a Lady (4:25) 11 Angel (5:08 ) 12 Cryin (5:07) 13 What It Takes (6:29) 14 Crazy (5:16) 15 Amazing (5:55) Jonny Lang 1 E train (4:11) 2 I Love you the Best(4:04) 3 Its Obdacious (3:18 ) 4 Lie To Me (4:11) 5 Louise (4:24) 6 Lovin My Baby (4:03 ...

30
апр
2013

Rittz - Life And Times Of Jonny Valiant [2013, Rap, Hip-Hop, MP3]

Формат: MP3, tracks, 320kbps
Год выпуска: 2013
Страна: USA
Жанр: Rap, Hip-Hop
Продолжительность: 00:59:44
Описание: 01. Intro 02. My Interview 03. Like I Am 04. F**k Swag 05. Wastin Time (feat. Big K.R.I.T.) 06. Goin In 07. Always Gon Be (feat. Mike Posner) 08. My Clothes (Interlude) 09. Amen 10. For Real 11. Sober (feat. Suga Free) 12. Say No More (feat. Tech N9Ne and Krizz Kaliko) 13. Switch Lanes (feat. Mike Posner) 14. Misery Loves Company 15. Heaven (feat. Yelawolf) 16. All Around the World

13
июн
2013

Above Beyond - Discography [2001-2012, Trance, MP3]

Формат: MP3, image + .cue + tracks, 160-320kbps [VBR]
Год выпуска: 2001-2012
Страна: All World
Жанр: Trance
Продолжительность: 96:37:52
Описание: Above & Beyond Albums (320kbps) (062006 - Above & Beyond - Tri-State - (ANJCD004) - (01 01. Tri-State 02. Stealing Time 03. World On Fire 04. Air For Life (with Andy Moor) 05. Can't Sleep 06. Hope 07. Liquid Love 08. In The Past 09. Alone Tonight 10. Good For Me 11. For All I Care 12. Indonesia 13. Home2007 - Above & Beyond - Tri-State Remixed - (ANJDCO-006) - (320 kbps) (01 01. Tri-State (Robert Nickson Intro Remix) (05:15) 02. Stealing Time (Above ...

10
сен
2012

The Who - Discography [1965 - 2010, Rock, MP3]

Формат: MP3, tracks, 320kbps
Год выпуска: 1965 - 2010
Страна: England
Жанр: Rock
Продолжительность: 82:20:57
Описание: Студийные альбомы1965 - My Generation (2 CD Deluxe Edition) 01Disc 1 (Full Original LP Version + Bonus Tracks) 01. Out In The Street 02. I Don't Mind 03. The Good's Gone 04. La La La Lies 05. Much Too Much 06. My Generation 07. The Kids Are Alright 08. Please, Please, Please 09. It's Not True 10. I'm A Man 11. A Legal Matter 12. The Ox 13. Circles Bonus Tracks: 14. I Can't Explain 15. Bald Headed Woman 16. Daddy Rolling Stone Disc 2 (Bonus Tracks) 01. Leaving Here 02. Lubi ...

17
июн
2013

HIM Discography [1996 2013, Love Metal,Gothic Metal, MP3]

Формат: MP3, tracks, 320kbps
Год выпуска: 1996 – 2013
Страна: Finland
Жанр: Love Metal, Gothic Metal
Продолжительность: 29:59:24
Описание: Studio Alsums 1997 - Greatest Lovesongs Vol. 666 00 1. For You (Intro) (4:00) 2. Your Sweet Six Six Six (4:11) 3. Wicked Game (3:54) 4. The Heartless (4:02) 5. Our Diabolikal Rapture (5:20) 6. It's All Tears (Drown In This Love) (3:43) 7. When Love And Death Embrace (6:08) 8. The Beginning Of The End (4:07) 9. (Don't Fear) The Reaper (6:30) 10. Hidden Track (7:51) 2000 - Razorblade Romance 00 1. I love you (prelude to tragedy) (3:10) 2. Poison girl (3 ...

25
июн
2013

Yes Discography [1969 2013, Progressive Rock, Art Rock, MP3]

Формат: MP3, tracks, 320kbps
Год выпуска: 1969 – 2013
Страна: UK
Жанр: Progressive Rock, Art Rock
Продолжительность: 108:24:50
Описание: Studio Albums 1969 - Yes 01 1. Beyond And Before (4:55) 2. I See You (6:52) 3. Yesterday And Today (2:51) 4. Looking Around (4:19) 5. Harold Land (5:46) 6. Every Little Thing (5:46) 7. Sweetness (4:35) 8. Survival (6:22) 9. Everydays (Single Version) (6:23) 10. Dear Father (Early Version #2) (5:51) 11. Something's Coming (7:09) 12. Everydays (Early Version #1) (5:18) 13. Dear Father (Early Version #1) (5:31) 14. Something's Coming (Early Version) (8:02) ...

13
апр
2016

Me My - Discography [1995 - 2007, Pop, Eurodance, Electronic, MP3]

Формат: MP3, tracks, 160 - 320 kbps
Год выпуска: 1995 - 2007
Страна: Дания
Жанр: Pop, Eurodance, Electronic
Продолжительность: 06:33:16
Описание: 1995 Baby Boy (Single) 00 01 Baby Boy (Radio Version) 02 Baby Boy (Flex Club Mix) 03 Baby Boy (Dub Combo Version) 04 Baby Boy (Rythmicity Version) 1995 Me & My 00 01 Baby Boy 02 Lion Eddie 03 I Belong To You 04 Waiting 05 Magic Love 06 Dub-I-Dub 07 So Many Times 08 Close 09 Show Your Love 10 Show Me 11 You & I 1996 Dub-I-Dub (Maxi-Single) 00 01 Dub-I-Dub (Diddy's Radiant Radio Mix) 02 Dub-I-Dub (Diddy's Indian Summer Mix) 03 Dub-I-Dub (Club Remix ...

29
фев
2012

Slade - Discography [1969 - 2011, Glam Rock, Hard Rock , Classic Rock, MP3]

Формат: MP3, tracks, 320kbps
Год выпуска: 1969 - 2011
Страна: Great Britain
Жанр: Glam Rock, Hard Rock, Classic Rock
Продолжительность: 91:03:20
Описание: Original Edition / Оригинальные Издания 1969 - Beginnings (Ambrose Slade pre-Slade) 00 01 - Genesis 02 - Everybody's Next One 03 - Knocking Nails Into My House 04 - Roach Daddy 05 - Ain't Got No Heart 06 - Pity The Mother 07 - Mad Dog Cole 08 - Fly Me High 09 - If This World Were Mine 10 - Martha, My Dear 11 - Born To Be Wild 12 - Journey To The Centre Of Your Mind 1970 - Play It Loud 00 01 - Raven 02 - See Us Here 03 - Dapple Rose 04 - ...

24
июн
2011

Mika - Discography [2007-2009, Pop, MP3]

Формат: MP3, tracks, 192-320kbps
Год выпуска: 2007-2009
Страна: USA, UK
Жанр: Pop
Продолжительность: 05:51:41
Описание: 2007 - Life In Cartoon Motion US Best Buy Edition 320kbps 00 01. Grace Kelly[03:07] 02. Lollipop[03:03] 03. My Interpretation[03:35] 04. Love Today[03:55] 05. Relax (Take It Easy)[04:30] 06. Ring Ring[02:48] 07. Any Other World[04:19] 08. Billy Brown[03:14] 09. Big Girl (You Are Beautiful)[04:08] 10. Stuck in the middle[04:08] 11. Erase[03:38] 12. Happy Ending[10:21] 13. Love Today (Acoustic)[02:58] 14. Satellite (Acoustic)[04:13] 2009 - The Boy Who Knew Too Much UK Deluxe ...

12
июн
2010

Bananarama - Discography [1983-2009, PopMusic, MP3]

Формат: MP3, tracks, 192-320kbps [VBR]
Год выпуска: 1983-2009
Страна: Великобритания
Жанр: PopMusic
Продолжительность: 11:36:18
Описание: Deep Sea Skiving 1983 00 01. Shy Boy 02. Doctor Love 03. What A Shambles 04. Really Saying Something 05. Cheers Then 06. Aie A Mwana 07. Young At Heart 08. Na Na Hey Hey Kiss Him Goodbye 09. Hey Young London 10. Boy Trouble 11. Wish You Were Here Deep Sea Skiving Bonus Tracks 1983 00 01. Give Us Back Our Cheap Fares 02. Girl About Town 03. He's Got Tact 04. Tell Tale Signs 05. No Feelings Cruel Summer Cruel Summer - Single 1983 00 01. Cruel Summer 02. Summer ...

21
мар
2012

Domain - Discography [1988-2009, Hard Rock , Heavy Metal , Power Metal FLAC]

Формат: FLAC, (image + .cue), lossless
Год выпуска: 1988 - 2009
Страна: Germany
Жанр: Hard Rock, Heavy Metal, Power Metal
Продолжительность: 05:54:47
Описание:
Трэклист: (1988).Our Kingdom 0001. Lost In The City [0:05:11.60] 02. The Run [0:03:03.40] 03. We Got Love [0:03:40.55] 04. Sign From Your Heart [0:05:09.53] 05. Waiting For Love [0:05:24.70] 06. Riding Through The Night [0:05:02.60] 07. Rollin' [0:03:38.10] 08. Love Child [0:04:34.02] 09. On The Line [0:03:51.35] 10. Back From Hell [0:04:55.08](1989).Before The Storm 0001. Caught In The Flame [0:04:04.15] 02. Beg Steal Or Borrow [0:03 ...

28
мар
2011

NEWS - Discography [2003-2010, JPop, MP3]

Формат: MP3, tracks, 320kbps
Год выпуска: 2003-2010
Страна: Япония
Жанр: JPop
Продолжительность: 09:19:51
Описание: Альбомы Touch 2005 01 1. 希望~Yell~ (4:36) 2. きらめきの彼方へ (5:01) 3. 紅く燃ゆる太陽 (4:31) 4. I・ZA・NA・I・ZU・KI (4:01) 5. LOVE SONG (5:21) 6. ずっと (4:10) 7. High TEN! (4:16) 8. 恋焼け (2:59) 9. 疾走! Friday Night (2:26) 10. Say Hello (4:12) 11. チェリッシュ ...