20
авг
2010

E-Nomine - Discography [1999 - 2006, Tehno, Club, Gregorian vocals Monumental, Electronic , APE]

E-Nomine - Discography
Формат: APE, (image + .cue), lossless
Год выпуска: 1999 - 2006
Страна: Germany
Жанр: Tehno, Club, Gregorian vocals Monumental, Electronic
Продолжительность: 09:18:54

Описание:
Альбомы:
Das Beste Aus... Gottes Beitrag Teufel Werk 2004г 01

1. "Gottes Beitrag Und Teufels Werk"
2. "Vater Unser"
3. "Mitternacht"
4. "Nebelpfade"
5. "Das Omen Im Kreis Des Bцsen"
6. "Der Ring Der Nibelungen"
7. "Das Tier In Mir (Wolfen)"
8. "Nachtwache (Blaubeermund)"
9. "Die Runen Von Asgard"
10. "Schwarze Sonne"
11. "Opus Magnum"
12. "Laetitia"
13. "Die Schwarzen Reiter"
14. "E Nomine (Denn Sie Wissen Nicht Was Sie Tun)"
15. "Das Bцse"
16. "Deine Welt"
17. "Spiegelbilder"
18. "Bibelworte Des Allmдchtigen"
19. "Der Turm"
20. "Vater Unser Part II (Psalm 23)"

Das Testament 2001г 01

1. "Am Anfang War... Die Schoepfung"
2. "Vater Unser (Synchronstimme: Robert De Niro)"
3. "Das Gestaendnis - Interlude"
4. "E Nomine (Denn Sie Wissen Nicht Was Sie Tun) (Synchronstimme: Robert De Niro)"
5. "Die Stimme Des Herrn - Interlude"
6. "Die 10 Gebote (Synchronstimme: Jack Nicholson)"
7. "Der Verrat - Interlude"
8. "Das Abendmahl (Synchronstimme: Robert De Niro)"
9. "Vergeltung - Interlude"
10. "Die Sintflut (Synchronstimme: Jack Nicholson)"
11. "Die Entscheidung - Interlude"
12. "Himmel & Hoelle (Synchronstimme: Nicolas Cage)"
13. "Garten Eden - Interlude"
14. "Der Fuerst Der Finsternis (Synchronstimme: Al Pacino)"
15. "Die Mahnung - Interlude"
16. "Biebelworte Des Allmaechtigen (Synchronstimme: John Travolta)"
17. "Rueckkehr Aus Aegypten - Interlude"
18. "Die Posaunen Von Jericho (Synchronstimme: Al Pacino)"
19. "Empfaengnis - Interlude"
20. "Ave Maria (Synchronstimme: Nicolas Cage)"
21. "Der Herr Ist Mein Hirte - Interlude"
22. "Psalm 23 (Synchronstimme: Robert De Niro)"
23. "Die Vorsehung - Interlude"
24. "Der Befehl Des Kцnig Herodes (Synchronstimme: Al Pacino)"
25. "Himmelfahrt - Interlude"
26. "Per L'Eternita (Synchronstimme: Jack Nicholson)"
27. "Lord's Prayer (englische Version von 'Vater Unser')"

Das Testament(limited edition) 2000г 01

1. "Am Anfang War Die Schцpfung"
2. "Vater Unser"
3. "E Nomine"
4. "Die 10 Gebote"
5. "Das Abendmahl"
6. "Die Sintflut"
7. "Himmel & Hцlle"
8. "Der Fьrst Der Finsterniss"
9. "Bibelworte Des Allmдchtigen"
10. "Die Posaunen Von Jericho"
11. "Ave Maria"
12. "Psalm 23"
13. "Halleluljah"
14. "Gott Tanzte"
15. "Die Weihnachtsgeschichte"

Die Prophezeiung 2003г 00

1. "Seit Angebinn Der Zeit..."
2. "Die Verheissung (Interlude)"
3. "Deine Welt"
4. "Schwarzer Traum (Interlude)"
5. "Mondengel"
6. "Der Lockruf (Interlude)"
7. "Das Omen Im Kreis Des Bösen"
8. "Lauf Der Zeit (Interlude)"
9. "Das Rad Des Schicksals"
10. "Das Orakel (Interlude)"
11. "Der Blaubeermund"
12. "Sternensturm (Interlude)"
13. "Im Zeichen Des Zodiak"
14. "Die Brücke In Licht (Interlude)"
15. "Laetitia"
16. "Das Rätsel (Interlude)"
17. "Der Prophet"
18. "Land Der Hoffnung (Interlude)"
19. "Anderwelt"
20. "In Den Fängen Von... (Interlude)"
21. "Mysteria"
22. "Friedhof Der Engel (Interlude)"
23. "Die Runen Von Asgard"
24. "Das Erwachen (Interlude)"
25. "Schwarze Sonne"
26. "Endzeit (Interlude)"
27. "Jetzt Ist Es Still"

Die Prophezeiung (Klassik Edition) 2003г 00

1. "Der Weg Des Schicksals"
2. "Die VerheiЯung (Interlude)"
3. "Deine Welt"
4. "Das Orakel (Interlude)"
5. "Der Blaubeermund"
6. "Der Lockruf (Interlude)"
7. "Das Omen Im Kreis Des Bцsen"
8. "Schwarze Gцttin (Interlude)"
9. "Morgane Le Fay"
10. "Sternensturm (Interlude)"
11. "Im Zeichen Des Zodiak"
12. "Die Brьcke Ins Licht (Interlude)"
13. "Laetitia"
14. "Die Befreiten (Interlude)"
15. "Friedenshymne"
16. "Land Der Hoffnung (Interlude)"
17. "Anderwelt (Laterna Magica)"
18. "Der Geist Der Luft (Interlude)"
19. "Espiritu Del Aire"
20. "Lauf Der Zeit (Interlude)"
21. "Das Rad Des Schicksals"
22. "Das Erwachen (Interlude)"
23. "Schwarze Sonne"
24. "In Den Fдngen Von... (Interlude)"
25. "Mysteria"
26. "Die Rьckkehr Der Ewigkeit (Interlude)"
27. "Ein Neuer Tag"

Die Prophezeiung (Spezial Edition) 2004г 01

1. "Seit Anbeginn Der Zeit (Christopher Lee)"
2. "Das Erwachen (Christopher Lee)"
3. "Schwarze Sonne (Ralf Moeller)"
4. "Der Lockruf (Christopher Lee)"
5. "Das Omen, Im Kreis Des Bцsen (Robert Deniro)"
6. "Die Verheissung (Christopher Lee)"
7. "Deine Welt (Robert Deniro)"
8. "Lauf Der Zeit (Christopher Lee)"
9. "Das Rad Des Schicksals (Pierce Brosnan)"
10. "Spirale Des Todes (Christopher Lee)"
11. "Spiegelbilder (Omar Sharif)"
12. "Das Orakel (Christopher Lee)"
13. "Blaubeermund (Michael Douglas)"
14. "Sternensturm (Christopher Lee)"
15. "Im Zeichen Des Zodiak (Rutger Hauer)"
16. "Die Brьcke Ins Licht (Christopher Lee)"
17. "Laetitia (Leonardo Di Caprio)"
18. "Das Rдtsel (Christopher Lee)"
19. "Der Prophet (Paul Newman)"
20. "Land Der Hoffnung (Christopher Lee)"
21. "Anderwelt (Harrison Ford)"
22. "Im Schlafe Des Lichts (Christopher Lee)"
23."Carpe Noctem (Nicolas Cage)"
24. "In Den Fдngen Von... (Christopher Lee)"
25. "Mysteria (Robert Deniro)"
26. "Friedhof Der Engel (Christopher Lee)"
27. "Die Runen Von Asgard (Mel Gibson)"
28. "Schwarzer Traum (Christopher Lee)"
29. "Mondengel (Brad Pitt)"
30. "So Steht Es Geschrieben... (Christopher Lee)"
31. "Wer Den Wind Sдt... (Christopher Lee)"
32. "Endzeit (Christopher Lee)"
33. "Jetzt Ist Es Still (Oliver Reed)"

Finsternis 2002г 01

1. "Am Anfang War Die Finsternis...! (Interlude)"
2. "Mitternacht"
3. "Die Wandlung (Interlude)"
4. "Wolfen "
5. "Reise Nach Transsilvanien (Interlude)"
6. "Dracul's Bluthochzeit"
7. "Die Offenbarung (Interlude)"
8. "Seance "
9. "Die Bedrohung (Interlude)"
10. "Das Bose "
11. "Die Suche (Interlude)"
12. "Die Schwarzen Reiter"
13. "Die Verlautbarung (Interlude)"
14. "Zorn-Die 12 Verbotenen Tone"
15. "Hexenein Eins (Interlude)"
16. "Hexenjagd"
17. "Das Unheil (Interlude)"
18. "Der Exorzist "
19. "Der Tod (Interlude)"
20. "Herr Der Schatten "
21. "Der Ahnungsschauer (Interlude)"
22. "Angst"
23. "Der Schrei (Interlude)"
24. "Exitus "
25. "Das Schweigem (Interlude)"
26. "Die Nachtwache "
27. "Die Stimme... (Interlude)"
28. "Aus Dem Jenseits"
29. "Mitternacht (Warp brothers remix)"

Синглы:
Das Boese 2005г 00

1. "Das dunkle Element"
2. "Das Bцse (neue Version)"
3. "Wiegenlied"
4. "Mala"
5. "Das Bцse (Nomen est O. Mix)"

E Nomine (Denn Sie Wissen Nicht Was Sie Tun) 2000г 00

1. "E Nomine (Denn Sie Wissen Nicht Was Sie Tun) (Video Version)"
2. "E Nomine (Denn Sie Wissen Nicht Was Sie Tun) (Radio Version)"
3. "E Nomine (Denn Sie Wissen Nicht Was Sie Tun) (Extended Mix)"
4. "E Nomine (Denn Sie Wissen Nicht Was Sie Tun) (Cosmic Gate Remix)"
5. "E Nomine (Denn Sie Wissen Nicht Was Sie Tun) (Beam & Yanou vs. Cyrus Remix)"
6. "E Nomine (Denn Sie Wissen Nicht Was Sie Tun) (Pulsedriver Remix)"
7. "E Nomine (Denn Sie Wissen Nicht Was Sie Tun) (Club Mix)"

Mitternacht 2001г 00

1. "Mitternacht (Radio Edit)"
2. "Mitternacht (Extended Version)"
3. "Mitternacht (Warp Brothers Remix)"
4. "Mitternacht (Beam Vs. Cyrus Remix)"
5. "Mitternacht (Club Mix)"
6. "Mitternacht (Club Instrumental)"

Vater Unser 1999 00

1. "Vater Unser (Video Edit)"
2. "Vater Unser (Radio Mix)"
3. "Psalm 23 (Video Edit)"
4. "Psalm 23 (Radio Mix)"
5. "Psalm 23 (Club Mix)"
6. "Vater Unser (Original Club Mix)"
7. "Vater Unser (Mellow D Remix)"
8. "Vater Unser (Pulsedriver Remix)"

Vater Unser Part II (Psalm 23) & Der Ring Der Nibelungen 2006г 00

1. "Vater unser Part 2 (Psalm 23) Radio Mix"
2. "Vater unser Part 2 (Psalm 23) Extended Mix"
3. "Vater unser DJ Mellow-D Mix"
4. "Der Ring der Nibelungen"
5. "Gebet - Psalm 23"
6. "Vater Unser Part II (Psalm 23) (Special Trance Edit)"

Доп. Информация
Отчеты ЕАС

Отчет EAC Das Beste Aus... Gottes Beitrag Teufel Werk

Exact Audio Copy V0.99 prebeta 4 from 23. January 2008

Отчёт EAC об извлечении, выполненном 17. декабря 2008, 12:44

E Nomine / Das Beste Aus... Gottes Beitrag Teufel Werk

Дисковод: PLEXTOR CD-ROM PX-54TA Adapter: 0 ID: 1

Режим чтения : Достоверность
Использование точного потока : Да
Отключение кэша аудио : Да
Использование указателей C2 : Нет

Коррекция смещения при чтении : 12
Способность читать области Lead-in и Lead-out : Нет
Заполнение пропущенных сэмплов тишиной : Да
Удаление блоков с тишиной в начале и конце : Нет
При вычислениях CRC использовались нулевые сэмплы : Да
Интерфейс : Встроенный Win32-интерфейс для Win NT/2000

Выходной формат : Внутренние WAV-операции
Формат сэмплов : 44.100 Гц; 16 бит; стерео

TOC извлечённого CD

Трек | Старт | Длительность | Начальный сектор | Конечный сектор
---------------------------------------------------------------------
1 | 0:00.00 | 1:38.61 | 0 | 7410
2 | 1:38.61 | 3:19.52 | 7411 | 22387
3 | 4:58.38 | 3:52.20 | 22388 | 39807
4 | 8:50.58 | 4:15.59 | 39808 | 58991
5 | 13:06.42 | 3:48.04 | 58992 | 76095
6 | 16:54.46 | 3:47.24 | 76096 | 93144
7 | 20:41.70 | 4:00.44 | 93145 | 111188
8 | 24:42.39 | 5:10.20 | 111189 | 134458
9 | 29:52.59 | 5:51.09 | 134459 | 160792
10 | 35:43.68 | 3:48.58 | 160793 | 177950
11 | 39:32.51 | 3:03.47 | 177951 | 191722
12 | 42:36.23 | 3:34.12 | 191723 | 207784
13 | 46:10.35 | 4:28.11 | 207785 | 227895
14 | 50:38.46 | 3:23.24 | 227896 | 243144
15 | 54:01.70 | 3:44.73 | 243145 | 260017
16 | 57:46.68 | 3:19.07 | 260018 | 274949
17 | 61:06.00 | 3:59.13 | 274950 | 292887
18 | 65:05.13 | 4:18.63 | 292888 | 312300
19 | 69:24.01 | 3:12.07 | 312301 | 326707
20 | 72:36.08 | 4:01.33 | 326708 | 344815

Характеристики диапазона извлечения и сообщения об ошибках

Выбранный диапазон

Имя файла F:torrents_myE NomineDas Beste Aus... Gottes Beitrag Teufel WerkE Nomine

- Das Beste Aus... Gottes Beitrag Teufel Werk.wav

Пиковый уровень 100.0 %
Качество диапазона 100.0 %
CRC копии 580B902A
Копирование... OK

Ошибок не произошло

Конец отчёта

Отчет ЕАС Das Testament
Exact Audio Copy V0.99 prebeta 4 from 23. January 2008

Отчёт EAC об извлечении, выполненном 15. декабря 2008, 22:21

E Nomine / Das Testament

Дисковод: Optiarc DVD RW AD-7170S Adapter: 2 ID: 1

Режим чтения : Достоверность
Использование точного потока : Да
Отключение кэша аудио : Да
Использование указателей C2 : Нет

Коррекция смещения при чтении : 48
Способность читать области Lead-in и Lead-out : Нет
Заполнение пропущенных сэмплов тишиной : Да
Удаление блоков с тишиной в начале и конце : Нет
При вычислениях CRC использовались нулевые сэмплы : Да
Интерфейс : Встроенный Win32-интерфейс для Win NT/2000

Выходной формат : Внутренние WAV-операции
Формат сэмплов : 44.100 Гц; 16 бит; стерео

TOC извлечённого CD

Трек | Старт | Длительность | Начальный сектор | Конечный сектор
---------------------------------------------------------------------
1 | 0:00.00 | 1:13.04 | 0 | 5478
2 | 1:13.04 | 3:30.27 | 5479 | 21255
3 | 4:43.31 | 0:18.49 | 21256 | 22654
4 | 5:02.05 | 3:26.31 | 22655 | 38135
5 | 8:28.36 | 0:41.48 | 38136 | 41258
6 | 9:10.09 | 3:44.16 | 41259 | 58074
7 | 12:54.25 | 0:34.70 | 58075 | 60694
8 | 13:29.20 | 3:43.69 | 60695 | 77488
9 | 17:13.14 | 1:08.55 | 77489 | 82643
10 | 18:21.69 | 3:12.46 | 82644 | 97089
11 | 21:34.40 | 0:29.47 | 97090 | 99311
12 | 22:04.12 | 4:27.58 | 99312 | 119394
13 | 26:31.70 | 0:34.25 | 119395 | 121969
14 | 27:06.20 | 4:40.46 | 121970 | 143015
15 | 31:46.66 | 0:29.05 | 143016 | 145195
16 | 32:15.71 | 4:35.34 | 145196 | 165854
17 | 36:51.30 | 0:23.64 | 165855 | 167643
18 | 37:15.19 | 3:25.34 | 167644 | 183052
19 | 40:40.53 | 0:22.58 | 183053 | 184760
20 | 41:03.36 | 3:34.73 | 184761 | 200883
21 | 44:38.34 | 0:56.10 | 200884 | 205093
22 | 45:34.44 | 3:49.64 | 205094 | 222332
23 | 49:24.33 | 0:15.63 | 222333 | 223520
24 | 49:40.21 | 4:39.39 | 223521 | 244484
25 | 54:19.60 | 0:27.40 | 244485 | 246549
26 | 54:47.25 | 3:38.32 | 246550 | 262931
27 | 58:25.57 | 3:32.49 | 262932 | 278880

Характеристики диапазона извлечения и сообщения об ошибках

Выбранный диапазон

Имя файла G:_MusicE NomineDas TestamentE Nomine - Das Testament.wav

Пиковый уровень 100.0 %
Качество диапазона 100.0 %
CRC копии B0F8B221
Копирование... OK

Ошибок не произошло

Конец отчёта

Отчет ЕАС Das Testament(limited edition)
Exact Audio Copy V0.99 prebeta 4 from 23. January 2008

Отчёт EAC об извлечении, выполненном 17. декабря 2008, 12:22

E Nomine / Das Testament (Limited Edition)

Дисковод: PLEXTOR CD-ROM PX-54TA Adapter: 0 ID: 1

Режим чтения : Достоверность
Использование точного потока : Да
Отключение кэша аудио : Да
Использование указателей C2 : Нет

Коррекция смещения при чтении : 12
Способность читать области Lead-in и Lead-out : Нет
Заполнение пропущенных сэмплов тишиной : Да
Удаление блоков с тишиной в начале и конце : Нет
При вычислениях CRC использовались нулевые сэмплы : Да
Интерфейс : Встроенный Win32-интерфейс для Win NT/2000

Выходной формат : Внутренние WAV-операции
Формат сэмплов : 44.100 Гц; 16 бит; стерео

TOC извлечённого CD

Трек | Старт | Длительность | Начальный сектор | Конечный сектор
---------------------------------------------------------------------
1 | 0:00.00 | 1:12.28 | 0 | 5427
2 | 1:12.28 | 3:30.63 | 5428 | 21240
3 | 4:43.16 | 4:11.47 | 21241 | 40112
4 | 8:54.63 | 5:40.28 | 40113 | 65640
5 | 14:35.16 | 3:35.43 | 65641 | 81808
6 | 18:10.59 | 4:22.42 | 81809 | 101500
7 | 22:33.26 | 3:40.37 | 101501 | 118037
8 | 26:13.63 | 4:39.23 | 118038 | 138985
9 | 30:53.11 | 4:37.50 | 138986 | 159810
10 | 35:30.61 | 3:51.06 | 159811 | 177141
11 | 39:21.67 | 3:50.17 | 177142 | 194408
12 | 43:12.09 | 4:47.74 | 194409 | 216007
13 | 48:00.08 | 3:52.40 | 216008 | 233447
14 | 51:52.48 | 6:02.27 | 233448 | 260624
15 | 57:55.00 | 11:01.01 | 260625 | 310200

Характеристики диапазона извлечения и сообщения об ошибках

Выбранный диапазон

Имя файла F:torrents_myE NomineDas Testament (Limited Edition)E Nomine - Das

Testament (Limited Edition).wav

Пиковый уровень 99.4 %
Качество диапазона 100.0 %
CRC копии 30A9A9FD
Копирование... OK

Ошибок не произошло

Конец отчёта

Отчет ЕАС Die Prophezeiung
Exact Audio Copy V0.99 prebeta 4 from 23. January 2008

Отчёт EAC об извлечении, выполненном 15. декабря 2008, 20:48

E Nomine / Die Prophezeiung

Дисковод: Optiarc DVD RW AD-7170S Adapter: 2 ID: 1

Режим чтения : Достоверность
Использование точного потока : Да
Отключение кэша аудио : Да
Использование указателей C2 : Нет

Коррекция смещения при чтении : 48
Способность читать области Lead-in и Lead-out : Нет
Заполнение пропущенных сэмплов тишиной : Да
Удаление блоков с тишиной в начале и конце : Нет
При вычислениях CRC использовались нулевые сэмплы : Да
Интерфейс : Встроенный Win32-интерфейс для Win NT/2000

Выходной формат : Внутренние WAV-операции
Формат сэмплов : 44.100 Гц; 16 бит; стерео

TOC извлечённого CD

Трек | Старт | Длительность | Начальный сектор | Конечный сектор
---------------------------------------------------------------------
1 | 0:00.00 | 2:18.15 | 0 | 10364
2 | 2:18.15 | 0:23.46 | 10365 | 12135
3 | 2:41.61 | 3:18.44 | 12136 | 27029
4 | 6:00.30 | 0:13.12 | 27030 | 28016
5 | 6:13.42 | 3:30.61 | 28017 | 43827
6 | 9:44.28 | 0:16.71 | 43828 | 45098
7 | 10:01.24 | 3:47.69 | 45099 | 62192
8 | 13:49.18 | 0:28.07 | 62193 | 64299
9 | 14:17.25 | 4:10.53 | 64300 | 83102
10 | 18:28.03 | 0:25.72 | 83103 | 85049
11 | 18:54.00 | 3:51.74 | 85050 | 102448
12 | 22:45.74 | 0:19.53 | 102449 | 103926
13 | 23:05.52 | 3:15.33 | 103927 | 118584
14 | 26:21.10 | 0:30.27 | 118585 | 120861
15 | 26:51.37 | 3:35.18 | 120862 | 137004
16 | 30:26.55 | 0:17.39 | 137005 | 138318
17 | 30:44.19 | 3:22.48 | 138319 | 153516
18 | 34:06.67 | 0:20.09 | 153517 | 155025
19 | 34:27.01 | 4:08.08 | 155026 | 173633
20 | 38:35.09 | 0:27.06 | 173634 | 175664
21 | 39:02.15 | 3:34.03 | 175665 | 191717
22 | 42:36.18 | 0:22.04 | 191718 | 193371
23 | 42:58.22 | 5:51.42 | 193372 | 219738
24 | 48:49.64 | 0:28.42 | 219739 | 221880
25 | 49:18.31 | 3:56.37 | 221881 | 239617
26 | 53:14.68 | 0:21.21 | 239618 | 241213
27 | 53:36.14 | 5:06.35 | 241214 | 264198

Характеристики диапазона извлечения и сообщения об ошибках

Выбранный диапазон

Имя файла G:_MusicE NomineDie ProphezeiungE Nomine - Die Prophezeiung.wav

Пиковый уровень 100.0 %
Качество диапазона 100.0 %
CRC копии B1637007
Копирование... OK

Ошибок не произошло

Конец отчёта

Отчет ЕАС Die Prophezeiung (Klassik Edition)
Exact Audio Copy V0.99 prebeta 4 from 23. January 2008

Отчёт EAC об извлечении, выполненном 15. декабря 2008, 23:01

E Nomine / Die Prophezeiung (Klassik Edition)

Дисковод: Optiarc DVD RW AD-7170S Adapter: 2 ID: 1

Режим чтения : Достоверность
Использование точного потока : Да
Отключение кэша аудио : Да
Использование указателей C2 : Нет

Коррекция смещения при чтении : 48
Способность читать области Lead-in и Lead-out : Нет
Заполнение пропущенных сэмплов тишиной : Да
Удаление блоков с тишиной в начале и конце : Нет
При вычислениях CRC использовались нулевые сэмплы : Да
Интерфейс : Встроенный Win32-интерфейс для Win NT/2000

Выходной формат : Внутренние WAV-операции
Формат сэмплов : 44.100 Гц; 16 бит; стерео

TOC извлечённого CD

Трек | Старт | Длительность | Начальный сектор | Конечный сектор
---------------------------------------------------------------------
1 | 0:00.00 | 2:35.47 | 0 | 11671
2 | 2:35.47 | 0:23.43 | 11672 | 13439
3 | 2:59.15 | 3:31.36 | 13440 | 29300
4 | 6:30.51 | 0:27.11 | 29301 | 31336
5 | 6:57.62 | 3:50.05 | 31337 | 48591
6 | 10:47.67 | 0:17.25 | 48592 | 49891
7 | 11:05.17 | 3:45.57 | 49892 | 66823
8 | 14:50.74 | 0:17.37 | 66824 | 68135
9 | 15:08.36 | 3:18.62 | 68136 | 83047
10 | 18:27.23 | 0:20.54 | 83048 | 84601
11 | 18:48.02 | 3:19.44 | 84602 | 99570
12 | 22:07.46 | 0:29.42 | 99571 | 101787
13 | 22:37.13 | 3:29.68 | 101788 | 117530
14 | 26:07.06 | 0:27.36 | 117531 | 119591
15 | 26:34.42 | 4:08.01 | 119592 | 138192
16 | 30:42.43 | 0:22.37 | 138193 | 139879
17 | 31:05.05 | 4:11.58 | 139880 | 158762
18 | 35:16.63 | 0:35.62 | 158763 | 161449
19 | 35:52.50 | 3:42.54 | 161450 | 178153
20 | 39:35.29 | 0:30.15 | 178154 | 180418
21 | 40:05.44 | 4:00.09 | 180419 | 198427
22 | 44:05.53 | 0:30.04 | 198428 | 200681
23 | 44:35.57 | 3:58.30 | 200682 | 218561
24 | 48:34.12 | 0:25.62 | 218562 | 220498
25 | 48:59.74 | 3:46.25 | 220499 | 237473
26 | 52:46.24 | 0:28.59 | 237474 | 239632
27 | 53:15.08 | 3:52.01 | 239633 | 257033

Характеристики диапазона извлечения и сообщения об ошибках

Выбранный диапазон

Имя файла G:_MusicE NomineDie Prophezeiung (Klassik Edition)E Nomine - Die

Prophezeiung (Klassik Edition).wav

Пиковый уровень 100.0 %
Качество диапазона 100.0 %
CRC копии DBDD473E
Копирование... OK

Ошибок не произошло

Конец отчёта

Отчет ЕАСDie Prophezeiung (Spezial Edition)
Exact Audio Copy V0.99 prebeta 4 from 23. January 2008

Отчёт EAC об извлечении, выполненном 16. декабря 2008, 21:26

E Nomine / Die Prophezeiung (Spezial Edition)

Дисковод: Optiarc DVD RW AD-7170S Adapter: 2 ID: 1

Режим чтения : Достоверность
Использование точного потока : Да
Отключение кэша аудио : Да
Использование указателей C2 : Нет

Коррекция смещения при чтении : 48
Способность читать области Lead-in и Lead-out : Нет
Заполнение пропущенных сэмплов тишиной : Да
Удаление блоков с тишиной в начале и конце : Нет
При вычислениях CRC использовались нулевые сэмплы : Да
Интерфейс : Встроенный Win32-интерфейс для Win NT/2000

Выходной формат : Внутренние WAV-операции
Формат сэмплов : 44.100 Гц; 16 бит; стерео

TOC извлечённого CD

Трек | Старт | Длительность | Начальный сектор | Конечный сектор
---------------------------------------------------------------------
1 | 0:00.00 | 2:20.43 | 0 | 10542
2 | 2:20.43 | 0:28.47 | 10543 | 12689
3 | 2:49.15 | 3:49.29 | 12690 | 29893
4 | 6:38.44 | 0:16.58 | 29894 | 31151
5 | 6:55.27 | 3:47.56 | 31152 | 48232
6 | 10:43.08 | 0:22.62 | 48233 | 49944
7 | 11:05.70 | 3:18.52 | 49945 | 64846
8 | 14:24.47 | 0:28.52 | 64847 | 66998
9 | 14:53.24 | 4:11.68 | 66999 | 85891
10 | 19:05.17 | 0:16.34 | 85892 | 87125
11 | 19:21.51 | 3:58.72 | 87126 | 105047
12 | 23:20.48 | 0:26.35 | 105048 | 107032
13 | 23:47.08 | 3:51.47 | 107033 | 124404
14 | 27:38.55 | 0:19.29 | 124405 | 125858
15 | 27:58.09 | 3:15.43 | 125859 | 140526
16 | 31:13.52 | 0:31.01 | 140527 | 142852
17 | 31:44.53 | 3:34.32 | 142853 | 158934
18 | 35:19.10 | 0:17.59 | 158935 | 160268
19 | 35:36.69 | 3:26.00 | 160269 | 175718
20 | 39:02.69 | 0:20.17 | 175719 | 177235
21 | 39:23.11 | 4:06.37 | 177236 | 195722
22 | 43:29.48 | 0:13.17 | 195723 | 196714
23 | 43:42.65 | 3:56.06 | 196715 | 214420
24 | 47:38.71 | 0:25.10 | 214421 | 216305
25 | 48:04.06 | 3:33.18 | 216306 | 232298
26 | 51:37.24 | 0:20.71 | 232299 | 233869
27 | 51:58.20 | 5:51.07 | 233870 | 260201
28 | 57:49.27 | 0:16.19 | 260202 | 261420
29 | 58:05.46 | 3:32.55 | 261421 | 277375
30 | 61:38.26 | 0:22.69 | 277376 | 279094
31 | 62:01.20 | 3:07.53 | 279095 | 293172
32 | 65:08.73 | 0:20.70 | 293173 | 294742
33 | 65:29.68 | 5:03.56 | 294743 | 317523

Характеристики диапазона извлечения и сообщения об ошибках

Выбранный диапазон

Имя файла G:_MusicE NomineDie Prophezeiung (Spezial Edition)E Nomine - Die

Prophezeiung (Spezial Edition).wav

Пиковый уровень 100.0 %
Качество диапазона 99.9 %
CRC копии A355C7A0
Копирование... OK

Ошибок не произошло

Конец отчёта

Отчет EAC Finsternis
Exact Audio Copy V0.99 prebeta 4 from 23. January 2008

Отчёт EAC об извлечении, выполненном 15. декабря 2008, 21:20

E Nomine / Finsternis

Дисковод: Optiarc DVD RW AD-7170S Adapter: 2 ID: 1

Режим чтения : Достоверность
Использование точного потока : Да
Отключение кэша аудио : Да
Использование указателей C2 : Нет

Коррекция смещения при чтении : 48
Способность читать области Lead-in и Lead-out : Нет
Заполнение пропущенных сэмплов тишиной : Да
Удаление блоков с тишиной в начале и конце : Нет
При вычислениях CRC использовались нулевые сэмплы : Да
Интерфейс : Встроенный Win32-интерфейс для Win NT/2000

Выходной формат : Внутренние WAV-операции
Формат сэмплов : 44.100 Гц; 16 бит; стерео

TOC извлечённого CD

Трек | Старт | Длительность | Начальный сектор | Конечный сектор
---------------------------------------------------------------------
1 | 0:00.00 | 0:45.04 | 0 | 3378
2 | 0:45.04 | 3:48.43 | 3379 | 20521
3 | 4:33.47 | 0:29.30 | 20522 | 22726
4 | 5:03.02 | 4:40.11 | 22727 | 43737
5 | 9:43.13 | 0:23.13 | 43738 | 45475
6 | 10:06.26 | 5:58.13 | 45476 | 72338
7 | 16:04.39 | 0:23.63 | 72339 | 74126
8 | 16:28.27 | 4:26.13 | 74127 | 94089
9 | 20:54.40 | 0:17.63 | 94090 | 95427
10 | 21:12.28 | 4:00.59 | 95428 | 113486
11 | 25:13.12 | 0:31.40 | 113487 | 115851
12 | 25:44.52 | 4:42.61 | 115852 | 137062
13 | 30:27.38 | 0:45.32 | 137063 | 140469
14 | 31:12.70 | 3:47.09 | 140470 | 157503
15 | 35:00.04 | 0:48.37 | 157504 | 161140
16 | 35:48.41 | 3:56.72 | 161141 | 178912
17 | 39:45.38 | 0:28.42 | 178913 | 181054
18 | 40:14.05 | 4:40.72 | 181055 | 202126
19 | 44:55.02 | 0:26.59 | 202127 | 204135
20 | 45:21.61 | 4:05.31 | 204136 | 222541
21 | 49:27.17 | 0:29.09 | 222542 | 224725
22 | 49:56.26 | 4:52.16 | 224726 | 246641
23 | 54:48.42 | 0:37.00 | 246642 | 249416
24 | 55:25.42 | 3:28.41 | 249417 | 265057
25 | 58:54.08 | 0:42.18 | 265058 | 268225
26 | 59:36.26 | 5:11.61 | 268226 | 291611
27 | 64:48.12 | 0:29.27 | 291612 | 293813
28 | 65:17.39 | 5:27.67 | 293814 | 318405
29 | 70:45.31 | 7:43.07 | 318406 | 353137

Характеристики диапазона извлечения и сообщения об ошибках

Выбранный диапазон

Имя файла G:_MusicE NomineFinsternisE Nomine - Finsternis.wav

Пиковый уровень 100.0 %
Качество диапазона 99.9 %
CRC копии 168FF79A
Копирование... OK

Ошибок не произошло

Конец отчёта

Отчет EAC Das Boese
Exact Audio Copy V0.99 prebeta 4 from 23. January 2008

Отчёт EAC об извлечении, выполненном 16. декабря 2008, 21:52

E Nomine / Das Buse

Дисковод: Optiarc DVD RW AD-7170S Adapter: 2 ID: 1

Режим чтения : Достоверность
Использование точного потока : Да
Отключение кэша аудио : Да
Использование указателей C2 : Нет

Коррекция смещения при чтении : 48
Способность читать области Lead-in и Lead-out : Нет
Заполнение пропущенных сэмплов тишиной : Да
Удаление блоков с тишиной в начале и конце : Нет
При вычислениях CRC использовались нулевые сэмплы : Да
Интерфейс : Встроенный Win32-интерфейс для Win NT/2000

Выходной формат : Внутренние WAV-операции
Формат сэмплов : 44.100 Гц; 16 бит; стерео

TOC извлечённого CD

Трек | Старт | Длительность | Начальный сектор | Конечный сектор
---------------------------------------------------------------------
1 | 0:00.00 | 1:16.30 | 0 | 5729
2 | 1:16.30 | 3:41.37 | 5730 | 22341
3 | 4:57.67 | 7:45.22 | 22342 | 57238
4 | 12:43.14 | 3:27.55 | 57239 | 72818
5 | 16:10.69 | 4:52.02 | 72819 | 94720

Характеристики диапазона извлечения и сообщения об ошибках

Выбранный диапазон

Имя файла G:_MusicE NomineDas BuseE Nomine - Das Buse.wav

Пиковый уровень 100.0 %
Качество диапазона 100.0 %
CRC копии 680B065F
Копирование... OK

Ошибок не произошло

Конец отчёта

Отчет EAC E Nomine (Denn Sie Wissen Nicht Was Sie Tun)

Exact Audio Copy V0.99 prebeta 4 from 23. January 2008

Отчёт EAC об извлечении, выполненном 16. декабря 2008, 21:05

E Nomine / E Nomine (Denn Sie Wissen Nicht Was Sie Tun)

Дисковод: Optiarc DVD RW AD-7170S Adapter: 2 ID: 1

Режим чтения : Достоверность
Использование точного потока : Да
Отключение кэша аудио : Да
Использование указателей C2 : Нет

Коррекция смещения при чтении : 48
Способность читать области Lead-in и Lead-out : Нет
Заполнение пропущенных сэмплов тишиной : Да
Удаление блоков с тишиной в начале и конце : Нет
При вычислениях CRC использовались нулевые сэмплы : Да
Интерфейс : Встроенный Win32-интерфейс для Win NT/2000

Выходной формат : Внутренние WAV-операции
Формат сэмплов : 44.100 Гц; 16 бит; стерео

TOC извлечённого CD

Трек | Старт | Длительность | Начальный сектор | Конечный сектор
---------------------------------------------------------------------
1 | 0:00.00 | 3:46.33 | 0 | 16982
2 | 3:46.33 | 3:24.52 | 16983 | 32334
3 | 7:11.10 | 6:54.11 | 32335 | 63395
4 | 14:05.21 | 8:31.14 | 63396 | 101734
5 | 22:36.35 | 5:38.40 | 101735 | 127124
6 | 28:15.00 | 6:14.48 | 127125 | 155222
7 | 34:29.48 | 5:25.22 | 155223 | 179619

Характеристики диапазона извлечения и сообщения об ошибках

Выбранный диапазон

Имя файла G:_MusicE NomineE Nomine (Denn Sie Wissen Nicht Was Sie Tun)E Nomine - E

Nomine (Denn Sie Wissen Nicht Was Sie Tun).wav

Пиковый уровень 99.9 %
Качество диапазона 100.0 %
CRC копии 59E274C8
Копирование... OK

Ошибок не произошло

Конец отчёта

Отчет ЕАС MItternacht

Exact Audio Copy V0.99 prebeta 4 from 23. January 2008

Отчёт EAC об извлечении, выполненном 16. декабря 2008, 22:18

E Nomine / Mitternacht

Дисковод: Optiarc DVD RW AD-7170S Adapter: 2 ID: 1

Режим чтения : Достоверность
Использование точного потока : Да
Отключение кэша аудио : Да
Использование указателей C2 : Нет

Коррекция смещения при чтении : 48
Способность читать области Lead-in и Lead-out : Нет
Заполнение пропущенных сэмплов тишиной : Да
Удаление блоков с тишиной в начале и конце : Нет
При вычислениях CRC использовались нулевые сэмплы : Да
Интерфейс : Встроенный Win32-интерфейс для Win NT/2000

Выходной формат : Внутренние WAV-операции
Формат сэмплов : 44.100 Гц; 16 бит; стерео

TOC извлечённого CD

Трек | Старт | Длительность | Начальный сектор | Конечный сектор
---------------------------------------------------------------------
1 | 0:00.00 | 3:52.54 | 0 | 17453
2 | 3:52.54 | 6:15.59 | 17454 | 45637
3 | 10:08.38 | 7:43.07 | 45638 | 80369
4 | 17:51.45 | 7:36.61 | 80370 | 114630
5 | 25:28.31 | 7:14.41 | 114631 | 147221
6 | 32:42.72 | 7:10.48 | 147222 | 179519

Характеристики диапазона извлечения и сообщения об ошибках

Выбранный диапазон

Имя файла G:_MusicE NomineMitternachtE Nomine - Mitternacht.wav

Пиковый уровень 100.0 %
Качество диапазона 100.0 %
CRC копии D8EAAFAB
Копирование... OK

Ошибок не произошло

Конец отчёта

Отчет ЕАС Vater Unser

Exact Audio Copy V0.99 prebeta 4 from 23. January 2008

Отчёт EAC об извлечении, выполненном 16. декабря 2008, 22:04

E Nomine / Vater Unser

Дисковод: Optiarc DVD RW AD-7170S Adapter: 2 ID: 1

Режим чтения : Достоверность
Использование точного потока : Да
Отключение кэша аудио : Да
Использование указателей C2 : Нет

Коррекция смещения при чтении : 48
Способность читать области Lead-in и Lead-out : Нет
Заполнение пропущенных сэмплов тишиной : Да
Удаление блоков с тишиной в начале и конце : Нет
При вычислениях CRC использовались нулевые сэмплы : Да
Интерфейс : Встроенный Win32-интерфейс для Win NT/2000

Выходной формат : Внутренние WAV-операции
Формат сэмплов : 44.100 Гц; 16 бит; стерео

TOC извлечённого CD

Трек | Старт | Длительность | Начальный сектор | Конечный сектор
---------------------------------------------------------------------
1 | 0:00.00 | 3:35.59 | 0 | 16183
2 | 3:35.59 | 3:22.70 | 16184 | 31403
3 | 6:58.54 | 3:51.10 | 31404 | 48738
4 | 10:49.64 | 3:36.69 | 48739 | 65007
5 | 14:26.58 | 7:08.09 | 65008 | 97116
6 | 21:34.67 | 6:53.15 | 97117 | 128106
7 | 28:28.07 | 6:43.12 | 128107 | 158343
8 | 35:11.19 | 7:31.24 | 158344 | 192192

Характеристики диапазона извлечения и сообщения об ошибках

Выбранный диапазон

Имя файла G:_MusicE NomineVater UnserE Nomine - Vater Unser.wav

Пиковый уровень 100.0 %
Качество диапазона 100.0 %
CRC копии 2A028CCF
Копирование... OK

Ошибок не произошло

Конец отчёта

Отчет ЕАС E Nomine - Vater Unser Part II (Psalm 23) & Der Ring Der Nibelungen
Exact Audio Copy V0.99 prebeta 4 from 23. January 2008

Отчёт EAC об извлечении, выполненном 16. декабря 2008, 21:41

E Nomine / Vater Unser Part II (Psalm 23) & Der Ring Der Nibelungen

Дисковод: Optiarc DVD RW AD-7170S Adapter: 2 ID: 1

Режим чтения : Достоверность
Использование точного потока : Да
Отключение кэша аудио : Да
Использование указателей C2 : Нет

Коррекция смещения при чтении : 48
Способность читать области Lead-in и Lead-out : Нет
Заполнение пропущенных сэмплов тишиной : Да
Удаление блоков с тишиной в начале и конце : Нет
При вычислениях CRC использовались нулевые сэмплы : Да
Интерфейс : Встроенный Win32-интерфейс для Win NT/2000

Выходной формат : Внутренние WAV-операции
Формат сэмплов : 44.100 Гц; 16 бит; стерео

TOC извлечённого CD

Трек | Старт | Длительность | Начальный сектор | Конечный сектор
---------------------------------------------------------------------
1 | 0:00.00 | 3:56.39 | 0 | 17738
2 | 3:56.39 | 6:01.01 | 17739 | 44814
3 | 9:57.40 | 6:42.54 | 44815 | 75018
4 | 16:40.19 | 4:25.41 | 75019 | 94934
5 | 21:05.60 | 0:58.16 | 94935 | 99300
6 | 22:04.01 | 3:33.51 | 99301 | 115326

Характеристики диапазона извлечения и сообщения об ошибках

Выбранный диапазон

Имя файла G:_MusicE NomineVater Unser Part II (Psalm 23) & Der Ring Der NibelungenE Nomine - Vater Unser Part II (Psalm 23) & Der Ring Der Nibelungen.wav

Пиковый уровень 100.0 %
Качество диапазона 100.0 %
CRC копии 6215CAAF
Копирование... OK

Ошибок не произошло

Конец отчёта



Информация о группе

«E Nomine» (с лат. "Во имя") — детище немецких продюсеров Фридриха Гранера (он же SirFritz), Кристиана Веллера (Chris Tentum) и Давида Бруннера, додумавшихся вложить слова молитв и библейских преданий в уста известных в Германии актёров-синхронистов, использовав в качестве музыкального сопровождения монументальные хоры и танцевальный бит. В результате получился продукт, весьма активно поглощаемый клубной молодёжью. Первый же сингл Vater Unser (Отче наш), вышедший осенью 1999 года, разошелся тиражом более чем в 400 тысяч экземпляров и добрался до 4го места в национальном хит-параде синглов, а в Австрии, так и вовсе стал первым. Молитва была прочитана голосом Кристиана Брюкнера, неизменно озвучивающего Роберта Де Ниро для немецкого проката (Де Ниро выбран не случайно- многим памятна его роль католического священника в картине «Спящие»). Вскоре появился и полнометражный альбом Das Testament, записанный при участии все того же Брюкнера, а также артистов, озвучивающих Николаса Кейджа, Энтони Хопкинса, Аль Пачино и других голливудских легенд. Музыка исполнена оркестром Немецкой Оперы и хором из 90 человек. В 2000—2001 вышло несколько синглов E Nomine. Второй альбом Finsternis увидел свет в январе 2002 года и стал третьим в чарте Media Control (160 тысяч проданных экземпляров), подогрев интерес к музыке коллектива — фирме Polydor пришлось допечатывать тираж первого альбома, все треки были перезаписаны, и звучание стало более «монументальным». Преданных поклонников порадовали специальным изданием Finsternis — с рождественскими сказками, записанными голосами все тех же популярнейших синхронистов и ДВД с видеоклипами на некоторые композиции (в клипах, на концертах, интервью «лицом» E Nomine является некто Сенад Гиччик (Senad Giccic), фактически в группе не поющий)

Приношу свои извинения всем, но к сожалению я могу раздавать только с 10:00 am до 11:00 pm по Приднестровскому времени (формат времени +2:00) И еще, если можете, постарайтесь как можно дольше не уходить с раздачи.

09
мая
2009

E Nomine [2001-2005, Транс Техно Gregorian vocals Monumental dance]

Формат: MP3, tracks, 224kbps
Год выпуска: 1999-2008
Страна: Германия
Жанр: Транс Техно Gregorian vocals Monumental
Продолжительность: 16:10:53
Описание: Альбомы группы E Nomine Vater Unser (1999) 01 - Vater Unser (Video Edit) 02 - Vater Unser (Radio Edit) 03 - Vater Unser (Psalm 23 Video Edit) 04 - Vater Unser (Psalm 23 Radio Edit) 05 - Vater Unser (Psalm 23 Club Edit) 06 - Vater Unser (Original Club Mix) 07 - Vater Unser (Pulsedriver Remix) 08 - Vater.Unser.(Mellow.D..Remix) 09 - Vater.Unser.(Cosmic.Gate.Remix) E Nomine (2000) 01 - E Nomine (Video Version) 02 - E Nomine (Radio Version) 03 - ...

28
мар
2009

E Nomine Clips[1999 - 2001, Classical, Dance, Electronica, New Age]

Формат: DVDRip, MPEG, MPEG2, MP3
Исполнитель: E Nomine
Песня: Сборник клипов
Жанр: Classical, Dance, Electronica, New Age
Продолжительность: 47 мин
Год выпуска: 1999 - 2001
Видео: 480х576 (0.83:1), 25fps, MPEG2 ~ 2438 kbps avg
Аудио: 44.100 kHz, MPEG1 Layer 2, 2 ch, ~128.00 kbps avg
Доп. информация: Здесь есть клипы с самой группой и с аниме. Информацию по жанру исполняемой музыки брал с сайта muslib.ru

03
июл
2015

E Nomine - Die Prophezeiung [2003, Rock, New Age, Trance, Modern Classical, MP3]

Формат: MP3, tracks, 320kbps
Год выпуска: 2003
Страна: Germany
Жанр: Rock, New Age, Trance, Modern Classical
Продолжительность: 00:58:44
Описание: Треклист01. Seit Anbeginn der Zeit... (Intro) 02. Die Verheissung (Interlude) 03. Deine Welt 04. SchwarzerTraum (Interlude) 05. Mondengel 06. Der Lockruf (Interlude) 07. Das Omen im Kreis des Bösen 08. Lauf der Zeit (Interlude) 09. Das Rad des Schicksals 10. Das Orakel (Interlude) 11. Der Blaubeermund 12. Sternensturm (Interlude) 13. Im Zeichen des Zodiak 14. Die Brücke ins Licht (Interlude) 15. Laetitia 16. Das Rätsel (Interlude) 17. ...

27
фев
2012

E-Rotic-Discography [1995 - 2003, Pop ,Dance, MP3]

Формат: MP3, tracks, 320kbps
Год выпуска: 1995 - 2003
Страна: Japan,Germany
Жанр: Pop, Dance
Продолжительность: 26:09:24
Описание: Albums 1995.Sex Affairs 0101. Willy Use A Billy...Boy (3:44) 02. Max Don't Have Sex With Your Ex (3:32) 03. Big Max (4:23) 04. Sex Me (4:01) 05. Come On Make Love To Me (3:28) 06. Fred Come To Bed (3:59) 07. Wild Love (4:00) 08. Sex On The Phone (3:57) 09. Falling For A Witch (3:47) 10. Take My Love (5:00) 11. Final Heartbreak (3:47) 12. Max Don't Have Sex With Your Ex (Remix) (6:14) 13. Fred Come To Bed (Remix) (5:48) 14. Sex On The Phone (D1 Remix) (5:47) 15. W ...

18
ноя
2012

E-Type - Discography [1991 - 2011, EuroDance, Pop , Electronic, MP3]

Формат: MP3, tracks, 320kbps
Год выпуска: 1991 - 2011
Страна: Sweden
Жанр: EuroDance, Pop, Electronic
Продолжительность: 36:28:12
Описание: Albums & Compilation 1994 - Made In Sweden 00 01. Made In Sweden 02. Set The World On Fire 03. This Is The Way 04. So Dem A Com 05. Fight It Back 06. Until The End 07. When Religion Comes To Town 08. Will I See You Again? 09. Do You Always 10. Russian Lullaby 11. Me No Want Miseria 12. Set The World Unplugged 1995 - Made in Sweden 00 01. Made In Sweden 02. Set The World On Fire 03. This Is The Way 04. So Dem A Com 05. Fight It Back 06. Until The End 0 ...

16
сен
2012

Jake E. Lee Discography [1982 2008, Heavy Metal,Blues,Hard Rock, MP3]

Формат: MP3, tracks, 320kbps
Год выпуска: 1982 – 2008
Страна: USA
Жанр: Heavy Metal, Blues, Hard Rock
Продолжительность: 07:53:02
Описание: Solo albums 1996 - A Fine Pink Mist 00 1. Exithouse (3:24) 2. Demon A Go-Go (5:35) 3. Soulfinger (3:42) 4. Rapture (5:19) 5. I Magnify (4:07) 6. Velvet Fire (4:33) 7. Atomic Holiday (7:08) 8. Galaxy Of Tears (3:05) 9. Luna Gitana (0:47) 10. Bludfuk (4:01) 2005 - Retraced 00 1. Whiskey Train (4:39) 2. Evil (3:18) 3. Way Back To The Bone (5:35) 4. I'll Be Creepin' (5:18) 5. Guess I'll Go Away (3:54) 6. Love Is Worth The Blues (4:26) 7. I Come Tumblin' (5: ...

11
июл
2010

R.E.M. - Discography [1983 - 2008, Rock, Alternative, MP3]

Формат: MP3, tracks, 128-320kbps [VBR]
Год выпуска: 1983 - 2008
Страна: Америка
Жанр: Rock, Alternative
Продолжительность: 18:02:26
Описание: 1983 Murmur 0001-Radio Free Europe-04:05 02-Pilgrimage-04:30 03-Laughing-03:59 04-Talk About the Passion-03:24 05-Moral Kiosk-03:32 06-Perfect Circle-03:30 07-Catapult-03:55 08-Sitting Still-03:18 09-9-9-03:05 10-Shaking Through-04:30 11-We Walk-03:01 1984 Reckoning 0001-Harborcoat-03:57 02-7 Chinese Brothers-04:15 03-So. Central Rain-03:16 04-Pretty Persuasion-03:53 05-Time After Time (Annelise)-03:33 06-Second Guessing-02:52 07-Letter Never Sent-03:00 ...

20
ноя
2012

Ricchi E Poveri - Discography [1970-2008, Pop, MP3]

Формат: MP3, tracks, 160-320 kbps
Год выпуска: 1970-2008
Страна: Italy
Жанр: Pop
Продолжительность: 23:55:33
Описание: Albums1970 - Ricchi E Poveri 0001-In Questa Citta 02-Ciao Duca 03-Oceano 04-Un'immagine 05-Due Gocce D'acqua 06-Ma Se Ghe Penso 07-Al Molo 08-La Prima Cosa Bella 09-C'era Lei 10-L'amore E Una Cosa Meravigliosa 11-Carla E Gino 12-L'amore E Quello Che E 1971 - Amici Miei 0001-Che Sara 02-Con L'aiuto Del Signore 03-Monna Lisa E Messer Duca 04-Souvenir Del Primo Amore 05-La Mia Strada Sara Breve 06-Amici Miei 07-Favola 08-Addio Mamma Addio Papa 09-Limpido Fiume Del Sud 10-2+2=5 ...

28
дек
2015

Haemoth - In Nomine Odium [2011, Black Metal, MP3]

Формат: MP3, tracks, 320kbps
Год выпуска: 2011
Страна: France
Жанр: Black Metal
Продолжительность: 00:44:58
Описание: 01. Odium 02. Slaying the Blind 03. Demonik Omniscience 04. Spiritual Pestilence 05. Disgrace 06. Son of the Black Light 07. ...And Then Came the Decease

21
июн
2010

10cc - Discography + Projects,Wax,Hotlegs,Godley & Creme,G Gouldman,E Stewart- Solo [1973 - 2009, Rock, FLAC, APE]

Формат: FLAC, APE. (image + .cue), lossless
Год выпуска: 1973 - 2009
Страна: England
Жанр: Rock, Pop, Art rock, Soft rock
Продолжительность: 65:54:44
Описание: 1973 - 10cc (Japan Remastered 2010 SHM-CD) 0
Треклист: 01. RUBBER BULLETS 02. DONNA 03. JOHNNY,DON'T DO IT 04. SAND IN MAY FACE 05. SPEED KILLS 06. DEAN AND I,THE 07. SHIPS DON'T DISAPPEAR IN THE NIGHT (DO THEY?) 08. HOSPITAL SONG,THE 09. FRESH AIR FOR MY MOMMA 10. HEADLINE HUSTLER *Bonus Track* 11. HOT SUN ROCK 12. 4% OF SOMETHING 13. WATERFALL 1974 - Sheet Music (Remastered 1990) 0
Треклист: 01. The Wall Street Shuffle 02. The ...

29
июл
2010

The Alan Parsons Project - Discography+ E.Woolfson, C.Rainbow,C.Blunstone-Solo Albums [1976 - 2009, Art Rock, Pop, FLAC]

Формат: FLAC, APE. (image + .cue), lossless
Год выпуска: 1976 - 2009
Страна: United Kingdom
Жанр: Art Rock, Progressive rock, soft rock, pop rock
Продолжительность: 42:32:15
Описание: 1976 - TALES OF MYSTERY AND IMAGINATION EDGAR ALLAN POE 0 Треклист 1. A Dream within a Dream (4:13) 2. The Raven (3:57) 3. The Tell-tale Heart (4:39) 4. The Cask of Amontillado (4:33) 5. (The System of) Doctor Tarr and Professor Fether (4:20) The Fall of the House of Usher (Instrumental) 6. I Prelude (7:02) 7. II Arrival (2:39) 8. III Intermezzo (1:00) 9. IV Pavane (4:36) 10. V Fall (0:51) 11. To One in P ...

29
янв
2009

G.O.N.G. - In Nomine Dei [2008, Metal Opera, 320kbps]

Формат: MP3, tracks, 320kbps
Год выпуска: 2008
Страна: Россия, Москва
Жанр: Metal Opera
Продолжительность: 37:09
Треклист: 01. Initus 02. Призыв 03. Поход 04. Битва 05. На камнях 06. Птица 07. Поверь мне... 08. Прощение 09. Золото любви
Доп. информация: In Nomine Dei ("Во имя Господне") - захватывающая метал-опера московского коллектива G.O.N.G., построенная на смешении таких стилей, как средневековая музыка, фолк, стандартный хэви-метал и модных течений: модерн-метала и альтернативы. В основе произведения лежит повествование крестоносца, рассказывающего историю полной драматизма жизни своему ...

24
окт
2012

Michel Telo e Sorriso Maroto - E Nois Faze Parapapa [2012, Pop, HDTVRip]

Формат: HDTVRip, AVI, XviD, MP3
Песня: E Nois Faze Parapapa
Жанр: Pop
Продолжительность: 00:02:48
Год выпуска: 2012
Видео: 720х480 (2.43:1), 25 fps, XviD MPEG-4 ~839 kbps avg, 0.28 bit/pixel
Аудио: 44 kHz, MPEG Layer 3, 2 ch, ~192.00 kbps avg

30
мар
2013

Ennio Morricone - Svegliati E Uccidi & Sacco E Vanzetti [2003, Instrumental, MP3]

Формат: MP3, tracks, 320kbps
Год выпуска: 2003
Страна: Italy
Жанр: Instrumental
Продолжительность: 01:09:10
Описание: 01. Una Stanza Vuota 02. Un Uomo Solo 03. Colpo Alla Gioielleria 04. Una Stanza Vuota (2nd version) 05. La Prima Vittima 06. Sul Lago Di Lugano 07. Svegliati E Uccidi 08. La Donna Di Un Fuorilegge 09. Una Stanza Vuota (3rd version) 10. Una Tromba A Dallas 11. Speranze Di Libert? 12. La Ballata Di Sacco E Vanzetti (part 1) 13. Nel Carcere 14. La Ballata Di Sacco E Vanzetti (part 2) 15. Sacco E Il Figlio 16. La Ballata Di Sacco E Vanzetti (part 3) 17. Libert? Nella Speranza 18. E ...

29
сен
2012

Zoee / Z.O.E.E. Tekkno Wonderland [1995, Happy Hardcore, MP3]

Формат: MP3, tracks, 224kbps
Год выпуска: 1995
Страна: Germany
Жанр: Happy Hardcore
Продолжительность: 00:19:15
Описание: 01. Tekkno wonderland (Airwave mix) 02. Tekkno wonderland (Extended version) 03. Tekkno wonderland (Fantasyland mix) 04. Tekkno wonderland (Ravenyl mix)