01
июн
2012

DJ Цветкоff - Дискография [2001-2007, Euro Trance, FLAC]

DJ Цветкоff - Дискография
Формат: FLAC, (image + .cue), lossless
Год выпуска: 2001-2007
Страна: Россия
Жанр: Euro Trance
Продолжительность: 20:05:00
Описание:
2001 - DJ Цветкоff - Dавай, Dавай, Ne Отставай!!! II 1




01 DJ Valium - Doin'it again [X-tended vocal mix]
02 D-Age - Snowflakes [Pulsedriver rmx]
03 Blank & Jones - D.F.F (DJ's, Fans & Freaks) [Trance mix]
04 Bartezz - On the move
05 Mario Lopez - Blind [Club mix]
06 Miss Angee - My beat
07 Cosmic Gate - Move any mountain [Promo]
08 Bartezz - On the move [Bartezz rock's the club mix]
09 G-Spoot - G-Lennium
10 DJ Rob & MC Joe - 21 century
11 DJ Jean - Don't hold me back
12 Voodoo & Serano - Blood is pumpin'
Отчёт EAC
Exact Audio Copy V0.99 prebeta 5 from 4. May 2009

Отчёт EAC об извлечении, выполненном 25. января 2011, 16:53

Various Artists / Dавай, Dавай, Nе отставай!!! Часть 2 - DJ Цветков

Дисковод: PLEXTOR DVDR PX-755A Adapter: 0 ID: 3

Режим чтения : Достоверность
Использование точного потока : Да
Отключение кэша аудио : Да
Использование указателей C2 : Нет

Коррекция смещения при чтении : 30
Способность читать области Lead-in и Lead-out : Нет
Заполнение пропущенных сэмплов тишиной : Да
Удаление блоков с тишиной в начале и конце : Нет
При вычислениях CRC использовались нулевые сэмплы : Да
Интерфейс : Встроенный Win32-интерфейс для Win NT/2000

Выходной формат : Внутренние WAV-операции
Формат сэмплов : 44.100 Гц; 16 бит; стерео

TOC извлечённого CD

Трек | Старт | Длительность | Начальный сектор | Конечный сектор
---------------------------------------------------------------------
1 | 0:00.00 | 4:32.53 | 0 | 20452
2 | 4:32.53 | 7:12.22 | 20453 | 52874
3 | 11:45.00 | 6:17.22 | 52875 | 81171
4 | 18:02.22 | 4:28.23 | 81172 | 101294
5 | 22:30.45 | 4:04.34 | 101295 | 119628
6 | 26:35.04 | 6:34.71 | 119629 | 149249
7 | 33:10.00 | 3:47.60 | 149250 | 166334
8 | 36:57.60 | 3:29.37 | 166335 | 182046
9 | 40:27.22 | 5:53.16 | 182047 | 208537
10 | 46:20.38 | 8:26.58 | 208538 | 246545
11 | 54:47.21 | 6:10.37 | 246546 | 274332
12 | 60:57.58 | 6:24.02 | 274333 | 303134

Характеристики диапазона извлечения и сообщения об ошибках

Выбранный диапазон

Имя файла D:DJ Цветков-Dавай, Dавай, Nе отставай!!! Часть 2Various Artists - Dавай, Dавай, Nе отставай!!! Часть 2 - DJ Цветков.wav

Пиковый уровень 100.0 %
Качество диапазона 100.0 %
CRC теста C64C0DF4
CRC копии C64C0DF4
Копирование... OK

Ошибок не произошло

AccurateRip: сводка

Трек 1 нет в базе данных
Трек 2 нет в базе данных
Трек 3 нет в базе данных
Трек 4 нет в базе данных
Трек 5 нет в базе данных
Трек 6 нет в базе данных
Трек 7 нет в базе данных
Трек 8 нет в базе данных
Трек 9 нет в базе данных
Трек 10 нет в базе данных
Трек 11 нет в базе данных
Трек 12 нет в базе данных

Ни одного трека нет в базе AccurateRip

Конец отчёта


2001




01. Ты поверишь (ft. Филипп Киркоров) (4:44 )
02. На старт (3:31 )
03. Снежинка (ft. Татьяна Буланова) (3:39 )
04. Мой дом (3:45 )
05. May Drime (7:23 )
06. Горошины (ft. Катя Лель) (4:01 )
07. Разогнались (5:00 )
08. Я забуду о тебе (ft. гр. Карамель) (3:26 )
09. Я верю (4:44 )
10. №1 (5:50 )
Отчёт EAC
Exact Audio Copy V0.99 prebeta 5 from 4. May 2009

EAC extraction logfile from 27. August 2011, 9:47

DJ Цветкоff / Стартрек

Used drive : Optiarc DVD RW AD-7243S Adapter: 1 ID: 0

Read mode : Secure
Utilize accurate stream : Yes
Defeat audio cache : Yes
Make use of C2 pointers : No

Read offset correction : 48
Overread into Lead-In and Lead-Out : No
Fill up missing offset samples with silence : Yes
Delete leading and trailing silent blocks : No
Null samples used in CRC calculations : Yes
Used interface : Installed external ASPI interface

Used output format : User Defined Encoder
Selected bitrate : 1024 kBit/s
Quality : High
Add ID3 tag : No
Command line compressor : C:Program FilesExact Audio CopyFlacflac.exe
Additional command line options : -8 -V %s

TOC of the extracted CD

Track | Start | Length | Start sector | End sector
---------------------------------------------------------
1 | 0:00.00 | 4:46.28 | 0 | 21477
2 | 4:46.28 | 3:33.12 | 21478 | 37464
3 | 8:19.40 | 3:42.00 | 37465 | 54114
4 | 12:01.40 | 3:47.59 | 54115 | 71198
5 | 15:49.24 | 7:25.05 | 71199 | 104578
6 | 23:14.29 | 4:03.09 | 104579 | 122812
7 | 27:17.38 | 5:02.00 | 122813 | 145462
8 | 32:19.38 | 3:28.06 | 145463 | 161068
9 | 35:47.44 | 4:46.50 | 161069 | 182568
10 | 40:34.19 | 5:50.64 | 182569 | 208882

Range status and errors

Selected range

Filename G:Раздачи 2DJ ЦветкоffDJ Цветкоff - Стартрек.wav

Peak level 100.0 %
Range quality 100.0 %
Test CRC 61775B57
Copy CRC 61775B57
Copy OK

No errors occurred

AccurateRip summary

Track 1 not present in database
Track 2 not present in database
Track 3 not present in database
Track 4 not present in database
Track 5 not present in database
Track 6 not present in database
Track 7 not present in database
Track 8 not present in database
Track 9 not present in database
Track 10 not present in database

None of the tracks are present in the AccurateRip database

End of status report


2002




01. Интро (4:23 )
02. Starrt (3:31 )
03. Sweet Home (3:48 )
04. Загляни вперед (3:50 )
05. Где-то далеко (4:50 )
06. Реакция жизни (3:38 )
07. Они (4:25 )
08. The One (5:51 )
09. Я хочуь быть 100-бой (4:17 )
10. Двигайся (4:37 )
11. Я верю (4:43 )
12. Розогнались (5:02 )
13. Там, где свет (5:20 )
14. May Drime (7:23 )
Отчёт EAC
Exact Audio Copy V0.99 prebeta 5 from 4. May 2009

EAC extraction logfile from 27. August 2011, 10:36

DJ Цветкоff / Новое избранное

Used drive : Optiarc DVD RW AD-7243S Adapter: 1 ID: 0

Read mode : Secure
Utilize accurate stream : Yes
Defeat audio cache : Yes
Make use of C2 pointers : No

Read offset correction : 48
Overread into Lead-In and Lead-Out : No
Fill up missing offset samples with silence : Yes
Delete leading and trailing silent blocks : No
Null samples used in CRC calculations : Yes
Used interface : Installed external ASPI interface

Used output format : User Defined Encoder
Selected bitrate : 1024 kBit/s
Quality : High
Add ID3 tag : No
Command line compressor : C:Program FilesExact Audio CopyFlacflac.exe
Additional command line options : -8 -V %s

TOC of the extracted CD

Track | Start | Length | Start sector | End sector
---------------------------------------------------------
1 | 0:00.00 | 4:23.02 | 0 | 19726
2 | 4:23.02 | 3:31.50 | 19727 | 35601
3 | 7:54.52 | 3:48.09 | 35602 | 52710
4 | 11:42.61 | 3:50.61 | 52711 | 70021
5 | 15:33.47 | 4:50.50 | 70022 | 91821
6 | 20:24.22 | 3:38.12 | 91822 | 108183
7 | 24:02.34 | 4:25.54 | 108184 | 128112
8 | 28:28.13 | 5:51.21 | 128113 | 154458
9 | 34:19.34 | 4:17.61 | 154459 | 173794
10 | 38:37.20 | 4:37.38 | 173795 | 194607
11 | 43:14.58 | 4:43.53 | 194608 | 215885
12 | 47:58.36 | 5:02.11 | 215886 | 238546
13 | 53:00.47 | 5:20.67 | 238547 | 262613
14 | 58:21.39 | 7:23.27 | 262614 | 295865

Range status and errors

Selected range

Filename G:Раздачи 2DJ ЦветкоffDJ Цветкоff - Новое избранное.wav

Peak level 100.0 %
Range quality 100.0 %
Test CRC 85D5967E
Copy CRC 85D5967E
Copy OK

No errors occurred

AccurateRip summary

Track 1 not present in database
Track 2 not present in database
Track 3 not present in database
Track 4 not present in database
Track 5 not present in database
Track 6 not present in database
Track 7 not present in database
Track 8 not present in database
Track 9 not present in database
Track 10 not present in database
Track 11 not present in database
Track 12 not present in database
Track 13 not present in database
Track 14 not present in database

None of the tracks are present in the AccurateRip database

End of status report


2002




01. Topmodelz - Fly On The Wings Of Love (Extended Version)
02. Vincent Parker - Hello (Kosmonova Cosmos & Seven Remix)
03. Dj Loop - Spring 2002
04. Clan Dj Team - The Groove Has Changed (Club Mix)
05. Eddie Spagheddie - Was Wollen Wir Trinken (Club Mix)
06. Creambase 1 - Take The Cake (Extended Mix)
07. Flashrider - Attenzione (Flashrider Mix)
08. Rhythm Gangsta - The Crowd Song (Dons Remix)
09. Drunkenmunky - E (Dj Boozywoozy Remix)
10. Dj Schwede - Soldier Of Fortune 2002
11. Flashrider - Attenzione (Jens O Remix)
12. Telltale Signs - - Partypimp (Original Mix)
Отчёт EAC
Exact Audio Copy V1.0 beta 2 from 29. April 2011

Отчёт EAC об извлечении, выполненном 2. апреля 2012, 20:47

Unknown Artist / Unknown Title

Дисковод: Optiarc BD RW BD-5300S Adapter: 2 ID: 0

Режим чтения : Скоростной

Коррекция смещения при чтении : 0
Способность читать области Lead-in и Lead-out : Нет
Заполнение пропущенных сэмплов тишиной : Да
Удаление блоков с тишиной в начале и конце : Нет
При вычислениях CRC использовались нулевые сэмплы : Нет
Интерфейс : Встроенный Win32-интерфейс для Win NT/2000

Выходной формат : Пользовательский кодировщик
Выбранный битрейт : 1024 kBit/s
Качество : Высокий
Добавление ID3-тега : Нет
Утилита сжатия : C:Program FilesExact Audio CopyFLACFLAC.EXE
Дополнительные параметры : -6 -V -T "ARTIST=%artist%" -T "TITLE=%title%" -T "ALBUM=%albumtitle%" -T "DATE=%year%" -T "TRACKNUMBER=%tracknr%" -T "GENRE=%genre%" -T "COMMENT=%comment%" -T "BAND=%albuminterpret%" -T "COMPOSER=%composer%" %haslyrics%--tag-from-

TOC извлечённого CD

Трек | Старт | Длительность | Начальный сектор | Конечный сектор
---------------------------------------------------------------------
1 | 0:00.00 | 6:25.16 | 0 | 28890
2 | 6:25.16 | 5:04.52 | 28891 | 51742
3 | 11:29.68 | 5:09.30 | 51743 | 74947
4 | 16:39.23 | 4:29.32 | 74948 | 95154
5 | 21:08.55 | 4:33.67 | 95155 | 115696
6 | 25:42.47 | 6:15.65 | 115697 | 143886
7 | 31:58.37 | 5:50.06 | 143887 | 170142
8 | 37:48.43 | 5:52.50 | 170143 | 196592
9 | 43:41.18 | 5:18.52 | 196593 | 220494
10 | 48:59.70 | 6:28.49 | 220495 | 249643
11 | 55:28.44 | 5:14.44 | 249644 | 273237
12 | 60:43.13 | 5:25.47 | 273238 | 297659

Характеристики диапазона извлечения и сообщения об ошибках

Выбранный диапазон

Имя файла C:UsersAdminDesktopDj_Цветкоff_(танц-пол)Dj_Цветкоff_(танц-пол).wav

Проблемы синхронизации 0:00:42

Пиковый уровень 100.0 %
Скорость извлечения 29.8 X
CRC копии 87E18A45
Копирование завершено

Ошибок не произошло

Конец отчёта


2003




01. Masterboy - I Need A Lover (Pulsedriver Remix) (5:31 )
02. Caba Kroll With Laurentiu Duta - I Can See The Light (Bass Bumpers Club Mix) (5:14 )
03. Alex Butcher - More & More (DJ Spacecase Meets Observer Mix) (4:59 )
04. 4 Clubbers - Someday (Future Breeze Vs Junkfood Junkies Remix) (4:42 )
05. X-Perience - It S A Sin (Groove Coverage Club Mix Long) (4:40 )
06. DJ Encore feat. Engelina - You Ve Got A Way (Tukan Club Mix) (6:41 )
07. Emma Shapplin - Spente La Stelle (Mauro Picotto & Yomanda Remix) (6:41 )
08. Grey T - Hey Baby (Club Mix) (4:31 )
09. Master Blaster - Hypnotic Tango (Klubbingman Club Mix) (5:54 )
10. Matty M - Party Down (Promo) (4:38 )
11. Drunkenmunky - Hungry For Your Love (4:52 )
12. Rave Allstars - Braucht Ihr Mehr (Extended Mix) (6:01 )
Отчёт EAC
Exact Audio Copy V0.99 prebeta 5 from 4. May 2009

EAC extraction logfile from 30. August 2011, 1:47

Various / DJ Цветкoff - Вперед

Used drive : Optiarc DVD RW AD-7243S Adapter: 1 ID: 0

Read mode : Secure
Utilize accurate stream : Yes
Defeat audio cache : Yes
Make use of C2 pointers : No

Read offset correction : 48
Overread into Lead-In and Lead-Out : No
Fill up missing offset samples with silence : Yes
Delete leading and trailing silent blocks : No
Null samples used in CRC calculations : Yes
Used interface : Installed external ASPI interface

Used output format : User Defined Encoder
Selected bitrate : 1024 kBit/s
Quality : High
Add ID3 tag : No
Command line compressor : C:Program FilesExact Audio CopyFlacflac.exe
Additional command line options : -8 -V %s

TOC of the extracted CD

Track | Start | Length | Start sector | End sector
---------------------------------------------------------
1 | 0:00.00 | 5:31.21 | 0 | 24845
2 | 5:31.21 | 5:14.24 | 24846 | 48419
3 | 10:45.45 | 4:59.27 | 48420 | 70871
4 | 15:44.72 | 4:42.31 | 70872 | 92052
5 | 20:27.28 | 4:40.55 | 92053 | 113107
6 | 25:08.08 | 6:42.01 | 113108 | 143258
7 | 31:50.09 | 6:41.48 | 143259 | 173381
8 | 38:31.57 | 4:31.62 | 173382 | 193768
9 | 43:03.44 | 5:54.49 | 193769 | 220367
10 | 48:58.18 | 4:38.10 | 220368 | 241227
11 | 53:36.28 | 4:52.44 | 241228 | 263171
12 | 58:28.72 | 6:01.56 | 263172 | 290302

Range status and errors

Selected range

Filename G:Раздачи 2DJ Цветкоff - Collection (FLAC)Various - DJ Цветкoff - Вперед.wav

Peak level 99.9 %
Range quality 99.9 %
Test CRC 309379C3
Copy CRC 309379C3
Copy OK

No errors occurred

AccurateRip summary

Track 1 not present in database
Track 2 not present in database
Track 3 not present in database
Track 4 not present in database
Track 5 not present in database
Track 6 not present in database
Track 7 not present in database
Track 8 not present in database
Track 9 not present in database
Track 10 not present in database
Track 11 not present in database
Track 12 not present in database

None of the tracks are present in the AccurateRip database

End of status report


2003




01. Rapid Decompression - Stay With Me (Markques Alternative X-Tended) (6:17 )
02. DJ Quicksilver - Equinoxe IV (Club Mix) (6:29 )
03. Voodoo & Serano - Overload (Pulverturm Rmx) (5:10 )
04. Scotty - Don't Cry Tonight (Scotty DIX vs. Full Gainer Remix) (5:31 )
05. Captain Hollywood - Flying High 2003 (CJ Stone Club Mix) (4:51 )
06. Tune Up! - Bass Test (5:19 )
07. 666 - Supa Dupa Fly (Club Caviar Remix) (5:26 )
08. Bad Boys DJ Team - Rock The Mic (Club Mix) (4:05 )
09. DJ Digress - Night System (5:57 )
10. Club Caviar - Speed It Up (4:56 )
11. DJ Gollum - Take My Heart (DJ Digress Remix) (4:16 )
12. 89ers - Kingston Town (Rave Raggae Mix) (5:46)
Отчёт EAC
Exact Audio Copy V0.99 prebeta 5 from 4. May 2009

EAC extraction logfile from 27. August 2011, 13:11

Various / DJ Цветкоff - Твоя Энергия

Used drive : Optiarc DVD RW AD-7243S Adapter: 1 ID: 0

Read mode : Secure
Utilize accurate stream : Yes
Defeat audio cache : Yes
Make use of C2 pointers : No

Read offset correction : 48
Overread into Lead-In and Lead-Out : No
Fill up missing offset samples with silence : Yes
Delete leading and trailing silent blocks : No
Null samples used in CRC calculations : Yes
Used interface : Installed external ASPI interface

Used output format : User Defined Encoder
Selected bitrate : 1024 kBit/s
Quality : High
Add ID3 tag : No
Command line compressor : C:Program FilesExact Audio CopyFlacflac.exe
Additional command line options : -8 -V %s

TOC of the extracted CD

Track | Start | Length | Start sector | End sector
---------------------------------------------------------
1 | 0:00.00 | 6:17.54 | 0 | 28328
2 | 6:17.54 | 6:29.39 | 28329 | 57542
3 | 12:47.18 | 5:10.25 | 57543 | 80817
4 | 17:57.43 | 5:31.45 | 80818 | 105687
5 | 23:29.13 | 4:51.12 | 105688 | 127524
6 | 28:20.25 | 5:19.18 | 127525 | 151467
7 | 33:39.43 | 5:26.54 | 151468 | 175971
8 | 39:06.22 | 4:05.46 | 175972 | 194392
9 | 43:11.68 | 5:57.49 | 194393 | 221216
10 | 49:09.42 | 4:56.20 | 221217 | 243436
11 | 54:05.62 | 4:17.02 | 243437 | 262713
12 | 58:22.64 | 5:46.19 | 262714 | 288682

Range status and errors

Selected range

Filename G:Раздачи 2DJ ЦветкоffVarious - DJ Цветкоff - Твоя Энергия.wav

Peak level 100.0 %
Range quality 100.0 %
Test CRC C166722F
Copy CRC C166722F
Copy OK

No errors occurred

AccurateRip summary

Track 1 not present in database
Track 2 not present in database
Track 3 not present in database
Track 4 not present in database
Track 5 not present in database
Track 6 not present in database
Track 7 not present in database
Track 8 not present in database
Track 9 not present in database
Track 10 not present in database
Track 11 not present in database
Track 12 not present in database

None of the tracks are present in the AccurateRip database

End of status report


2003




01. Culture Beat -Mr. Vain Recall (CJ Stone remix)
02. Tomcraft- Loneliness
03. Pulsedriver - Galaxy
04. Jordan & Baker - Explode
05. Sven-R-G vs. Bass-T - The Sing (pulsedriver vs. Rocco remix)
06. DJFrankie Jones - Sawfish
07. DJK - I like Chopin
08. B. da Project - Гармония
09. Superdrive - Love U More 2002
10. DJ Dave - Killing Me Softly
11. ATB - Let U Go
12. Bolenski Beat - You’re My Heart? You’re My Soul
Отчёт EAC
Exact Audio Copy V0.99 prebeta 4 from 23. January 2008

Отчёт EAC об извлечении, выполненном 2. марта 2009, 21:44

Dj Цветкоff / Полетели 03

Дисковод: Optiarc DVD RW AD-7530B Adapter: 1 ID: 0

Режим чтения : Достоверность
Использование точного потока : Да
Отключение кэша аудио : Да
Использование указателей C2 : Нет

Коррекция смещения при чтении : 6
Способность читать области Lead-in и Lead-out : Нет
Заполнение пропущенных сэмплов тишиной : Да
Удаление блоков с тишиной в начале и конце : Нет
При вычислениях CRC использовались нулевые сэмплы : Да
Интерфейс : Установленный внешний ASPI-интерфейс

Выходной формат : Пользовательский кодировщик
Выбранный битрейт : 1024 kBit/s
Качество : Высокий
Добавление ID3-тэга : Нет
Утилита сжатия : C:Program FilesExact Audio CopyFLACFLAC.EXE
Дополнительные параметры : -V -8 -T "artist=%a" -T "album=%g" -T "tracknumber=%n" %s
Смещение при сжатии : 0

TOC извлечённого CD

Трек | Старт | Длительность | Начальный сектор | Конечный сектор
---------------------------------------------------------------------
1 | 0:00.00 | 6:44.51 | 0 | 30350
2 | 6:44.51 | 6:34.42 | 30351 | 59942
3 | 13:19.18 | 6:27.69 | 59943 | 89036
4 | 19:47.12 | 3:46.12 | 89037 | 105998
5 | 23:33.24 | 3:34.07 | 105999 | 122055
6 | 27:07.31 | 5:09.14 | 122056 | 145244
7 | 32:16.45 | 5:39.32 | 145245 | 170701
8 | 37:56.02 | 5:23.28 | 170702 | 194954
9 | 43:19.30 | 7:01.19 | 194955 | 226548
10 | 50:20.49 | 6:34.68 | 226549 | 256166
11 | 56:55.42 | 4:30.25 | 256167 | 276441
12 | 61:25.67 | 5:21.00 | 276442 | 300516

Характеристики диапазона извлечения и сообщения об ошибках

Выбранный диапазон

Имя файла F:NetFolder-мTorrent-DJ Цветкоff - Полетели 03Dj Цветкоff - Полетели 03.wav

Пиковый уровень 100.0 %
Качество диапазона 99.8 %
CRC копии A95742E8
Копирование... OK

Ошибок не произошло

AccurateRip: сводка

Трек 1 нет в базе данных
Трек 2 нет в базе данных
Трек 3 нет в базе данных
Трек 4 нет в базе данных
Трек 5 нет в базе данных
Трек 6 нет в базе данных
Трек 7 нет в базе данных
Трек 8 нет в базе данных
Трек 9 нет в базе данных
Трек 10 нет в базе данных
Трек 11 нет в базе данных
Трек 12 нет в базе данных

Ни одного трека нет в базе AccurateRip

Конец отчёта


2003




01. DJ Цветкоff - Intro (2:47 )
02. FSM - Pulsar (FSM 7 pm Mix) (2:46 )
03. DJ Цветкоff - Мой дом (2:19 )
04. FSM - MayDay (2:19 )
05. DJ Цветкоff - Они звуЧат снова (2:52 )
06. FSM - Chicony Lab. (4:31 )
07. DJ Цветкоff - Там, где свет (4:36 )
08. FSM - People In Da 9 (Garage 2101 Mix) (2:47 )
09. DJ Цветкоff - Где-то далеко (3:54 )
10. FSM - Ain't No Sunshine (4:13 )
11. DJ Цветкоff - двигайся (3:35 )
12. FSM - House Ware (3:29 )
13. DJ Цветкоff - Загляни вперед (3:25 )
Отчёт EAC
Exact Audio Copy V0.99 prebeta 5 from 4. May 2009

EAC extraction logfile from 30. August 2011, 16:56

Various / DJ Цветкоff vs FSM

Used drive : Optiarc DVD RW AD-7243S Adapter: 1 ID: 0

Read mode : Secure
Utilize accurate stream : Yes
Defeat audio cache : Yes
Make use of C2 pointers : No

Read offset correction : 48
Overread into Lead-In and Lead-Out : No
Fill up missing offset samples with silence : Yes
Delete leading and trailing silent blocks : No
Null samples used in CRC calculations : Yes
Used interface : Installed external ASPI interface

Used output format : User Defined Encoder
Selected bitrate : 1024 kBit/s
Quality : High
Add ID3 tag : No
Command line compressor : C:Program FilesExact Audio CopyFlacflac.exe
Additional command line options : -8 -V %s

TOC of the extracted CD

Track | Start | Length | Start sector | End sector
---------------------------------------------------------
1 | 0:00.00 | 2:47.61 | 0 | 12585
2 | 2:47.61 | 2:46.71 | 12586 | 25106
3 | 5:34.57 | 2:19.15 | 25107 | 35546
4 | 7:53.72 | 2:19.19 | 35547 | 45990
5 | 10:13.16 | 2:52.48 | 45991 | 58938
6 | 13:05.64 | 4:31.36 | 58939 | 79299
7 | 17:37.25 | 4:36.25 | 79300 | 100024
8 | 22:13.50 | 2:47.35 | 100025 | 112584
9 | 25:01.10 | 3:54.53 | 112585 | 130187
10 | 28:55.63 | 4:13.22 | 130188 | 149184
11 | 33:09.10 | 3:35.11 | 149185 | 165320
12 | 36:44.21 | 3:29.51 | 165321 | 181046
13 | 40:13.72 | 3:26.06 | 181047 | 196502

Range status and errors

Selected range

Filename G:Раздачи 2DJ Цветкоff - Collection (FLAC)Various - DJ Цветкоff vs FSM.wav

Peak level 100.0 %
Range quality 100.0 %
Test CRC A26A70E5
Copy CRC A26A70E5
Copy OK

No errors occurred

AccurateRip summary

Track 1 not present in database
Track 2 not present in database
Track 3 not present in database
Track 4 not present in database
Track 5 not present in database
Track 6 not present in database
Track 7 not present in database
Track 8 not present in database
Track 9 not present in database
Track 10 not present in database
Track 11 not present in database
Track 12 not present in database
Track 13 not present in database

None of the tracks are present in the AccurateRip database

End of status report


2004




01. Monza United - Makes U Yeah (Club Mix) (6:36 )
02. Neokid - On And On (Rocket Base Remix) (7:58 )
03. Brain Inc - Running Man (Beta Trance Mix) (6:58 )
04. Inspiration Vibes - Get Wicked (Drum Vibes Club Mix) (7:08 )
05. DJ Tsvetkoff - Танцевать! (3:54 )
06. B.Da Project - Яблочко (4:01 )
07. Micado Punchers - Witness Of The Business (Club Mix) (6:41 )
08. Mark Brain - Datacity (7:01 )
09. Metro Rockers feat. Djane Venus - Drummer Get Wicked (Club Mix) (7:09 )
10. Sunblind - Believe (Nu NRG Extended Mix) (6:33 )
11. Voltaxx & Lissat - Listen To The Music (Club Mix) (6:59 )
12. Sasha Dith - Tell Me Why? (Club Mix) (7:01 )
Отчёт EAC
Exact Audio Copy V0.99 prebeta 5 from 4. May 2009

EAC extraction logfile from 27. August 2011, 14:00

Various / DJ Цветкоff представляет - Euro Trance 2004

Used drive : Optiarc DVD RW AD-7243S Adapter: 1 ID: 0

Read mode : Secure
Utilize accurate stream : Yes
Defeat audio cache : Yes
Make use of C2 pointers : No

Read offset correction : 48
Overread into Lead-In and Lead-Out : No
Fill up missing offset samples with silence : Yes
Delete leading and trailing silent blocks : No
Null samples used in CRC calculations : Yes
Used interface : Installed external ASPI interface

Used output format : User Defined Encoder
Selected bitrate : 1024 kBit/s
Quality : High
Add ID3 tag : No
Command line compressor : C:Program FilesExact Audio CopyFlacflac.exe
Additional command line options : -8 -V %s

TOC of the extracted CD

Track | Start | Length | Start sector | End sector
---------------------------------------------------------
1 | 0:00.00 | 6:38.27 | 0 | 29876
2 | 6:38.27 | 8:00.33 | 29877 | 65909
3 | 14:38.60 | 7:00.07 | 65910 | 97416
4 | 21:38.67 | 7:10.12 | 97417 | 129678
5 | 28:49.04 | 3:56.65 | 129679 | 147443
6 | 32:45.69 | 4:03.66 | 147444 | 165734
7 | 36:49.60 | 6:44.00 | 165735 | 196034
8 | 43:33.60 | 7:03.33 | 196035 | 227792
9 | 50:37.18 | 7:11.36 | 227793 | 260153
10 | 57:48.54 | 6:35.09 | 260154 | 289787
11 | 64:23.63 | 7:01.40 | 289788 | 321402
12 | 71:25.28 | 7:01.41 | 321403 | 353018

Range status and errors

Selected range

Filename G:Раздачи 2DJ ЦветкоffVarious - DJ Цветкоff представляет - Euro Trance 2004.wav

Peak level 100.0 %
Range quality 99.9 %
Test CRC EC3DBFA5
Copy CRC EC3DBFA5
Copy OK

No errors occurred

AccurateRip summary

Track 1 not present in database
Track 2 not present in database
Track 3 not present in database
Track 4 not present in database
Track 5 not present in database
Track 6 not present in database
Track 7 not present in database
Track 8 not present in database
Track 9 not present in database
Track 10 not present in database
Track 11 not present in database
Track 12 not present in database

None of the tracks are present in the AccurateRip database

End of status report


2004




01. Дискотека Авария & DJ Цветкоff - Песенка разбойников (Club Mix) (5:02 )
02. Special D - Reckless (3:52 )
03. Techno Citizens - Timeslot (A Question Of Time) (DJ Gollum Rmx) (6:08 )
04. Pulsedriver - Beat Bangs (Tune Up RMX) (4:40 )
05. Rumble! - Oh Ne Ne (Do You Remember?) (Mark Smile) (5:18 )
06. Radical Noiz feat. Adeva - In & Out (Da Hool Rmx) (3:46 )
07. Klubbheroes - Poco Loco (Poco Mix) (5:06 )
08. Virus Inc. - The Virus (Orig Club Mix) (6:19 )
09. Rocco - One Two Three (Club Mix) (5:01 )
10. Bad Habbit Boys - King Of Trash (Potatoheads Rmx) (5:55 )
11. Milk Inc - In My Eyes (DJ DBC Club Mix) (5:07 )
12. Alphazone - Revelation (Original Mix) (6:55 )
Отчёт EAC
Exact Audio Copy V0.99 prebeta 5 from 4. May 2009

EAC extraction logfile from 30. August 2011, 9:57

Various / DJ Цветкоff - Полетели 04

Used drive : Optiarc DVD RW AD-7243S Adapter: 1 ID: 0

Read mode : Secure
Utilize accurate stream : Yes
Defeat audio cache : Yes
Make use of C2 pointers : No

Read offset correction : 48
Overread into Lead-In and Lead-Out : No
Fill up missing offset samples with silence : Yes
Delete leading and trailing silent blocks : No
Null samples used in CRC calculations : Yes
Used interface : Installed external ASPI interface

Used output format : User Defined Encoder
Selected bitrate : 1024 kBit/s
Quality : High
Add ID3 tag : No
Command line compressor : C:Program FilesExact Audio CopyFlacflac.exe
Additional command line options : -8 -V %s

TOC of the extracted CD

Track | Start | Length | Start sector | End sector
---------------------------------------------------------
1 | 0:00.00 | 5:02.70 | 0 | 22719
2 | 5:02.70 | 3:52.01 | 22720 | 40120
3 | 8:54.71 | 6:08.39 | 40121 | 67759
4 | 15:03.35 | 4:40.37 | 67760 | 88796
5 | 19:43.72 | 5:18.28 | 88797 | 112674
6 | 25:02.25 | 3:46.48 | 112675 | 129672
7 | 28:48.73 | 5:06.17 | 129673 | 152639
8 | 33:55.15 | 6:19.23 | 152640 | 181087
9 | 40:14.38 | 5:01.40 | 181088 | 203702
10 | 45:16.03 | 5:55.57 | 203703 | 230384
11 | 51:11.60 | 5:07.59 | 230385 | 253468
12 | 56:19.44 | 6:55.18 | 253469 | 284611

Range status and errors

Selected range

Filename G:Раздачи 2DJ Цветкоff - Collection (FLAC)Various - DJ Цветкоff - Полетели 04.wav

Peak level 98.3 %
Range quality 99.9 %
Test CRC F9FD9B34
Copy CRC F9FD9B34
Copy OK

No errors occurred

AccurateRip summary

Track 1 not present in database
Track 2 not present in database
Track 3 not present in database
Track 4 not present in database
Track 5 not present in database
Track 6 not present in database
Track 7 not present in database
Track 8 not present in database
Track 9 not present in database
Track 10 not present in database
Track 11 not present in database
Track 12 not present in database

None of the tracks are present in the AccurateRip database

End of status report


2004




01. DJ Цветкоff - Гимн ЦСК (3:12 )
02. Sasha Dith - Tell Me Why (Extended Mix) (3:30 )
03. Mandaryna - L'Ete Indien (Flashrider Remix) (4:31 )
04. Commander Tom - Attention (F&W Remix) (6:06 )
05. Scarf! - Odysee (PlazmaTek Remix) (6:02 )
06. Springbreak - Big Bad Love (Cascada Remix) (5:19 )
07. DJ Цветкоff - Тaнцeвaть! (Raduga & DJ Flexor Remix) (6:57 )
08. Pulsedriver - Slammin' (Tune Up! Remix) (5:16 )
09. Drunkenmunky - Calabria (Euro Mix) (4:14 )
10. Marc Korn - Summer Of Love (Mysterio Club Mix) (5:51 )
11. Mike Heart - Sex Machine (Original Mix) (5:50 )
12. Bulldozzer - Face The Base (Pulsedriver Remix) (4:53 )
Отчёт EAC
Exact Audio Copy V0.99 prebeta 5 from 4. May 2009

EAC extraction logfile from 27. August 2011, 14:40

Various / DJ Цветкоff - Разрыв

Used drive : Optiarc DVD RW AD-7243S Adapter: 1 ID: 0

Read mode : Secure
Utilize accurate stream : Yes
Defeat audio cache : Yes
Make use of C2 pointers : No

Read offset correction : 48
Overread into Lead-In and Lead-Out : No
Fill up missing offset samples with silence : Yes
Delete leading and trailing silent blocks : No
Null samples used in CRC calculations : Yes
Used interface : Installed external ASPI interface

Used output format : User Defined Encoder
Selected bitrate : 1024 kBit/s
Quality : High
Add ID3 tag : No
Command line compressor : C:Program FilesExact Audio CopyFlacflac.exe
Additional command line options : -8 -V %s

TOC of the extracted CD

Track | Start | Length | Start sector | End sector
---------------------------------------------------------
1 | 0:00.00 | 3:12.66 | 0 | 14465
2 | 3:12.66 | 3:30.00 | 14466 | 30215
3 | 6:42.66 | 4:31.44 | 30216 | 50584
4 | 11:14.35 | 6:06.27 | 50585 | 78061
5 | 17:20.62 | 6:02.60 | 78062 | 105271
6 | 23:23.47 | 5:19.61 | 105272 | 129257
7 | 28:43.33 | 6:57.69 | 129258 | 160601
8 | 35:41.27 | 5:16.43 | 160602 | 184344
9 | 40:57.70 | 4:14.11 | 184345 | 203405
10 | 45:12.06 | 5:51.09 | 203406 | 229739
11 | 51:03.15 | 5:50.37 | 229740 | 256026
12 | 56:53.52 | 4:53.54 | 256027 | 278055

Range status and errors

Selected range

Filename G:Раздачи 2DJ ЦветкоffVarious - DJ Цветкоff - Разрыв.wav

Peak level 100.0 %
Range quality 100.0 %
Test CRC D56DF66F
Copy CRC D56DF66F
Copy OK

No errors occurred

AccurateRip summary

Track 1 not present in database
Track 2 not present in database
Track 3 not present in database
Track 4 not present in database
Track 5 not present in database
Track 6 not present in database
Track 7 not present in database
Track 8 not present in database
Track 9 not present in database
Track 10 not present in database
Track 11 not present in database
Track 12 not present in database

None of the tracks are present in the AccurateRip database

End of status report


2004




01. Таня Буланова & DJ Цветкоff/Бескрылая Любовь (Club Mix) (5:14 )
02. Grooove Coverage/Poison (Tune Up Mix) (5:26 )
03. Y.O.M.C./Baila (La Cosa Mas Bonito Del Mundo) (6:52 )
04. Neo Cortex/Elements 2004 (Club Mix) (7:07 )
05. Skam/The Final Countdown (Original Skammix) (4:35 )
06. Lichtenfels/Kill The Silence (Club Mix) (6:13 )
07. Butcher/Don't Let The Sun Go Down (Stagedivers Mix) (5:41 )
08. DJ's @ Work/Some Years Ago (Club Mix) (4:17 )
09. Flashrider/Sex In The Club (Club Mix) (5:52 )
10. Casteam/Holiday Time (Klubbmastaz Rmx) (6:04 )
11. Space Brothers/One More Chance (Resonance Q Rmx) (3:29 )
12. DJ Rock/The Big Beat (Funkey Chicken Mix) (5:57 )
Отчёт EAC
Exact Audio Copy V0.99 prebeta 4 from 23. January 2008

Отчёт EAC об извлечении, выполненном 2. марта 2009, 23:05

DJ ??????ff / MegaSound

Дисковод: Optiarc DVD RW AD-7530B Adapter: 1 ID: 0

Режим чтения : Достоверность
Использование точного потока : Да
Отключение кэша аудио : Да
Использование указателей C2 : Нет

Коррекция смещения при чтении : 6
Способность читать области Lead-in и Lead-out : Нет
Заполнение пропущенных сэмплов тишиной : Да
Удаление блоков с тишиной в начале и конце : Нет
При вычислениях CRC использовались нулевые сэмплы : Да
Интерфейс : Установленный внешний ASPI-интерфейс

Выходной формат : Пользовательский кодировщик
Выбранный битрейт : 1024 kBit/s
Качество : Высокий
Добавление ID3-тэга : Нет
Утилита сжатия : C:Program FilesExact Audio CopyFLACFLAC.EXE
Дополнительные параметры : -6 -V -T "ARTIST=%a" -T "TITLE=%t" -T "ALBUM=%g" -T "DATE=%y" -T "TRACKNUMBER=%n" -T "GENRE=%m" -T "COMMENT=%e" %s -o %d
Смещение при сжатии : 0

TOC извлечённого CD

Трек | Старт | Длительность | Начальный сектор | Конечный сектор
---------------------------------------------------------------------
1 | 0:00.00 | 5:14.57 | 0 | 23606
2 | 5:14.57 | 5:26.51 | 23607 | 48107
3 | 10:41.33 | 6:52.41 | 48108 | 79048
4 | 17:33.74 | 7:07.43 | 79049 | 111116
5 | 24:41.42 | 4:35.45 | 111117 | 131786
6 | 29:17.12 | 6:13.27 | 131787 | 159788
7 | 35:30.39 | 5:41.42 | 159789 | 185405
8 | 41:12.06 | 4:17.14 | 185406 | 204694
9 | 45:29.20 | 5:52.43 | 204695 | 231137
10 | 51:21.63 | 6:03.74 | 231138 | 258436
11 | 57:25.62 | 3:29.14 | 258437 | 274125
12 | 60:55.01 | 5:56.74 | 274126 | 300899

Характеристики диапазона извлечения и сообщения об ошибках

Выбранный диапазон

Имя файла F:NetFolder-мTorrent-DJ Цветкоff - MegaSoundDJ ff - MegaSound.wav

Пиковый уровень 97.7 %
Качество диапазона 99.9 %
CRC копии BDB939CB
Копирование... OK

Ошибок не произошло

AccurateRip: сводка

Трек 1 нет в базе данных
Трек 2 нет в базе данных
Трек 3 нет в базе данных
Трек 4 нет в базе данных
Трек 5 нет в базе данных
Трек 6 нет в базе данных
Трек 7 нет в базе данных
Трек 8 нет в базе данных
Трек 9 нет в базе данных
Трек 10 нет в базе данных
Трек 11 нет в базе данных
Трек 12 нет в базе данных

Ни одного трека нет в базе AccurateRip

Конец отчёта


2005




01. Дискотека Авария & DJ Цветкoff - Если хочешь остаться (Club Mix) (6:30 )
02. 666 - Policia (666 Alerta! Mix) (4:18 )
03. DJ Цветкoff - Mega Move (Club Mix) (6:02 )
04. DJ Jean - Every Single Day (Commander Tom Remix) (5:38 )
05. Age Pee - When The Rain Begins To Fall (Axel Konrad Remix) (6:18 )
06. Alex Megane vs Marc Van Damme - Hava Nagila (Club Mix) (4:58 )
07. United Beats - Por Que No (Alex Megane vs Marc Van Damme Remix) (6:52 )
08. Van Zanten - Fuckin' Fresh Beats (Van Zanten Mix) (5:32 )
09. Casteam - The Party Never Stop (Club Mix) (6:03 )
10. Godz Gift - Keep It Up (Club Mix) (5:13 )
11. DJ Цветкoff pres. Monza United - Mega Move (Monza United Rmx) (4:55 )
12. Marc Korn & DJ E-Maxx pres. Nightclubbers - Living The Life (Clubgroovers Rmx) (4:13 )
13. Bonus Track: Дискотека Авария & DJ Цветкoff - Песенка Разбойников (4:04 )
Отчёт EAC
Exact Audio Copy V0.99 prebeta 5 from 4. May 2009

EAC extraction logfile from 27. August 2011, 15:36

Various / DJ Цветкoff - Скорость

Used drive : Optiarc DVD RW AD-7243S Adapter: 1 ID: 0

Read mode : Secure
Utilize accurate stream : Yes
Defeat audio cache : Yes
Make use of C2 pointers : No

Read offset correction : 48
Overread into Lead-In and Lead-Out : No
Fill up missing offset samples with silence : Yes
Delete leading and trailing silent blocks : No
Null samples used in CRC calculations : Yes
Used interface : Installed external ASPI interface

Used output format : User Defined Encoder
Selected bitrate : 1024 kBit/s
Quality : High
Add ID3 tag : No
Command line compressor : C:Program FilesExact Audio CopyFlacflac.exe
Additional command line options : -8 -V %s

TOC of the extracted CD

Track | Start | Length | Start sector | End sector
---------------------------------------------------------
1 | 0:00.00 | 6:30.67 | 0 | 29316
2 | 6:30.67 | 4:18.52 | 29317 | 48718
3 | 10:49.44 | 6:02.41 | 48719 | 75909
4 | 16:52.10 | 5:38.62 | 75910 | 101321
5 | 22:30.72 | 6:18.12 | 101322 | 129683
6 | 28:49.09 | 4:58.71 | 129684 | 152104
7 | 33:48.05 | 6:52.08 | 152105 | 183012
8 | 40:40.13 | 5:32.46 | 183013 | 207958
9 | 46:12.59 | 6:03.15 | 207959 | 235198
10 | 52:15.74 | 5:13.03 | 235199 | 258676
11 | 57:29.02 | 4:55.09 | 258677 | 280810
12 | 62:24.11 | 4:13.48 | 280811 | 299833
13 | 66:37.59 | 4:04.37 | 299834 | 318170

Range status and errors

Selected range

Filename G:Раздачи 2DJ ЦветкоffVarious - DJ Цветкoff - Скорость.wav

Peak level 100.0 %
Range quality 100.0 %
Test CRC B17A61BB
Copy CRC B17A61BB
Copy OK

No errors occurred

AccurateRip summary

Track 1 not present in database
Track 2 not present in database
Track 3 not present in database
Track 4 not present in database
Track 5 not present in database
Track 6 not present in database
Track 7 not present in database
Track 8 not present in database
Track 9 not present in database
Track 10 not present in database
Track 11 not present in database
Track 12 not present in database
Track 13 not present in database

None of the tracks are present in the AccurateRip database

End of status report


2005




01. DJ Цветкоff - 10 Years Annivarsary (Intro) (1:51 )
02. Dj Цветкоff & Lucky - Друзья (Energy Club Mix) (7:12 )
03. Antibazz vs. Deep Melange - Wonderful Life (Club Mix) (5:06 )
04. Klubbdriver - Move Your Feet (Pulsedriver Pizzi Mix) (4:13 )
05. Tova - Rebel (Alex Trackone & Dj Napo Rmx) (5:37 )
06. Raduga - Говорит Москва (2:48 )
07. Dj Alligator - Screw You (3:08 )
08. Stuart feat. Maxine - Fuel To Fire (Tomer G Rmx) (6:33 )
09. Da Franco - Show Me (Club Mix) (5:10 )
10. Klubbdriver - Move Your Feet (Klubbheads Bamboo Mix) (5:07 )
11. TOKAbeatz - Whatever It Takes (Deekays Rmx) (7:53 )
12. Jens O - One More (Club Mix) (5:48 )
Отчёт EAC
Exact Audio Copy V0.99 prebeta 5 from 4. May 2009

EAC extraction logfile from 27. August 2011, 16:24

Various / DJ Цветкоff - 10 лет в движении

Used drive : Optiarc DVD RW AD-7243S Adapter: 1 ID: 0

Read mode : Secure
Utilize accurate stream : Yes
Defeat audio cache : Yes
Make use of C2 pointers : No

Read offset correction : 48
Overread into Lead-In and Lead-Out : No
Fill up missing offset samples with silence : Yes
Delete leading and trailing silent blocks : No
Null samples used in CRC calculations : Yes
Used interface : Installed external ASPI interface

Used output format : User Defined Encoder
Selected bitrate : 1024 kBit/s
Quality : High
Add ID3 tag : No
Command line compressor : C:Program FilesExact Audio CopyFlacflac.exe
Additional command line options : -8 -V %s

TOC of the extracted CD

Track | Start | Length | Start sector | End sector
---------------------------------------------------------
1 | 0:00.00 | 1:51.57 | 0 | 8381
2 | 1:51.57 | 7:12.10 | 8382 | 40791
3 | 9:03.67 | 5:06.33 | 40792 | 63774
4 | 14:10.25 | 4:13.17 | 63775 | 82766
5 | 18:23.42 | 5:37.41 | 82767 | 108082
6 | 24:01.08 | 2:48.22 | 108083 | 120704
7 | 26:49.30 | 3:08.43 | 120705 | 134847
8 | 29:57.73 | 6:33.56 | 134848 | 164378
9 | 36:31.54 | 5:10.71 | 164379 | 187699
10 | 41:42.50 | 5:07.67 | 187700 | 210791
11 | 46:50.42 | 7:53.48 | 210792 | 246314
12 | 54:44.15 | 5:48.06 | 246315 | 272420

Range status and errors

Selected range

Filename G:Раздачи 2DJ ЦветкоffVarious - DJ Цветкоff - 10 лет в движении.wav

Peak level 98.7 %
Range quality 100.0 %
Test CRC 3510AFE4
Copy CRC 3510AFE4
Copy OK

No errors occurred

AccurateRip summary

Track 1 not present in database
Track 2 not present in database
Track 3 not present in database
Track 4 not present in database
Track 5 not present in database
Track 6 not present in database
Track 7 not present in database
Track 8 not present in database
Track 9 not present in database
Track 10 not present in database
Track 11 not present in database
Track 12 not present in database

None of the tracks are present in the AccurateRip database

End of status report


2005




01. DJ Цветкоff - Реакция жизни (3:38 )
02. Madmax - Arround The Dance Floor (3:38 )
03. DJ Цветкоff - Там, где свет (5:03 )
04. Madmax - You Can (3:41 )
05. DJ Цветкоff - Разогнались (4:34 )
06. Madmax - Ain't No Sunshine (4:34 )
07. DJ Цветкоff - Я хочу быть с тобой (3:05 )
08. Madmax - House Ware (4:13 )
09. DJ Цветкоff - Загляни вперед (3:28 )
10. Madmax - Funk Now (Stopped Popmix) (3:19 )
11. DJ Цветкоff - Двигайся (4:37 )
12. Madmax - 1980 Crazy Brain (4:17 )
Отчёт EAC
Exact Audio Copy V0.99 prebeta 5 from 4. May 2009

EAC extraction logfile from 27. August 2011, 17:25

Various / Битва Титанов - Цветкоff vs Madmax

Used drive : Optiarc DVD RW AD-7243S Adapter: 1 ID: 0

Read mode : Secure
Utilize accurate stream : Yes
Defeat audio cache : Yes
Make use of C2 pointers : No

Read offset correction : 48
Overread into Lead-In and Lead-Out : No
Fill up missing offset samples with silence : Yes
Delete leading and trailing silent blocks : No
Null samples used in CRC calculations : Yes
Used interface : Installed external ASPI interface

Used output format : User Defined Encoder
Selected bitrate : 1024 kBit/s
Quality : High
Add ID3 tag : No
Command line compressor : C:Program FilesExact Audio CopyFlacflac.exe
Additional command line options : -8 -V %s

TOC of the extracted CD

Track | Start | Length | Start sector | End sector
---------------------------------------------------------
1 | 0:00.00 | 3:38.09 | 0 | 16358
2 | 3:38.09 | 3:38.39 | 16359 | 32747
3 | 7:16.48 | 5:03.59 | 32748 | 55531
4 | 12:20.32 | 3:41.22 | 55532 | 72128
5 | 16:01.54 | 4:34.32 | 72129 | 92710
6 | 20:36.11 | 4:34.60 | 92711 | 113320
7 | 25:10.71 | 3:05.56 | 113321 | 127251
8 | 28:16.52 | 4:12.72 | 127252 | 146223
9 | 32:29.49 | 3:28.31 | 146224 | 161854
10 | 35:58.05 | 3:19.37 | 161855 | 176816
11 | 39:17.42 | 4:37.25 | 176817 | 197616
12 | 43:54.67 | 4:17.72 | 197617 | 216963

Range status and errors

Selected range

Filename G:Раздачи 2DJ ЦветкоffVarious - Битва Титанов - Цветкоff vs Madmax.wav

Peak level 100.0 %
Range quality 100.0 %
Test CRC 0EE52BAF
Copy CRC 0EE52BAF
Copy OK

No errors occurred

AccurateRip summary

Track 1 not present in database
Track 2 not present in database
Track 3 not present in database
Track 4 not present in database
Track 5 not present in database
Track 6 not present in database
Track 7 not present in database
Track 8 not present in database
Track 9 not present in database
Track 10 not present in database
Track 11 not present in database
Track 12 not present in database

None of the tracks are present in the AccurateRip database

End of status report


2005




01. DJ Цветкоff - Двигайся (4:32 )
02. Radiotrance - Party (4:40 )
03. DJ Цветкоff - Я хочу быть с тобой (4:17 )
04. Radiotrance - Когда ты уснешь (6:04 )
05. DJ Цветкоff - Мой дом (3:16 )
06. Radiotrance - Бэйби (4:30 )
07. DJ Цветкоff - На старт (2:51 )
08. Radiotrance - Восток-5 (6:01 )
09. DJ Цветкоff - Загляни вперед (3:17 )
10. Radiotrance - Ледяной мир (Dream Mix) (5:40 )
11. DJ Цветкоff - Разогнались (4:44 )
12. Radiotrance - Плазма (6:53 )
Отчёт EAC
Exact Audio Copy V0.99 prebeta 5 from 4. May 2009

EAC extraction logfile from 27. August 2011, 18:07

Various / Битва титанов - DJ Цветкоff vs Radiotrance

Used drive : Optiarc DVD RW AD-7243S Adapter: 1 ID: 0

Read mode : Secure
Utilize accurate stream : Yes
Defeat audio cache : Yes
Make use of C2 pointers : No

Read offset correction : 48
Overread into Lead-In and Lead-Out : No
Fill up missing offset samples with silence : Yes
Delete leading and trailing silent blocks : No
Null samples used in CRC calculations : Yes
Used interface : Installed external ASPI interface

Used output format : User Defined Encoder
Selected bitrate : 1024 kBit/s
Quality : High
Add ID3 tag : No
Command line compressor : C:Program FilesExact Audio CopyFlacflac.exe
Additional command line options : -8 -V %s

TOC of the extracted CD

Track | Start | Length | Start sector | End sector
---------------------------------------------------------
1 | 0:00.00 | 4:32.11 | 0 | 20410
2 | 4:32.11 | 4:40.50 | 20411 | 41460
3 | 9:12.61 | 4:17.16 | 41461 | 60751
4 | 13:30.02 | 6:04.20 | 60752 | 88071
5 | 19:34.22 | 3:16.34 | 88072 | 102805
6 | 22:50.56 | 4:30.12 | 102806 | 123067
7 | 27:20.68 | 2:51.12 | 123068 | 135904
8 | 30:12.05 | 6:01.50 | 135905 | 163029
9 | 36:13.55 | 3:17.29 | 163030 | 177833
10 | 39:31.09 | 5:40.02 | 177834 | 203335
11 | 45:11.11 | 4:44.57 | 203336 | 224692
12 | 49:55.68 | 6:53.21 | 224693 | 255688

Range status and errors

Selected range

Filename G:Раздачи 2DJ ЦветкоffVarious - Битва титанов - DJ Цветкоff vs Radiotrance.wav

Peak level 100.0 %
Range quality 100.0 %
Test CRC 1F59860E
Copy CRC 1F59860E
Copy OK

No errors occurred

AccurateRip summary

Track 1 not present in database
Track 2 not present in database
Track 3 not present in database
Track 4 not present in database
Track 5 not present in database
Track 6 not present in database
Track 7 not present in database
Track 8 not present in database
Track 9 not present in database
Track 10 not present in database
Track 11 not present in database
Track 12 not present in database

None of the tracks are present in the AccurateRip database

End of status report


2005




01. DJ Цветкоff - Двигайся (4:48 )
02. FSM - Common Woman (3:42 )
03. DJ Цветкоff - Загляни вперед (3:15 )
04. FSM - Music For The Brain (3:42 )
05. DJ Цветкоff - Где-то далеко (4:15 )
06. FSM - Ibiza (5:21 )
07. DJ Цветкоff - Разогнались (4:38 )
08. FSM - Magic Bass (3:35 )
09. DJ Цветкоff - Там, где свет (4:48 )
10. FSM - Hard Luck Of Robot (2:40 )
11. DJ Цветкоff - Реакция жизни (3:14 )
Отчёт EAC
Exact Audio Copy V0.99 prebeta 5 from 4. May 2009

EAC extraction logfile from 30. August 2011, 17:37

Various / Битва титанов - DJ Цветкоff vs FSM - реванш

Used drive : Optiarc DVD RW AD-7243S Adapter: 1 ID: 0

Read mode : Secure
Utilize accurate stream : Yes
Defeat audio cache : Yes
Make use of C2 pointers : No

Read offset correction : 48
Overread into Lead-In and Lead-Out : No
Fill up missing offset samples with silence : Yes
Delete leading and trailing silent blocks : No
Null samples used in CRC calculations : Yes
Used interface : Installed external ASPI interface

Used output format : User Defined Encoder
Selected bitrate : 1024 kBit/s
Quality : High
Add ID3 tag : No
Command line compressor : C:Program FilesExact Audio CopyFlacflac.exe
Additional command line options : -8 -V %s

TOC of the extracted CD

Track | Start | Length | Start sector | End sector
---------------------------------------------------------
1 | 0:00.00 | 4:48.09 | 0 | 21608
2 | 4:48.09 | 3:42.20 | 21609 | 38278
3 | 8:30.29 | 3:15.09 | 38279 | 52912
4 | 11:45.38 | 3:42.30 | 52913 | 69592
5 | 15:27.68 | 4:15.45 | 69593 | 88762
6 | 19:43.38 | 5:21.34 | 88763 | 112871
7 | 25:04.72 | 4:38.35 | 112872 | 133756
8 | 29:43.32 | 3:35.59 | 133757 | 149940
9 | 33:19.16 | 4:48.69 | 149941 | 171609
10 | 38:08.10 | 2:40.15 | 171610 | 183624
11 | 40:48.25 | 3:14.59 | 183625 | 198233

Range status and errors

Selected range

Filename G:Раздачи 2DJ Цветкоff - Collection (FLAC)Various - Битва титанов - DJ Цветкоff vs FSM - реванш.wav

Peak level 100.0 %
Range quality 100.0 %
Test CRC 08D7DDF1
Copy CRC 08D7DDF1
Copy OK

No errors occurred

AccurateRip summary

Track 1 not present in database
Track 2 not present in database
Track 3 not present in database
Track 4 not present in database
Track 5 not present in database
Track 6 not present in database
Track 7 not present in database
Track 8 not present in database
Track 9 not present in database
Track 10 not present in database
Track 11 not present in database

None of the tracks are present in the AccurateRip database

End of status report


2005




01. DJ Грув - Energy (4:39 )
02. DJ Цветкоff - Реакция жизни (2:25 )
03. DJ Грув - Life Is Dance (3:58 )
04. DJ Цветкоff - Разогнались (5:47 )
05. DJ Грув - Метеор (5:39 )
06. DJ Цветкоff - Я верю (3:42 )
07. DJ Грув - Вечное движение (6:08 )
08. DJ Цветкоff - Я хочу быть с тобой (2:23 )
09. DJ Грув - Back to 80-th (4:16 )
10. DJ Цветкоff - На старт (2:47 )
11. DJ Грув - I'm Talking To You (4:31 )
12. DJ Цветкоff - №1 (4:31 )

01
ноя
2010

Dj Цветкоff - Дискография [1997-2007, Trance, MP3]

Формат: MP3, 128-192kbps [VBR]
Год выпуска: 1997-2007
Страна: Россия
Жанр: Trance
Продолжительность: 137:01:53
Описание: IN THE MIX (Часть 1) (Октябрь 1997) 192kbps 00 01 Sash Feat La Trec - Stay (Original Extended Mix) 02 Envelope - Tik Tak (My Clock To The Beat) 03 Sequential One - Dreams (Atb Mix) 04 Internet - Saxy Jam (Original Mix) 05 De Leon Feat Myra - I Am What I Am (Hmm) (Mellow 12 Without Myra) 06 Units For Hour - I Get Ready (Jean & Peran Mix) 07 Kosmonova - Ayla (Extended Mix) 08 Future Breeze - Why Don T You Dance With Me (Klubbheads Bigtime Euro Mix) 09 Klubbheads - Discohoppin ...

22
фев
2008

Dj Цветкоff - Разрыв (2005) [mp3, 192]

Страна: Россия
Год выпуска: 2005
Жанр: техно
Продолжительность: 61 мин 46 сек
Формат: MP3
Битрейт аудио: 192
Трэклист: 01 Dj Цветков - Гимн ЦСК 02 Sascha Dith - Tell Me Why (Extended MIX) 03 Mandaryna L`ete Indien (Flashrider RMX) 04 Commander Tom - Attention (F & W RMX) 05 Scarf - Odysee (Plazmatek RMX) 06 Spring Break - Big Bad Love (Cascada RMX) 07 Dj Цветкоff - Танцевать! (Raduga And Dj Flexor RMX) 08 Pulsedriver - Slammin` (Tune Up! RMX) 09 Drunkenmunky - Calabria (Euro MIX) 10 Mark Korn - Summer Of Love (Mysterio Club MIX) 11 Mike Heart - Sex Maschine 12 Bulldozzer - Face The Base (Pulse ...

06
июн
2010

Dj Цветкоff - 16 Альбомов [2001-2005, Dance, MP3]

Формат: MP3, tracks, 192kbps
Год выпуска: 2001-2005
Страна: Россия
Жанр: Dance
Продолжительность: 15:12:57
Описание: 2001-Давай, давай, не отставай (сборка 1)-192kbps 01. МОЛОКО - INDIGO (DJ Jean RMX) 02. DJ Quicksilver - Ameno (Club Mix) 03. Safri DUO - играли-A-LIVE (ORIGINAL CLUB VERSION) 04. MESS JMA - ВЕСНА 2001 (Mario Lopez RMX) 05. Зеленый двор FEAT. DE / VISION - Shinin (Pulsedriver RMX) 06. DJ SOLEX - FLY 08. Brooklyn Bounce - Tiempo DE LUNA (Club Mix) 09. Cosmic Gate - Исследование космоса (Club Mix) 10. LAFTHOUSE - RIGASTYLE 11. Д. ИГРОКИ и DJ GERRN - LET BASS быть громче 10. Groo ...

21
фев
2008

Dj Цветкоff - Полетели (2003) [mp3, 192]

Страна: Россия
Год выпуска: 2003
Жанр: Техно
Продолжительность: 66 мин 46 сек
Формат: MP3
Битрейт аудио: 192
Трэклист: 1. Dj Цветкоff - Culture Beat - Mr. Vain Recall (CJ Stone Remix) 2. Dj Цветкоff - Tomcraft - Loneliness 3. Dj Цветкоff - Pulsedriver - Galaxy 4. Dj Цветкоff - Jordan & Baker - Explode 5. Dj Цветкоff - Sven-R-G vs. Bass-T - The Sign (Pulsedriver vs. Rocco Remix) 6. Dj Цветкоff - Dj Frankie Jones - Sawfish 7. Dj Цветкоff - DJK - I like Chopin (Rainy Daze) (Tom Mountain Vs. Outatime Remix) 8. Dj Цветкоff - B.da Project - Гармония 9. Dj Цветкоff - Superdrive - Love U More 2002 (Su ...

07
ноя
2010

DJ Цветкоff - Танцпол @ Record Club [06.11.2010, House, Electro, Trance, MP3]

Формат: MP3, image, 192kbps
Год выпуска: 06.11.2010
Страна: All World
Жанр: House, Electro, Trance
Продолжительность: 02:54:36
Описание: Setlist01. Eminem feat. Rihanna - Love The Way You Lie (Dean Cohen Remix) 02. Duck Sauce - Barbra Streisand (Afrojack Meaty Mix) 03. Fedde Le Grand vs Nirvana - Back & Forth Spirit (Alex Gaudino & Jason Rooney Bootleg) 04. Afrojack feat. Royal Flavour - Verano (Original Mix) 05. DJ Tom vs. Mind X - Moskito (Original Mix) 06. Blank & Jones - People Are Still Having Sex (Club Mix) 07. Porter Robinson - Say My Name (Original Mix) 08. Gravitones - Religious (Dad ...

02
сен
2011

DJ Цветкоff - Record Oldschool # 4 [02.09.2011, Dancecore, Club House, Dance, MP3]

Формат: MP3, (image), 320kbps
Год выпуска: 02.09.2011
Страна: Россия
Жанр: Dancecore, Club House, Dance
Продолжительность: 00:59:19
Описание: 01. ATB - The Summer (Original Club Mix) 02. Klubbheads - Bounce 2da Beat (Vintage Klubb Mix) 03. Tune Up - Bass Test 04. Cosmic gate - Exploration Of Space (XTD Mix) 05. Mr. PHilips - 7th Day (CJ Stone Club Mix) 06. Groove Coverage - Poison (Tune Up rmx) 07. DJ Digress - Night System (Club Mix) 08. Scooter - Fire (D.O.N.S. Club Mix) 09. CLub Caviar - Game Over (Original Mix) 10. Lathous - Riga Style (Klubb Mix) 11. Tango Go Girls - Tangomania (Club mix) ...

11
окт
2011

DJ Цветкоff - Танцпол @ Record Club # 93 [08.10.2011, Electro House, Club House, Euro Trance, Dancecore, MP3]

Формат: MP3, image, 320kbps
Год выпуска: 08.10.2011
Страна: Россия
Жанр: Electro House, Club House, Euro Trance, Dancecore
Продолжительность: 02:59:00
Описание: Треклист 01. LMFAO - Sexy And You Know It 02. Erick Morillo & Eddie Thoneick feat. Shawnee Taylor - Stronger (Nicky Romero Remix) 03. Tiesto - Maximal Crazy (Original Mix) 04. Starkillers & Dimity KO - Do U Love (Original Mix) 05. Example - Changed The Way You Kiss Me (Mike Candys Remix) 06. Relanium vs Danny-S - Intoxicated (Extended Mix) 07. Vandalism & Angeger Dimas - She got it (Acid Luke & Needle Remix) 08. Remady feat. Manu-L - T ...

25
мая
2014

DJ Цветкоff - Танцпол @ Record Club #256 [04.01.2014, Club House,Electro House, MP3]

Формат: MP3, (image), 320kbps
Год выпуска: 04.01.2014
Страна: All World
Жанр: Club House, Electro House
Продолжительность: 01:59:38
Описание: Треклист 01. Eminem & Rihanna vs DJ Noiz - The Monster (DJ Melloffon Mash-up) 02. Pitbull feat. Kesha - Timber (Jump Smokers Remix) 03. Afrojack feat. Chris Brown - As Your Friend (Mike Boot Remix) 04. Rihanna feat. David Guetta - Right Now (Sick Individuals Remix) 05. Cosmo & Skorobogatiy vs Guto - Rio (Original Mix) 06. Nirvana - Smells Like Teen Spiri (Reznikov Remix) 07. Major Lazer feat. 2 Chainz & Mystic & Tyga - Bubble Butt (Dada Life Remix) 08. ...

25
мая
2014

DJ Цветкоff - Танцпол @ Record Club #257 [10.01.2014, Club House,Electro House, MP3]

Формат: MP3, (image), 320kbps
Год выпуска: 10.01.2014
Страна: All World
Жанр: Club House, Electro House
Продолжительность: 02:56:50
Описание: Треклист 01. Charlotte Devaney feat. Snoop Dogg - Flip It (Wideboys Extended Mix) 02. Avicii - Hey Brother (Shaun Frank & Yash Club Remix) 03. B-Case feat. Maury - Big Spender (Spec Da Mac Remix) 04. David Jones - Hardy Diva (Jones Festival Edit) 05. H P Baxxter - Who The Fuck (Extended Mix) 06. Major Lazer feat. Bruno Mars & Tyga - Bubble Butt (Krunk's Booty Mix) 07. TJR & David Guetta & Chris Willis - Love Is Gone Ode To Oi (Dj ViTar Bootleg) 08. Burn ...

17
июн
2014

DJ Цветкоff - Танцпол @ Record Club #299 [06.06.2014, Club House,Electro House, MP3]

Формат: MP3, (image), 320kbps
Год выпуска: 06.06.2014
Страна: All World
Жанр: Club House, Electro House
Продолжительность: 02:54:06
Описание: Треклист 01. Revolvr, Nina Sung - Electrify 02. Toby Green - Thinking 03. Bad Habit Boys - Weekend 2014 (Potatoheadz Remix) 04. Matisse & Sadko - Sigure 05. Bryce - Blade Theme 06. Showtek - We Like To Party 07. New World Sound, Thomas Newson - Flute 08. Milky Chance - Stolen Dance (DJ Viduta, DJ Dimixer Remix) 09. Moguai - ACIIID 10. Cazzette - Run For Cover 11. MOTI - Don't Go Lose It 12. David Guetta, Skylar Grey - Shot Me Down 13. Chainsmokers - #se ...

25
мая
2014

DJ Цветкоff - Танцпол @ Record Club #258 [11.01.2014, Club House,Electro House, MP3]

Формат: MP3, (image), 320kbps
Год выпуска: 11.01.2014
Страна: All World
Жанр: Club House, Electro House
Продолжительность: 02:00:26
Описание: Треклист 01. Dada Life - This Machine Kills Ravers (Original Mix) 02. Nicky Romero vs Krewella - Legacy (Original Mix) 03. Arno Cost & Nadia Ali & Alesso - Head Up Pressure (Slider Mash-up) 04. Martin Garrix - Animals (Original Mix) 05. Medroq vs Hyder & Ribo - National (Original Mix) 06. Nirvana vs DJ Antonio & DJ DNK - Smells Like Teen Retwit (Marty Fame Bootleg) 07. MAKJ & Henry Fong - Encore (Original Mix) 08. Bingo Players & Far East Movement - Get ...

25
мая
2014

DJ Цветкоff - Танцпол @ Record Club #259 [17.01.2014, Club House,Electro House, MP3]

Формат: MP3, (image), 320kbps
Год выпуска: 17.01.2014
Страна: All World
Жанр: Club House, Electro House
Продолжительность: 02:57:35
Описание: Треклист 01. Showtek - We Like To Party (Original Mix) 02. Steve Aoki & Tujamo & Chris Lake - Boneless (Original Mix) 03. Sonix - The Roof Is On Fire (Monsta Mash Remix) 04. Sean Finn feat. D.I.A - Dirty Moves (Cj Stone & Milo.NL Remix) 05. Roma Pafos & Relanium & Aaron Smith - Say Dancin (Relanium Bootleg) 06. Gordon & Doyle vs Scooter - Let's Go Biz (Tr-meet & Yuliana Mash-up) 07. Dj Indygo & Chris Antonio - Fuck this early morning (Royal XTC Remix) 0 ...

25
мая
2014

DJ Цветкоff - Танцпол @ Record Club #260 [18.01.2014, Club House,Electro House, MP3]

Формат: MP3, (image), 320kbps
Год выпуска: 18.01.2014
Страна: All World
Жанр: Club House, Electro House
Продолжительность: 01:59:26
Описание: Треклист 01. Stromae - Papaoutai (Estio & Inside Remix) 02. DJ Delicious & Dave Kurtis - Rockin J.A.M. (Dj GrounD Mash-Up) 03. Kaptn - Ricky Ricardo (Deorro Dirty Remix) 04. Sonix - The Roof Is On Fire (Monsta Mash Remix) 05. Akon - That Na Na (Dany Lorence Mix) 06. Robin Thicke feat. T.I. & Pharrell vs TJR - What's Up Blurred Lines (Eugeniy Malakhoff Mash) 07. Avicii - Hey Brother (Shaun Frank & Yash Club Remix) 08. Sean Finn feat. D.I.A - Dirty Moves ...

17
июн
2014

DJ Цветкоff - Танцпол @ Record Club #300 [07.06.2014, Club House,Electro House, MP3]

Формат: MP3, (image), 320kbps
Год выпуска: 07.06.2014
Страна: All World
Жанр: Club House, Electro House
Продолжительность: 01:35:26
Описание: Треклист 01. TJR - Whats Up Suckaz? 02. Shelco Garcia, TEENWOLF - Make Me Jump 03. Cosmo & Skorobogatiy - Proton 04. Sultan, Ned Shepard - All These Roads (StadiumX Remix) 05. Vicetone - Lowdown 06. R3hab - Androids 07. Pulsedriver - Do You Want It Right Now (Bounce Mix) 8. Sick Individuals - Rock & Rave 09. Tujamo, LLP - Hey, Mister! 10. Dirty Palm, Alex Leads - We Don't Give A Fuck 11. Shermanology, GRX - Can't You See 12. TST, Cedric Gervai ...

25
мая
2014

DJ Цветкоff - Танцпол @ Record Club #261 [21.01.2014, Club House,Electro House, MP3]

Формат: MP3, (image), 320kbps
Год выпуска: 21.01.2014
Страна: All World
Жанр: Club House, Electro House
Продолжительность: 02:47:49
Описание: Треклист 01. Charlotte Devaney feat. Snoop Dogg - Flip It (Wideboys Extended Mix) 02. Nicky Romero vs Krewella - Legacy (Mike Candys Remix) 03. Ken Roll - Disco Inferno (Original Mix) 04. Fedde Le Grand & Sultan & Ned Shepard - No Good (Extended Mix) 05. Bingo Players & Far East Movement - Get Up (Rattle) (Vocal Extended) 06. Nirvana vs DJ Antonio & DJ DNK - Smells Like Teen Retwit (Marty Fame Bootleg) 07. Deorro feat. Madeleine Jayne - Unspoiled Perfec ...