15
дек
2016

Заяц Поп Шоу и Другие его Проекты - Дискография [1995-2003, Поп, FLAC]

Заяц Поп Шоу и Другие его Проекты - Дискография
Формат: FLAC, (image + .cue), lossless
Год выпуска: 1995-2003
Страна: Россия
Жанр: Поп
Продолжительность: 16:43:08
Описание:
1996 - ЗАЯЦ ПОП ШОУ-1 01
Заяц Поп Шоу и Другие его Проекты - Дискография 01. Канэшна, Вдую 3:13
02. Свет В моем окне 3:28
03. Да Мне Чайки... (Pigs Remix) 3:07
04. Chunga-Jungle 3:26
05. Oставаясь В тени 4:37
06. Robot 5:46
07. Звезды 4:03
08. Сегодня ночью 5:02
09. O Конституции 4:58
10. Ты Раздавила Мою Любовь 4:21
11. Пригласи меня 4:57
12. Тару Я сдам 4:02
13. Прощяй! 3:59
14. Резиновая Зина 5:07
Лог создания рипа

Exact Audio Copy V0.99 prebeta 5 from 4. May 2009
Отчёт EAC об извлечении, выполненном 2. августа 2011, 23:49
ЗАЯЦ ПОП ШОУ / 96
Дисковод: PLEXTOR CD-R PREMIUM2 Adapter: 0 ID: 0
Режим чтения : Достоверность
Использование точного потока : Да
Отключение кэша аудио : Да
Использование указателей C2 : Нет
Коррекция смещения при чтении : 30
Способность читать области Lead-in и Lead-out : Нет
Заполнение пропущенных сэмплов тишиной : Да
Удаление блоков с тишиной в начале и конце : Нет
При вычислениях CRC использовались нулевые сэмплы : Да
Интерфейс : Встроенный Win32-интерфейс для Win NT/2000
Выходной формат : Внутренние WAV-операции
Формат сэмплов : 44.100 Гц; 16 бит; стерео
TOC извлечённого CD
Трек | Старт | Длительность | Начальный сектор | Конечный сектор
---------------------------------------------------------------------
1 | 0:00.50 | 3:12.50 | 50 | 14499
2 | 3:13.25 | 3:28.00 | 14500 | 30099
3 | 6:41.25 | 3:06.50 | 30100 | 44099
4 | 9:48.00 | 3:26.25 | 44100 | 59574
5 | 13:14.25 | 4:37.37 | 59575 | 80386
6 | 17:51.62 | 5:46.13 | 80387 | 106349
7 | 23:38.00 | 4:02.50 | 106350 | 124549
8 | 27:40.50 | 5:01.50 | 124550 | 147174
9 | 32:42.25 | 4:58.00 | 147175 | 169524
10 | 37:40.25 | 4:21.25 | 169525 | 189124
11 | 42:01.50 | 4:56.50 | 189125 | 211374
12 | 46:58.25 | 4:02.37 | 211375 | 229561
13 | 51:00.62 | 3:59.25 | 229562 | 247511
14 | 55:00.12 | 5:06.63 | 247512 | 270524
Характеристики диапазона извлечения и сообщения об ошибках
Выбранный диапазон
Имя файла F:Заяц Поп Шоу - 1ЗАЯЦ ПОП ШОУ - 96.wav
Пиковый уровень 100.0 %
Качество диапазона 100.0 %
CRC теста BF18CAD3
CRC копии BF18CAD3
Копирование... OK
Ошибок не произошло
AccurateRip: сводка
Трек 1 нет в базе данных
Трек 2 нет в базе данных
Трек 3 нет в базе данных
Трек 4 нет в базе данных
Трек 5 нет в базе данных
Трек 6 нет в базе данных
Трек 7 нет в базе данных
Трек 8 нет в базе данных
Трек 9 нет в базе данных
Трек 10 нет в базе данных
Трек 11 нет в базе данных
Трек 12 нет в базе данных
Трек 13 нет в базе данных
Трек 14 нет в базе данных
Ни одного трека нет в базе AccurateRip
Конец отчёта
1996 - ЗАЯЦ ПОП ШОУ-2 01
Заяц Поп Шоу и Другие его Проекты - Дискография 01. Привет От Индиры Ганди 4:33
02. Родина Мая, Биларусия/ Канэшна, Вдую (Special remix) 7:17
03. Fuck me, Колобок 3:57
04. SayYou'll Never (House remake) 6:34
05. Про Заек (Про каких,нахрен mix) 5:16
06. Лысая песня 4:32
07. Пионерская Мастурбационная 4:13
08. Снег 7:25
09. Да Мне Чайки (Regressive House mix) 5:02
10. Jobarь 4:14
11. Черепаший House 5:12
12. Love Theme-Instrumental 9:45
Лог создания рипа
Exact Audio Copy V0.99 prebeta 5 from 4. May 2009
Отчёт EAC об извлечении, выполненном 3. августа 2011, 3:46
Заяц Поп Шоу / Заяц Поп Шоу - 2
Дисковод: PLEXTOR CD-R PREMIUM2 Adapter: 0 ID: 0
Режим чтения : Достоверность
Использование точного потока : Да
Отключение кэша аудио : Да
Использование указателей C2 : Нет
Коррекция смещения при чтении : 30
Способность читать области Lead-in и Lead-out : Нет
Заполнение пропущенных сэмплов тишиной : Да
Удаление блоков с тишиной в начале и конце : Нет
При вычислениях CRC использовались нулевые сэмплы : Да
Интерфейс : Встроенный Win32-интерфейс для Win NT/2000
Выходной формат : Внутренние WAV-операции
Формат сэмплов : 44.100 Гц; 16 бит; стерео
TOC извлечённого CD
Трек | Старт | Длительность | Начальный сектор | Конечный сектор
---------------------------------------------------------------------
1 | 0:00.32 | 4:32.45 | 32 | 20476
2 | 4:33.02 | 7:17.05 | 20477 | 53256
3 | 11:50.07 | 3:57.15 | 53257 | 71046
4 | 15:47.22 | 6:33.53 | 71047 | 100574
5 | 22:21.00 | 5:16.15 | 100575 | 124289
6 | 27:37.15 | 4:31.60 | 124290 | 144674
7 | 32:09.00 | 4:12.60 | 144675 | 163634
8 | 36:21.60 | 7:24.70 | 163635 | 197004
9 | 43:46.55 | 5:01.55 | 197005 | 219634
10 | 48:48.35 | 4:14.22 | 219635 | 238706
11 | 53:02.57 | 5:12.28 | 238707 | 262134
12 | 58:15.10 | 9:44.45 | 262135 | 305979
Характеристики диапазона извлечения и сообщения об ошибках
Выбранный диапазон
Имя файла F:Заяц Поп Шоу - Заяц Поп Шоу - 2.wav
Пиковый уровень 99.9 %
Качество диапазона 99.9 %
CRC теста 2A8079CD
CRC копии 2A8079CD
Копирование... OK
Ошибок не произошло
AccurateRip: сводка
Трек 1 точное извлечение (доверие 1) [6BAA1156]
Трек 2 точное извлечение (доверие 1) [E416F522]
Трек 3 точное извлечение (доверие 1) [599F0F2C]
Трек 4 точное извлечение (доверие 1) [1F275EC0]
Трек 5 точное извлечение (доверие 1) [22CA7DE8]
Трек 6 точное извлечение (доверие 1) [8C12B638]
Трек 7 точное извлечение (доверие 1) [D68D643F]
Трек 8 точное извлечение (доверие 1) [65AF4E29]
Трек 9 точное извлечение (доверие 1) [99CCC342]
Трек 10 точное извлечение (доверие 1) [842D6026]
Трек 11 точное извлечение (доверие 1) [C3CFD651]
Трек 12 точное извлечение (доверие 1) [985D75E9]
Все треки извлечены точно
Конец отчёт
1997 - ЗАЯЦ ПОП ШОУ-3 SPECIAL CHRISTMAS EDITION 01
01. Про Деда Мороза 5:39
02. Оксана И Сало 3:13
03. Я Завел Себе Кота 3:06
04. Песочная Любовь 5:00
05. Русская Алкогольная 4:51
06. Кузнечик-Чикатило 3:52
07. На Белом Покрывале Января 5:50
08. Молодежная-Кислотная 6:16
09. Memory 5:33
10. Витаминки-Самоежки (Remix) 5:39
11. Magic Carillion 4:39
12. Christmas Theme-Instrumental 5:14
13. Megamix 11:55
Лог создания рипа

Exact Audio Copy V0.99 prebeta 5 from 4. May 2009
Отчёт EAC об извлечении, выполненном 3. августа 2011, 21:48
ЗАЯЦ ПОП ШОУ / ЗАЯЦ ПОП ШОУ -3 "Special Christmas Edition"
Дисковод: PLEXTOR CD-R PREMIUM2 Adapter: 0 ID: 0
Режим чтения : Достоверность
Использование точного потока : Да
Отключение кэша аудио : Да
Использование указателей C2 : Нет
Коррекция смещения при чтении : 30
Способность читать области Lead-in и Lead-out : Нет
Заполнение пропущенных сэмплов тишиной : Да
Удаление блоков с тишиной в начале и конце : Нет
При вычислениях CRC использовались нулевые сэмплы : Да
Интерфейс : Встроенный Win32-интерфейс для Win NT/2000
Выходной формат : Внутренние WAV-операции
Формат сэмплов : 44.100 Гц; 16 бит; стерео
TOC извлечённого CD
Трек | Старт | Длительность | Начальный сектор | Конечный сектор
---------------------------------------------------------------------
1 | 0:00.02 | 5:38.60 | 2 | 25411
2 | 5:38.62 | 3:12.73 | 25412 | 39884
3 | 8:51.60 | 3:06.17 | 39885 | 53851
4 | 11:58.02 | 4:59.50 | 53852 | 76326
5 | 16:57.52 | 4:51.25 | 76327 | 98176
6 | 21:49.02 | 3:52.08 | 98177 | 115584
7 | 25:41.10 | 5:50.00 | 115585 | 141834
8 | 31:31.10 | 6:16.10 | 141835 | 170044
9 | 37:47.20 | 5:33.20 | 170045 | 195039
10 | 43:20.40 | 5:38.40 | 195040 | 220429
11 | 48:59.05 | 4:38.62 | 220430 | 241341
12 | 53:37.67 | 5:13.58 | 241342 | 264874
13 | 58:51.50 | 11:55.22 | 264875 | 318521
Характеристики диапазона извлечения и сообщения об ошибках
Выбранный диапазон
Имя файла F:Заяц Поп ШоуЗаяц Поп Шоу -3ЗАЯЦ ПОП ШОУ - ЗАЯЦ ПОП ШОУ -3 Special Christmas Edition.wav
Пиковый уровень 100.0 %
Качество диапазона 100.0 %
CRC теста D2D4AE12
CRC копии D2D4AE12
Копирование... OK
Ошибок не произошло
AccurateRip: сводка
Трек 1 точное извлечение (доверие 1) [35742EEA]
Трек 2 точное извлечение (доверие 1) [47B4888C]
Трек 3 точное извлечение (доверие 1) [7C09929D]
Трек 4 точное извлечение (доверие 1) [F5828ABD]
Трек 5 точное извлечение (доверие 1) [9F2934A0]
Трек 6 точное извлечение (доверие 1) [3120C2C9]
Трек 7 нет в базе данных
Трек 8 точное извлечение (доверие 1) [924FFE3B]
Трек 9 точное извлечение (доверие 1) [F51D3B27]
Трек 10 точное извлечение (доверие 1) [BD954C93]
Трек 11 точное извлечение (доверие 1) [3BC36793]
Трек 12 точное извлечение (доверие 1) [DF1AC69B]
Трек 13 точное извлечение (доверие 1) [1C742EE7]
12 трек(и) скопированы точно
1 трек(и) не содержатся в базе AccurateRip
Некоторые треки не прошли проверку на точность
Конец отчёта
1997 - ЗАЯЦ ПОП ШОУ-4 ОТ ФОЛЬКЛОРА ДО ХАРДКОРА 00
01. Николай Зайцев - Франкенштейн 4:48
02. DJ Хачик - Самба 4:54
03. SCREAM - Сон 4:19
04. М.С. Гнил feat Заяц Jr - Зайка без яйка 3:54
05. DJ Отстой - Сумашедшие животные 5:00
06. Синяяки International - Давай накатим 5:31
07. DJ Ацетон - Get up,Action! 5:12
08. Анжела Бабич- Джамиля и Шамиля 5:02
09. Ist Omen - Фрау Айболит 3:48
10. Сладкий Сон feat С.Васюта - Любимый город 4:26
Лог создания рипа
Exact Audio Copy V0.99 prebeta 5 from 4. May 2009
Отчёт EAC об извлечении, выполненном 9. августа 2011, 2:00
VA / Зайц РОР Шоу-4
Дисковод: PLEXTOR CD-R PREMIUM2 Adapter: 0 ID: 0
Режим чтения : Достоверность
Использование точного потока : Да
Отключение кэша аудио : Да
Использование указателей C2 : Нет
Коррекция смещения при чтении : 30
Способность читать области Lead-in и Lead-out : Нет
Заполнение пропущенных сэмплов тишиной : Да
Удаление блоков с тишиной в начале и конце : Нет
При вычислениях CRC использовались нулевые сэмплы : Да
Интерфейс : Встроенный Win32-интерфейс для Win NT/2000
Выходной формат : Внутренние WAV-операции
Формат сэмплов : 44.100 Гц; 16 бит; стерео
TOC извлечённого CD
Трек | Старт | Длительность | Начальный сектор | Конечный сектор
---------------------------------------------------------------------
1 | 0:00.00 | 4:48.02 | 0 | 21601
2 | 4:48.02 | 4:53.65 | 21602 | 43641
3 | 9:41.67 | 4:19.20 | 43642 | 63086
4 | 14:01.12 | 3:53.48 | 63087 | 80609
5 | 17:54.60 | 5:00.05 | 80610 | 103114
6 | 22:54.65 | 5:31.25 | 103115 | 127964
7 | 28:26.15 | 5:12.00 | 127965 | 151364
8 | 33:38.15 | 5:01.70 | 151365 | 174009
9 | 38:40.10 | 3:47.40 | 174010 | 191074
10 | 42:27.50 | 4:26.15 | 191075 | 211039
Характеристики диапазона извлечения и сообщения об ошибках
Выбранный диапазон
Имя файла F:Заяц Поп ШоуЗаяц Pop Шоу - 4VA - Зайц РОР Шоу-4.wav
Пиковый уровень 100.0 %
Качество диапазона 100.0 %
CRC теста 4DEA9ABF
CRC копии 4DEA9ABF
Копирование... OK
Ошибок не произошло
AccurateRip: сводка
Трек 1 точность не определена (достоверность 1) [C42C8634], AccurateRip вернул [D6C6A67E]
Трек 2 точность не определена (достоверность 1) [8864F32A], AccurateRip вернул [0875A32D]
Трек 3 точность не определена (достоверность 1) [0867E63E], AccurateRip вернул [95002337]
Трек 4 точность не определена (достоверность 1) [313CEC52], AccurateRip вернул [8DF8EFF2]
Трек 5 точность не определена (достоверность 1) [CBF0F12E], AccurateRip вернул [C233A4A9]
Трек 6 точность не определена (достоверность 1) [3AD7B8D4], AccurateRip вернул [667B33F1]
Трек 7 точность не определена (достоверность 1) [A049D075], AccurateRip вернул [2CCE3CBB]
Трек 8 точность не определена (достоверность 1) [9B14ADAF], AccurateRip вернул [D7166D35]
Трек 9 точность не определена (достоверность 1) [1F9318F7], AccurateRip вернул [92544A70]
Трек 10 точность не определена (достоверность 1) [CF8B1408], AccurateRip вернул [7A47E00D]
Ни один трек не прошёл проверки на точность
В вашей базе может быть иной вариант штамповки диска
Конец отчёта
1998 - ЗАЯЦ ПОП ШОУ-5 featuring SCREAM 00
Заяц Поп Шоу и Другие его Проекты - Дискография 01. В Лучах Заходящего Солнца 4:46
02. Я Слышу Небо 4:16
03. Про Корзиночку 3:56
04. В Тени (Remix 99) 5:00
05. Пригласи Меня 5:08
06. Раненая Птица 4:40
07. Сон (Remix) 4:17
08. Почем Пиво? 4:02
09. Все Зависит От Тебя 5:00
10. Привет От Индиры Ганди (Remix 99) 4:26
11. Приходи 4:05
12. Колыбельная 5:32
13. Memory (Remix 99) 5:40
Лог создания рипа
Exact Audio Copy V0.99 prebeta 5 from 4. May 2009
Отчёт EAC об извлечении, выполненном 10. августа 2011, 0:50
ЗАЯЦ ПОП ШОУ-5 / Featuring SCREAM
Дисковод: PLEXTOR CD-R PREMIUM2 Adapter: 0 ID: 0
Режим чтения : Достоверность
Использование точного потока : Да
Отключение кэша аудио : Да
Использование указателей C2 : Нет
Коррекция смещения при чтении : 30
Способность читать области Lead-in и Lead-out : Нет
Заполнение пропущенных сэмплов тишиной : Да
Удаление блоков с тишиной в начале и конце : Нет
При вычислениях CRC использовались нулевые сэмплы : Да
Интерфейс : Встроенный Win32-интерфейс для Win NT/2000
Выходной формат : Внутренние WAV-операции
Формат сэмплов : 44.100 Гц; 16 бит; стерео
TOC извлечённого CD
Трек | Старт | Длительность | Начальный сектор | Конечный сектор
---------------------------------------------------------------------
1 | 0:00.00 | 4:46.02 | 0 | 21451
2 | 4:46.02 | 4:15.38 | 21452 | 40614
3 | 9:01.40 | 3:56.15 | 40615 | 58329
4 | 12:57.55 | 5:00.07 | 58330 | 80836
5 | 17:57.62 | 5:08.35 | 80837 | 103971
6 | 23:06.22 | 4:40.35 | 103972 | 125006
7 | 27:46.57 | 4:16.38 | 125007 | 144244
8 | 32:03.20 | 4:02.25 | 144245 | 162419
9 | 36:05.45 | 4:59.57 | 162420 | 184901
10 | 41:05.27 | 4:26.20 | 184902 | 204871
11 | 45:31.47 | 4:04.40 | 204872 | 223211
12 | 49:36.12 | 5:32.10 | 223212 | 248121
13 | 55:08.22 | 5:39.70 | 248122 | 273616
Характеристики диапазона извлечения и сообщения об ошибках
Выбранный диапазон
Имя файла F:Заяц Поп ШоуЗАЯЦ ПОП ШОУ- 5ЗАЯЦ ПОП ШОУ-5 - Featuring SCREAM.wav
Пиковый уровень 100.0 %
Качество диапазона 100.0 %
CRC теста 7ADD194C
CRC копии 7ADD194C
Копирование... OK
Ошибок не произошло
AccurateRip: сводка
Трек 1 нет в базе данных
Трек 2 нет в базе данных
Трек 3 нет в базе данных
Трек 4 нет в базе данных
Трек 5 нет в базе данных
Трек 6 нет в базе данных
Трек 7 нет в базе данных
Трек 8 нет в базе данных
Трек 9 нет в базе данных
Трек 10 нет в базе данных
Трек 11 нет в базе данных
Трек 12 нет в базе данных
Трек 13 нет в базе данных
Ни одного трека нет в базе AccurateRip
Конец отчёта
2000 - ЗАЯЦ ПОП ШОУ-6 КУРСОМ НА ВОСТОК 00
Заяц Поп Шоу и Другие его Проекты - Дискография 01. Сосиськи Странные 5:13
02. Инна Гада Давида Любит 4:47
03. Лети, Лепесток 4:07
04. Зашибись! 3:10
05. Со Мной Рядом Ты 4:47
06. Двадцать Первая Жена 5:10
07. Не Бей меня, Шлагбаум! 4:27
08. Любовь 'Москва-Германия' 3:46
09. Один На Один 3:59
10. Металлоискатель 4:32
11. Родина Мая, Биларусия (Remix 2000) 4:24
12. Пригласи Меня (Edited Version) 5:08
13. Дай Пожрать! (Edited Version) 4:11
Лог создания рипа

xact Audio Copy V0.99 prebeta 5 from 4. May 2009
Отчёт EAC об извлечении, выполненном 10. августа 2011, 22:57
ЗАЯЦ ПОП ШОУ - 6 / Курсом На Восток
Дисковод: PLEXTOR CD-R PREMIUM2 Adapter: 0 ID: 0
Режим чтения : Достоверность
Использование точного потока : Да
Отключение кэша аудио : Да
Использование указателей C2 : Нет
Коррекция смещения при чтении : 30
Способность читать области Lead-in и Lead-out : Нет
Заполнение пропущенных сэмплов тишиной : Да
Удаление блоков с тишиной в начале и конце : Нет
При вычислениях CRC использовались нулевые сэмплы : Да
Интерфейс : Встроенный Win32-интерфейс для Win NT/2000
Выходной формат : Внутренние WAV-операции
Формат сэмплов : 44.100 Гц; 16 бит; стерео
TOC извлечённого CD
Трек | Старт | Длительность | Начальный сектор | Конечный сектор
---------------------------------------------------------------------
1 | 0:00.00 | 5:12.40 | 0 | 23439
2 | 5:12.40 | 4:47.06 | 23440 | 44970
3 | 9:59.46 | 4:06.50 | 44971 | 63470
4 | 14:06.21 | 3:10.05 | 63471 | 77725
5 | 17:16.26 | 4:46.64 | 77726 | 99239
6 | 22:03.15 | 5:09.57 | 99240 | 122471
7 | 27:12.72 | 4:26.56 | 122472 | 142477
8 | 31:39.53 | 3:46.24 | 142478 | 159451
9 | 35:26.02 | 3:58.49 | 159452 | 177350
10 | 39:24.51 | 4:32.18 | 177351 | 197768
11 | 43:56.69 | 4:24.21 | 197769 | 217589
12 | 48:21.15 | 5:07.47 | 217590 | 240661
13 | 53:28.62 | 4:11.33 | 240662 | 259519
Характеристики диапазона извлечения и сообщения об ошибках
Выбранный диапазон
Имя файла F:Заяц Поп ШоуZаяц Pop Шоу - 6ЗАЯЦ ПОП ШОУ - 6 - Курсом На Восток.wav
Пиковый уровень 100.0 %
Качество диапазона 100.0 %
CRC теста 4BF1D1DA
CRC копии 4BF1D1DA
Копирование... OK
Ошибок не произошло
AccurateRip: сводка
Трек 1 нет в базе данных
Трек 2 нет в базе данных
Трек 3 нет в базе данных
Трек 4 нет в базе данных
Трек 5 нет в базе данных
Трек 6 нет в базе данных
Трек 7 нет в базе данных
Трек 8 нет в базе данных
Трек 9 нет в базе данных
Трек 10 нет в базе данных
Трек 11 нет в базе данных
Трек 12 нет в базе данных
Трек 13 нет в базе данных
Ни одного трека нет в базе AccurateRip
Конец отчёта
1997 - THE BEST OF РУССКИЙ СТЕБ 00
Заяц Поп Шоу и Другие его Проекты - Дискография 01. Подари Мне свою любовь 4:34
02. Родина Мая, Биларусия (Remix) 3:54
03. Пуки-Буки (Remix) 4:06
04. Русская Алкогольная (Remix) 4:00
05. Московский Спартак (Acid house remix) 5:09
06. Привет От Индиры Ганди 4:31
07. Полюшко-поле 4:44
08. Африка 4:45
09. Люберцы-Сила! (Exclusive Track) 6:10
10. Песочная Любовь (Remix) 4:07
11. Fuck Ме,товарищ Колобок! (Gabba remix) 4:24
12. Jimmy-Ача!Ача!Ача! 5:05
13. 0ставаясь В тени (Еdited version) 4:40
14. Кузнечик-Чикатило 3:52
15. Шумел Камыш 3:31
16. Да Мне Чайки...(Remix) 3:07
17. Говновоз (Kaka mix) 5:05
Лог создания рипа
xact Audio Copy V0.99 prebeta 5 from 4. May 2009
Отчёт EAC об извлечении, выполненном 2. августа 2011, 20:44
Заяц Поп Шоу / THE BEST OF РУССКИЙ СТЕБ
Дисковод: PLEXTOR CD-R PREMIUM2 Adapter: 0 ID: 0
Режим чтения : Достоверность
Использование точного потока : Да
Отключение кэша аудио : Да
Использование указателей C2 : Нет
Коррекция смещения при чтении : 30
Способность читать области Lead-in и Lead-out : Нет
Заполнение пропущенных сэмплов тишиной : Да
Удаление блоков с тишиной в начале и конце : Нет
При вычислениях CRC использовались нулевые сэмплы : Да
Интерфейс : Встроенный Win32-интерфейс для Win NT/2000
Выходной формат : Внутренние WAV-операции
Формат сэмплов : 44.100 Гц; 16 бит; стерео
TOC извлечённого CD
Трек | Старт | Длительность | Начальный сектор | Конечный сектор
---------------------------------------------------------------------
1 | 0:00.00 | 4:33.65 | 0 | 20539
2 | 4:33.65 | 3:53.57 | 20540 | 38071
3 | 8:27.47 | 4:05.63 | 38072 | 56509
4 | 12:33.35 | 4:00.35 | 56510 | 74544
5 | 16:33.70 | 5:08.57 | 74545 | 97701
6 | 21:42.52 | 4:31.05 | 97702 | 118031
7 | 26:13.57 | 4:44.33 | 118032 | 139364
8 | 30:58.15 | 4:44.45 | 139365 | 160709
9 | 35:42.60 | 6:09.70 | 160710 | 188454
10 | 41:52.55 | 4:06.50 | 188455 | 206954
11 | 45:59.30 | 4:23.57 | 206955 | 226736
12 | 50:23.12 | 5:05.33 | 226737 | 249644
13 | 55:28.45 | 4:40.17 | 249645 | 270661
14 | 60:08.62 | 3:51.40 | 270662 | 288026
15 | 64:00.27 | 3:30.50 | 288027 | 303826
16 | 67:31.02 | 3:07.05 | 303827 | 317856
17 | 70:38.07 | 5:04.63 | 317857 | 340719
Характеристики диапазона извлечения и сообщения об ошибках
Выбранный диапазон
Имя файла F:Заяц Поп Шоу - THE BEST OF РУССКИЙ СТЕБ.wav
Пиковый уровень 100.0 %
Качество диапазона 100.0 %
CRC теста A70AA891
CRC копии A70AA891
Копирование... OK
Ошибок не произошло
AccurateRip: сводка
Трек 1 точное извлечение (доверие 1) [E328359B]
Трек 2 точное извлечение (доверие 1) [41741C1C]
Трек 3 точное извлечение (доверие 1) [A928C410]
Трек 4 точное извлечение (доверие 1) [F94BDF97]
Трек 5 точное извлечение (доверие 1) [CD34D423]
Трек 6 точное извлечение (доверие 1)
Трек 7 точное извлечение (доверие 1) [BEF8DE99]
Трек 8 точное извлечение (доверие 1) [6A515562]
Трек 9 точное извлечение (доверие 1) [CB3C4DCD]
Трек 10 точное извлечение (доверие 1) [94986F4D]
Трек 11 точность не определена (достоверность 1) [9E1DD6BA], AccurateRip вернул [A3CF89D1]
Трек 12 точное извлечение (доверие 1) [25819112]
Трек 13 точное извлечение (доверие 1) [391DF31D]
Трек 14 точное извлечение (доверие 1) [A3859AE2]
Трек 15 точное извлечение (доверие 1) [80C36D63]
Трек 16 точное извлечение (доверие 1) [9BFD6531]
Трек 17 точное извлечение (доверие 1) [C5AC87DE]
16 трек(и) скопированы точно
1 трек(и) не удалось проверить на точность
Некоторые треки не прошли проверку на точность
Конец отчёта
1998 - ЗАЯЦ POP ШОУ-BEST Vol.1 00
[urla]http://i85.fastpic.ru/big/2016/1214/bf/4b48c17b5d7519136d7e1c281c0e7abf.jpg[/urla]01. АНЖЕЛА БАБИЧ И ВОВА ИСТОМИН - Ich Trinke Alcohol 3:28
02. DJ ХАЧИК - Канечна, Вдую! 3:22
03. М.С. ГНИЛ - Про Кота 2:59
04. DJ АЦЕТОН feat. SCREAM - Zoo Zoo 5:24
05. ДАВАЙ, ДАВАЙ! - Про Заек 4:37
06. ТРАНС-МИССИЯ - Сегодня Ночью 4:56
07. АНЖЕЛА БАБИЧ - Лысая Песня 4:20
08. R.D.C. - Голоса Планет 5:49
09. МИША ША! - Дед Мороз 5:35
10. МУТИК & ПИСИК PROJECT - Пионерская Маструбационная 4:07
11. DJ SOLARIS - Танцевальное Пространство 33 5:01
12. SCREAM - Memory 5:28
13. СЛАДКИЙ СОН feat. СЕРГЕЙ ВАСЮТА - Любимый Город 3:42
14. АНЖЕЛА БАБИЧ - Я Люблю Тебя 5:20
15. TURBO-ПНЕЙ - Тару Я Сдам 3:53
16. МИША ША! - Резиновая Зина 6:04
Лог создания рипа

Exact Audio Copy V0.99 prebeta 5 from 4. May 2009
Отчёт EAC об извлечении, выполненном 10. августа 2011, 23:51
ЗАЯЦ POP ШОУ / Best Vol.1
Дисковод: PLEXTOR CD-R PREMIUM2 Adapter: 0 ID: 0
Режим чтения : Достоверность
Использование точного потока : Да
Отключение кэша аудио : Да
Использование указателей C2 : Нет
Коррекция смещения при чтении : 30
Способность читать области Lead-in и Lead-out : Нет
Заполнение пропущенных сэмплов тишиной : Да
Удаление блоков с тишиной в начале и конце : Нет
При вычислениях CRC использовались нулевые сэмплы : Да
Интерфейс : Встроенный Win32-интерфейс для Win NT/2000
Выходной формат : Внутренние WAV-операции
Формат сэмплов : 44.100 Гц; 16 бит; стерео
TOC извлечённого CD
Трек | Старт | Длительность | Начальный сектор | Конечный сектор
---------------------------------------------------------------------
1 | 0:00.00 | 3:28.37 | 0 | 15636
2 | 3:28.37 | 3:22.13 | 15637 | 30799
3 | 6:50.50 | 2:59.35 | 30800 | 44259
4 | 9:50.10 | 5:24.02 | 44260 | 68561
5 | 15:14.12 | 4:37.28 | 68562 | 89364
6 | 19:51.40 | 4:56.15 | 89365 | 111579
7 | 24:47.55 | 4:19.67 | 111580 | 131071
8 | 29:07.47 | 5:48.43 | 131072 | 157214
9 | 34:56.15 | 5:35.07 | 157215 | 182346
10 | 40:31.22 | 4:07.25 | 182347 | 200896
11 | 44:38.47 | 5:01.35 | 200897 | 223506
12 | 49:40.07 | 5:28.13 | 223507 | 248119
13 | 55:08.20 | 3:42.25 | 248120 | 264794
14 | 58:50.45 | 5:20.02 | 264795 | 288796
15 | 64:10.47 | 3:52.45 | 288797 | 306241
16 | 68:03.17 | 6:03.53 | 306242 | 333519
Характеристики диапазона извлечения и сообщения об ошибках
Выбранный диапазон
Имя файла F:Заяц Поп ШоуЗАЯЦ ПОП ШОУ - BEST Vol. 1ЗАЯЦ POP ШОУ - Best Vol.1.wav
Пиковый уровень 100.0 %
Качество диапазона 100.0 %
CRC теста B16AE7A7
CRC копии B16AE7A7
Копирование... OK
Ошибок не произошло
AccurateRip: сводка
Трек 1 нет в базе данных
Трек 2 нет в базе данных
Трек 3 нет в базе данных
Трек 4 нет в базе данных
Трек 5 нет в базе данных
Трек 6 нет в базе данных
Трек 7 нет в базе данных
Трек 8 нет в базе данных
Трек 9 нет в базе данных
Трек 10 нет в базе данных
Трек 11 нет в базе данных
Трек 12 нет в базе данных
Трек 13 нет в базе данных
Трек 14 нет в базе данных
Трек 15 нет в базе данных
Трек 16 нет в базе данных
Ни одного трека нет в базе AccurateRip
Конец отчёта
1998 - ЗАЯЦ POP ШОУ-BEST Vol.2 01
01. DJ ХАЧИК - Родина Мая, Биларусия 3:52
02. SCREAM - Сон 4:16
03. DJ FUCKER Fuck Me, - Товарищ Колобок 4:21
04. СИНЯКИ INTERNATIONAL - Русская Алкогольная 3:58
05. DJ АЦЕТОН - Get Up! 5:09
06. Л. И. БРЕЖНЕВ - Привет От Индиры Ганди 4:29
07. DJ SOLARIS - Полюшко-Поле 4:41
08. АНЖЕЛА БАБИЧ - Африка 4:43
09. ДАВАЙ, ДАВАЙ! - Дети 4:46
10. НАДЯ КОРКИНА - Песочная Любовь 4:06
11. MR ZАЙЦАГО - Кузнечик-Чикатило 3:51
12. ЗАЯЦ JR. - Зайка-без-Яйка 3:51
13. АНЖЕЛА БАБИЧ - Джимми-Ача! Ача! Ача! 5:03
14. SCREAM - В Тени 4:38
15. R.D.C. - Пульс Планеты 5:21
16. M.С. ГНИЛ - Да Мне Чайки... 3:07
17. МИША ША! - Говновоз 5:05
Лог создания рипа

Exact Audio Copy V0.99 prebeta 5 from 4. May 2009
Отчёт EAC об извлечении, выполненном 10. августа 2011, 19:38
ЗАЯЦ POP ШОУ / Best Vol.2
Дисковод: PLEXTOR CD-R PREMIUM2 Adapter: 0 ID: 0
Режим чтения : Достоверность
Использование точного потока : Да
Отключение кэша аудио : Да
Использование указателей C2 : Нет
Коррекция смещения при чтении : 30
Способность читать области Lead-in и Lead-out : Нет
Заполнение пропущенных сэмплов тишиной : Да
Удаление блоков с тишиной в начале и конце : Нет
При вычислениях CRC использовались нулевые сэмплы : Да
Интерфейс : Встроенный Win32-интерфейс для Win NT/2000
Выходной формат : Внутренние WAV-операции
Формат сэмплов : 44.100 Гц; 16 бит; стерео
TOC извлечённого CD
Трек | Старт | Длительность | Начальный сектор | Конечный сектор
---------------------------------------------------------------------
1 | 0:00.00 | 3:51.61 | 0 | 17385
2 | 3:51.61 | 4:15.41 | 17386 | 36551
3 | 8:07.27 | 4:21.29 | 36552 | 56155
4 | 12:28.56 | 3:58.04 | 56156 | 74009
5 | 16:26.60 | 5:08.68 | 74010 | 97177
6 | 21:35.53 | 4:28.66 | 97178 | 117343
7 | 26:04.44 | 4:41.16 | 117344 | 138434
8 | 30:45.60 | 4:43.13 | 138435 | 159672
9 | 35:28.73 | 4:46.15 | 159673 | 181137
10 | 40:15.13 | 4:05.54 | 181138 | 199566
11 | 44:20.67 | 3:50.50 | 199567 | 216866
12 | 48:11.42 | 3:50.42 | 216867 | 234158
13 | 52:02.09 | 5:03.33 | 234159 | 256916
14 | 57:05.42 | 4:38.37 | 256917 | 277803
15 | 61:44.04 | 5:21.02 | 277804 | 301880
16 | 67:05.06 | 3:07.24 | 301881 | 315929
17 | 70:12.30 | 5:05.03 | 315930 | 338807
Характеристики диапазона извлечения и сообщения об ошибках
Выбранный диапазон
Имя файла F:Заяц Поп ШоуЗАЯЦ ПОП ШОУ - BEST Vol. 2ЗАЯЦ POP ШОУ - Best Vol.2.wav
Пиковый уровень 93.7 %
Качество диапазона 100.0 %
CRC теста 2F05E7E5
CRC копии 2F05E7E5
Копирование... OK
Ошибок не произошло
AccurateRip: сводка
Трек 1 нет в базе данных
Трек 2 нет в базе данных
Трек 3 нет в базе данных
Трек 4 нет в базе данных
Трек 5 нет в базе данных
Трек 6 нет в базе данных
Трек 7 нет в базе данных
Трек 8 нет в базе данных
Трек 9 нет в базе данных
Трек 10 нет в базе данных
Трек 11 нет в базе данных
Трек 12 нет в базе данных
Трек 13 нет в базе данных
Трек 14 нет в базе данных
Трек 15 нет в базе данных
Трек 16 нет в базе данных
Трек 17 нет в базе данных
Ни одного трека нет в базе AccurateRip
Конец отчёта
1995 - ТРАНС-МИССИЯ ТOТАЛЬНАЯ ШИЗОФРЕНИЯ 00
Заяц Поп Шоу и Другие его Проекты - Дискография 01. lntro 1:13
02. I Like To Do It 4:07
03. Ненависть 3:53
04. Новые Русские 4:48
05. Андроид 5:11
06. Время 3:41
07. Раздавленная Любовь 4:20
08. Шизофрения 6:09
09. Заяц-Не Птица 3:18
10. Диск Луны 4:21
11. Весна-Instrumental 5:05
12. Канэшна, Вдую! 3:14
13. Да Мне Чайки... 3:04
Лог создания рипа

Exact Audio Copy V0.99 prebeta 5 from 4. May 2009
Отчёт EAC об извлечении, выполненном 3. августа 2011, 19:38
ТРАНС-МИССИЯ / ТOТАЛЬНАЯ ШИЗОФРЕНИЯ
Дисковод: PLEXTOR CD-R PREMIUM2 Adapter: 0 ID: 0
Режим чтения : Достоверность
Использование точного потока : Да
Отключение кэша аудио : Да
Использование указателей C2 : Нет
Коррекция смещения при чтении : 30
Способность читать области Lead-in и Lead-out : Нет
Заполнение пропущенных сэмплов тишиной : Да
Удаление блоков с тишиной в начале и конце : Нет
При вычислениях CRC использовались нулевые сэмплы : Да
Интерфейс : Встроенный Win32-интерфейс для Win NT/2000
Выходной формат : Внутренние WAV-операции
Формат сэмплов : 44.100 Гц; 16 бит; стерео
TOC извлечённого CD
Трек | Старт | Длительность | Начальный сектор | Конечный сектор
---------------------------------------------------------------------
1 | 0:00.62 | 1:12.38 | 62 | 5499
2 | 1:13.25 | 4:07.25 | 5500 | 24049
3 | 5:20.50 | 3:53.00 | 24050 | 41524
4 | 9:13.50 | 4:48.25 | 41525 | 63149
5 | 14:02.00 | 5:10.50 | 63150 | 86449
6 | 19:12.50 | 3:40.50 | 86450 | 102999
7 | 22:53.25 | 4:20.25 | 103000 | 122524
8 | 27:13.50 | 6:08.50 | 122525 | 150174
9 | 33:22.25 | 3:17.50 | 150175 | 164999
10 | 36:40.00 | 4:20.50 | 165000 | 184549
11 | 41:00.50 | 5:04.50 | 184550 | 207399
12 | 46:05.25 | 3:14.25 | 207400 | 221974
13 | 49:19.50 | 3:04.25 | 221975 | 235799
Характеристики диапазона извлечения и сообщения об ошибках
Выбранный диапазон
Имя файла F:ТРАНС-МИССИЯ - ТOТАЛЬНАЯ ШИЗОФРЕНИЯ.wav
Пиковый уровень 91.7 %
Качество диапазона 99.9 %
CRC теста F45EE708
CRC копии F45EE708
Копирование... OK
Ошибок не произошло
AccurateRip: сводка
Трек 1 нет в базе данных
Трек 2 нет в базе данных
Трек 3 нет в базе данных
Трек 4 нет в базе данных
Трек 5 нет в базе данных
Трек 6 нет в базе данных
Трек 7 нет в базе данных
Трек 8 нет в базе данных
Трек 9 нет в базе данных
Трек 10 нет в базе данных
Трек 11 нет в базе данных
Трек 12 нет в базе данных
Трек 13 нет в базе данных
Ни одного трека нет в базе AccurateRip
Конец отчёта
1996 - ДАВАЙ-ДАВАЙ! SOLARIS CLUB EP 00
01. Progressive Зайки (Club mix) 4:39
02. Progressive Зайки (Hardfloor mix) 5:18
03. Черепаший House 5:11
04. Давай, Давай! (Dub mix) 4:36
05. Давай, Давай! (Solaris Mix) 5:12
Лог создания рипа

Exact Audio Copy V0.99 prebeta 5 from 4. May 2009
Отчёт EAC об извлечении, выполненном 9. августа 2011, 21:50
ДАВАЙ-ДАВАЙ! / SOLARIS CLUB EP
Дисковод: PLEXTOR CD-R PREMIUM2 Adapter: 0 ID: 0
Режим чтения : Достоверность
Использование точного потока : Да
Отключение кэша аудио : Да
Использование указателей C2 : Нет
Коррекция смещения при чтении : 30
Способность читать области Lead-in и Lead-out : Нет
Заполнение пропущенных сэмплов тишиной : Да
Удаление блоков с тишиной в начале и конце : Нет
При вычислениях CRC использовались нулевые сэмплы : Да
Интерфейс : Встроенный Win32-интерфейс для Win NT/2000
Выходной формат : Внутренние WAV-операции
Формат сэмплов : 44.100 Гц; 16 бит; стерео
TOC извлечённого CD
Трек | Старт | Длительность | Начальный сектор | Конечный сектор
---------------------------------------------------------------------
1 | 0:00.25 | 4:39.25 | 25 | 20974
2 | 4:39.50 | 5:18.25 | 20975 | 44849
3 | 9:58.00 | 5:11.00 | 44850 | 68174
4 | 15:09.00 | 4:36.00 | 68175 | 88874
5 | 19:45.00 | 5:12.00 | 88875 | 112274
Характеристики диапазона извлечения и сообщения об ошибках
Выбранный диапазон
Имя файла F:Заяц Поп ШоуПроект - Давай, Давай!ДАВАЙ-ДАВАЙ! - SOLARIS CLUB EP.wav
Пиковый уровень 91.2 %
Качество диапазона 100.0 %
CRC теста 6FE487C3
CRC копии 6FE487C3
Копирование... OK
Ошибок не произошло
AccurateRip: сводка
Трек 1 нет в базе данных
Трек 2 нет в базе данных
Трек 3 нет в базе данных
Трек 4 нет в базе данных
Трек 5 нет в базе данных
Ни одного трека нет в базе AccurateRip
Конец отчёт
1996 - ДАВАЙ-ДАВАЙ! ТАНЦЕВАЛЬНОЕ ПРОСТРАНСТВО 00
01. Танцевальное Пространство 33 5:17
02. Анталия 5:38
03. Витаминки-Самоежки 5:19
04. Про Заек (Про каких, Нахрен Mix) 5:15
05. Измайловский House 5:12
06. Дети (Steb mix) 4:48
07. Megamix 33 17:48
Лог создания рипа

Exact Audio Copy V0.99 prebeta 5 from 4. May 2009
Отчёт EAC об извлечении, выполненном 9. августа 2011, 22:48
ДАВАЙ-ДАВАЙ! / "ТАНЦЕВАЛЬНОЕ ПРОСТРАНСТВО 33"
Дисковод: PLEXTOR CD-R PREMIUM2 Adapter: 0 ID: 0
Режим чтения : Достоверность
Использование точного потока : Да
Отключение кэша аудио : Да
Использование указателей C2 : Нет
Коррекция смещения при чтении : 30
Способность читать области Lead-in и Lead-out : Нет
Заполнение пропущенных сэмплов тишиной : Да
Удаление блоков с тишиной в начале и конце : Нет
При вычислениях CRC использовались нулевые сэмплы : Да
Интерфейс : Встроенный Win32-интерфейс для Win NT/2000
Выходной формат : Внутренние WAV-операции
Формат сэмплов : 44.100 Гц; 16 бит; стерео
TOC извлечённого CD
Трек | Старт | Длительность | Начальный сектор | Конечный сектор
---------------------------------------------------------------------
1 | 0:00.50 | 5:17.00 | 50 | 23824
2 | 5:17.50 | 5:38.00 | 23825 | 49174
3 | 10:55.50 | 5:19.25 | 49175 | 73124
4 | 16:15.00 | 5:15.00 | 73125 | 96749
5 | 21:30.00 | 5:12.25 | 96750 | 120174
6 | 26:42.25 | 4:48.25 | 120175 | 141799
7 | 31:30.50 | 17:48.25 | 141800 | 221924
Характеристики диапазона извлечения и сообщения об ошибках
Выбранный диапазон
Имя файла F:Заяц Поп ШоуДАВАЙ-ДАВАЙ! - ''ТАНЦЕВАЛЬНОЕ ПРОСТРАНСТВО 33''ДАВАЙ-ДАВАЙ! - ТАНЦЕВАЛЬНОЕ ПРОСТРАНСТВО 33.wav
Пиковый уровень 99.4 %
Качество диапазона 99.9 %
CRC теста E356FFBE
CRC копии E356FFBE
Копирование... OK
Ошибок не произошло
AccurateRip: сводка
Трек 1 нет в базе данных
Трек 2 нет в базе данных
Трек 3 нет в базе данных
Трек 4 нет в базе данных
Трек 5 нет в базе данных
Трек 6 нет в базе данных
Трек 7 нет в базе данных
Ни одного трека нет в базе AccurateRip
Конец отчёта
1996 - RUSSIAN DANCE CLUB feat. DJ AЦETOH VOLUME 1 00
01. Голоса Планет 5:52
02. Всей Попсне-могила! 6:11
03. Zoo Zoo 5:30
04. Моложежная-Кислотная 6:12
05. Extasy 6:21
06. Пуки-Буки 5:07
07. Полет Мечты 5:23
08. Давай Затупим! 5:38
09. Московский Спартак 6:24
10. Открой Свое сердце 6:58
Лог создания рипа

Exact Audio Copy V0.99 prebeta 5 from 4. May 2009
Отчёт EAC об извлечении, выполненном 9. августа 2011, 23:42
DJ AЦETOH / RUSSIAN DANCE CLUB feat. DJ AЦETOH
Дисковод: PLEXTOR CD-R PREMIUM2 Adapter: 0 ID: 0
Режим чтения : Достоверность
Использование точного потока : Да
Отключение кэша аудио : Да
Использование указателей C2 : Нет
Коррекция смещения при чтении : 30
Способность читать области Lead-in и Lead-out : Нет
Заполнение пропущенных сэмплов тишиной : Да
Удаление блоков с тишиной в начале и конце : Нет
При вычислениях CRC использовались нулевые сэмплы : Да
Интерфейс : Встроенный Win32-интерфейс для Win NT/2000
Выходной формат : Внутренние WAV-операции
Формат сэмплов : 44.100 Гц; 16 бит; стерео
TOC извлечённого CD
Трек | Старт | Длительность | Начальный сектор | Конечный сектор
---------------------------------------------------------------------
1 | 0:00.03 | 5:51.65 | 3 | 26392
2 | 5:51.68 | 6:11.15 | 26393 | 54232
3 | 12:03.08 | 5:30.00 | 54233 | 78982
4 | 17:33.08 | 6:12.22 | 78983 | 106904
5 | 23:45.30 | 6:21.13 | 106905 | 135492
6 | 30:06.43 | 5:06.62 | 135493 | 158504
7 | 35:13.30 | 5:22.53 | 158505 | 182707
8 | 40:36.08 | 5:37.72 | 182708 | 208054
9 | 46:14.05 | 6:23.48 | 208055 | 236827
10 | 52:37.53 | 6:57.57 | 236828 | 268159
Характеристики диапазона извлечения и сообщения об ошибках
Выбранный диапазон
Имя файла F:Заяц Поп ШоуRUSSIAN DANCE CLUB feat. DJ AЦETOHDJ AЦETOH - RUSSIAN DANCE CLUB feat. DJ AЦETOH.wav
Пиковый уровень 100.0 %
Качество диапазона 100.0 %
CRC теста 8668EB02
CRC копии 8668EB02
Копирование... OK
Ошибок не произошло
AccurateRip: сводка
Трек 1 нет в базе данных
Трек 2 нет в базе данных
Трек 3 нет в базе данных
Трек 4 нет в базе данных
Трек 5 нет в базе данных
Трек 6 нет в базе данных
Трек 7 нет в базе данных
Трек 8 нет в базе данных
Трек 9 нет в базе данных
Трек 10 нет в базе данных
Ни одного трека нет в базе AccurateRip
Конец отчёта
1997 - АНЖЕЛА БАБИЧ ЭХ-ОКСАНА! 00
Заяц Поп Шоу и Другие его Проекты - Дискография 01. Оксана И Сало 3:12
02. Подари Мне Свою Любовь 4:35
03. Африка 4:45
04. Свет В Окне (Remix) 4:04
05. Песочная Любовь 5:04
06. Jimmy - Ача! Ача! Ача! 5:06
07. Оксана И Ганс 3:36
08. Твои Голубые Глаза 3:49
09. Лысая Песня 4:28
10. Я Люблю Тебя 5:21
Лог создания рипа

xact Audio Copy V0.99 prebeta 5 from 4. May 2009
Отчёт EAC об извлечении, выполненном 9. августа 2011, 21:22
Анжела Бабич / Эх, Оксана
Дисковод: PLEXTOR CD-R PREMIUM2 Adapter: 0 ID: 0
Режим чтения : Достоверность
Использование точного потока : Да
Отключение кэша аудио : Да
Использование указателей C2 : Нет
Коррекция смещения при чтении : 30
Способность читать области Lead-in и Lead-out : Нет
Заполнение пропущенных сэмплов тишиной : Да
Удаление блоков с тишиной в начале и конце : Нет
При вычислениях CRC использовались нулевые сэмплы : Да
Интерфейс : Встроенный Win32-интерфейс для Win NT/2000
Выходной формат : Внутренние WAV-операции
Формат сэмплов : 44.100 Гц; 16 бит; стерео
TOC извлечённого CD
Трек | Старт | Длительность | Начальный сектор | Конечный сектор
---------------------------------------------------------------------
1 | 0:00.00 | 3:11.50 | 0 | 14374
2 | 3:11.50 | 4:34.43 | 14375 | 34967
3 | 7:46.18 | 4:45.37 | 34968 | 56379
4 | 12:31.55 | 4:03.50 | 56380 | 74654
5 | 16:35.30 | 5:03.50 | 74655 | 97429
6 | 21:39.05 | 5:06.25 | 97430 | 120404
7 | 26:45.30 | 3:36.28 | 120405 | 136632
8 | 30:21.58 | 3:48.52 | 136633 | 153784
9 | 34:10.35 | 4:27.63 | 153785 | 173872
10 | 38:38.23 | 5:21.25 | 173873 | 197972
Характеристики диапазона извлечения и сообщения об ошибках
Выбранный диапазон
Имя файла F:Заяц Поп ШоуАнжела Бабич -''Эх, Оксана!...''Анжела Бабич - Эх, Оксана.wav
Пиковый уровень 100.0 %
Качество диапазона 100.0 %
CRC теста 7144FC08
CRC копии 7144FC08
Копирование... OK
Ошибок не произошло
AccurateRip: сводка
Трек 1 нет в базе данных
Трек 2 нет в базе данных
Трек 3 нет в базе данных
Трек 4 нет в базе данных
Трек 5 нет в базе данных
Трек 6 нет в базе данных
Трек 7 нет в базе данных
Трек 8 нет в базе данных
Трек 9 точное извлечение (доверие 1) [022A104D]
Трек 10 точное извлечение (доверие 1) [4206B66C]
2 трек(и) скопированы точно
8 трек(и) не содержатся в базе AccurateRip
Некоторые треки не прошли проверку на точность
Конец отчёта
1996 - МИША ША! РЕЗИНОВАЯ ЗИНА 00
Заяц Поп Шоу и Другие его Проекты - Дискография 01. Говновоз 5:14
02. Цыганочка 4:28
03. Колхозная 4:51
04. Клавдия 4:27
05. Приятного аппетита 0:35
06. Урок Любви 4:36
07. Вампирская Лирическая 4:59
08. Солдатская Дружба 4:40
09. Нинкина Любовь 4:42
10. Резиновая Зина 6:07
11. Говновоз (Reprise) 0:47
Лог создания рипа

Exact Audio Copy V0.99 prebeta 5 from 4. May 2009
Отчёт EAC об извлечении, выполненном 2. августа 2011, 21:25
МИША ША! / РЕЗИНОВАЯ ЗИНА
Дисковод: PLEXTOR CD-R PREMIUM2 Adapter: 0 ID: 0
Режим чтения : Достоверность
Использование точного потока : Да
Отключение кэша аудио : Да
Использование указателей C2 : Нет
Коррекция смещения при чтении : 30
Способность читать области Lead-in и Lead-out : Нет
Заполнение пропущенных сэмплов тишиной : Да
Удаление блоков с тишиной в начале и конце : Нет
При вычислениях CRC использовались нулевые сэмплы : Да
Интерфейс : Встроенный Win32-интерфейс для Win NT/2000
Выходной формат : Внутренние WAV-операции
Формат сэмплов : 44.100 Гц; 16 бит; стерео
TOC извлечённого CD
Трек | Старт | Длительность | Начальный сектор | Конечный сектор
---------------------------------------------------------------------
1 | 0:00.25 | 5:14.37 | 25 | 23611
2 | 5:14.62 | 4:28.13 | 23612 | 43724
3 | 9:43.00 | 4:51.25 | 43725 | 65574
4 | 14:34.25 | 4:27.25 | 65575 | 85624
5 | 19:01.50 | 0:34.50 | 85625 | 88224
6 | 19:36.25 | 4:36.25 | 88225 | 108949
7 | 24:12.50 | 4:59.25 | 108950 | 131399
8 | 29:12.00 | 4:40.00 | 131400 | 152399
9 | 33:52.00 | 4:42.37 | 152400 | 173586
10 | 38:34.37 | 6:07.13 | 173587 | 201124
11 | 44:41.50 | 0:47.00 | 201125 | 204649
Характеристики диапазона извлечения и сообщения об ошибках
Выбранный диапазон
Имя файла F:Миша Ша! - Резиновая Зина.wav
Пиковый уровень 99.9 %
Качество диапазона 100.0 %
CRC теста 11C5F8F3
CRC копии 11C5F8F3
Копирование... OK
Ошибок не произошло
AccurateRip: сводка
Трек 1 точное извлечение (доверие 1) [79FEF3CF]
Трек 2 точное извлечение (доверие 1) [66BA9B9F]
Трек 3 точное извлечение (доверие 1) [589F7196]
Трек 4 точное извлечение (доверие 1) [41F6EF54]
Трек 5 точное извлечение (доверие 1) [4632278D]
Трек 6 точное извлечение (доверие 1) [44C3F0B4]
Трек 7 точное извлечение (доверие 1) [0197D8F7]
Трек 8 точное извлечение (доверие 1) [6EAACA3F]
Трек 9 точное извлечение (доверие 1) [687188CA]
Трек 10 точное извлечение (доверие 1) [904E0950]
Трек 11 точное извлечение (доверие 1) [2DDC4D57]
Все треки извлечены точно
Конец отчёта
1999 - МИША ША!-2 ОТМОРОЖЕННАЯ или ТРЕТИЙ ГЛАЗ 00
01. Intro 0:39
02. Третий глаз 5:18
03. Отмороженная 4:23
04. Строевая 0:51
05. Часовой Собакин 3:46
06. Нет жены 5:18
07. Галина с бланшем 0:29
08. Тихонечко так... 5:04
09. Жаба задавила 3:34
10. Хирургическая 4:31
11. Люблю слухать я rave 0:25
12. Не поеду в Германию 5:41
13. Колька - мужик заводной 3:56
14. Детство голодное 0:29
15. Sex-гигант 5:06
16. Часы с кукушкой 0:29
Лог создания рипа

Exact Audio Copy V0.99 prebeta 5 from 4. May 2009
Отчёт EAC об извлечении, выполненном 2. августа 2011, 22:49
Миша Ша! 2 / Третий Глаз
Дисковод: PLEXTOR CD-R PREMIUM2 Adapter: 0 ID: 0
Режим чтения : Достоверность
Использование точного потока : Да
Отключение кэша аудио : Да
Использование указателей C2 : Нет
Коррекция смещения при чтении : 30
Способность читать области Lead-in и Lead-out : Нет
Заполнение пропущенных сэмплов тишиной : Да
Удаление блоков с тишиной в начале и конце : Нет
При вычислениях CRC использовались нулевые сэмплы : Да
Интерфейс : Встроенный Win32-интерфейс для Win NT/2000
Выходной формат : Внутренние WAV-операции
Формат сэмплов : 44.100 Гц; 16 бит; стерео
TOC извлечённого CD
Трек | Старт | Длительность | Начальный сектор | Конечный сектор
---------------------------------------------------------------------
1 | 0:00.00 | 0:39.28 | 0 | 2952
2 | 0:39.28 | 5:18.04 | 2953 | 26806
3 | 5:57.32 | 4:22.42 | 26807 | 46498
4 | 10:19.74 | 0:50.72 | 46499 | 50320
5 | 11:10.71 | 3:46.35 | 50321 | 67305
6 | 14:57.31 | 5:17.42 | 67306 | 91122
7 | 20:14.73 | 0:29.15 | 91123 | 93312
8 | 20:44.13 | 5:03.58 | 93313 | 116095
9 | 25:47.71 | 3:34.02 | 116096 | 132147
10 | 29:21.73 | 4:30.65 | 132148 | 152462
11 | 33:52.63 | 0:24.44 | 152463 | 154306
12 | 34:17.32 | 5:40.45 | 154307 | 179851
13 | 39:58.02 | 3:55.58 | 179852 | 197534
14 | 43:53.60 | 0:29.32 | 197535 | 199741
15 | 44:23.17 | 5:06.29 | 199742 | 222720
16 | 49:29.46 | 0:29.19 | 222721 | 224914
Характеристики диапазона извлечения и сообщения об ошибках
Выбранный диапазон
Имя файла F:Заяц Поп ШоуМиша Ша! 2 - Третий ГлазМиша Ша! 2 - Отмороженная.wav
Пиковый уровень 98.8 %
Качество диапазона 99.9 %
CRC теста C09AEECD
CRC копии C09AEECD
Копирование... OK
Ошибок не произошло
AccurateRip: сводка
Трек 1 нет в базе данных
Трек 2 нет в базе данных
Трек 3 нет в базе данных
Трек 4 нет в базе данных
Трек 5 нет в базе данных
Трек 6 нет в базе данных
Трек 7 нет в базе данных
Трек 8 нет в базе данных
Трек 9 нет в базе данных
Трек 10 нет в базе данных
Трек 11 нет в базе данных
Трек 12 нет в базе данных
Трек 13 нет в базе данных
Трек 14 нет в базе данных
Трек 15 нет в базе данных
Трек 16 нет в базе данных
Ни одного трека нет в базе AccurateRip
Конец отчёта
2003 - ЗАЯЦ ПОП ШОУ Время Лететь (издание альбома после смерти) 01
Заяц Поп Шоу и Другие его Проекты - Дискография 01. Время Лететь 4:00
02. Мы - Звёзды Попсни 4:31
03. Little Маша 5:12
04. Самосвал Любви 4:01
05. Убегай, Заяц Идёт! 4:20
06. Если Мент...(Remix 2002) 3:45
07. Ну Почему? 3:48
08. Без Твоей Любви 4:06
09. Шёпот Дождя 5:47
10. Один На Один 3:11
11. Компьютер - Лох 4:19
12. Пиво - Лучший Алькоголь! 3:19
13. Давай Россия! 4:12
14. Если Мент... (Original Version) 3:18
15. Little Маша (Radio Version) 3:38
16. Megamix 11:07
17. Время Лететь (English Version) 3:59
Лог создания рипа

Exact Audio Copy V0.99 prebeta 5 from 4. May 2009
Отчёт EAC об извлечении, выполненном 10. августа 2011, 2:43
ЗАЯЦ ПОП ШОУ / Время Лететь
Дисковод: PLEXTOR CD-R PREMIUM2 Adapter: 0 ID: 0
Режим чтения : Достоверность
Использование точного потока : Да
Отключение кэша аудио : Да
Использование указателей C2 : Нет
Коррекция смещения при чтении : 30
Способность читать области Lead-in и Lead-out : Нет
Заполнение пропущенных сэмплов тишиной : Да
Удаление блоков с тишиной в начале и конце : Нет
При вычислениях CRC использовались нулевые сэмплы : Да
Интерфейс : Встроенный Win32-интерфейс для Win NT/2000
Выходной формат : Внутренние WAV-операции
Формат сэмплов : 44.100 Гц; 16 бит; стерео
TOC извлечённого CD
Трек | Старт | Длительность | Начальный сектор | Конечный сектор
---------------------------------------------------------------------
1 | 0:00.00 | 3:59.70 | 0 | 17994
2 | 3:59.70 | 4:31.05 | 17995 | 38324
3 | 8:31.00 | 5:11.65 | 38325 | 61714
4 | 13:42.65 | 4:01.11 | 61715 | 79800
5 | 17:44.01 | 4:20.26 | 79801 | 99326
6 | 22:04.27 | 3:44.59 | 99327 | 116185
7 | 25:49.11 | 3:48.32 | 116186 | 133317
8 | 29:37.43 | 4:06.20 | 133318 | 151787
9 | 33:43.63 | 5:46.74 | 151788 | 177811
10 | 39:30.62 | 3:10.74 | 177812 | 192135
11 | 42:41.61 | 4:19.35 | 192136 | 211595
12 | 47:01.21 | 3:18.65 | 211596 | 226510
13 | 50:20.11 | 4:12.31 | 226511 | 245441
14 | 54:32.42 | 3:18.15 | 245442 | 260306
15 | 57:50.57 | 3:37.44 | 260307 | 276625
16 | 61:28.26 | 11:07.02 | 276626 | 326652
17 | 72:35.28 | 3:58.43 | 326653 | 344545
Характеристики диапазона извлечения и сообщения об ошибках
Выбранный диапазон
Имя файла F:Заяц Поп ШоуЗАЯЦ ПОП ШОУ - Время ЛететьЗАЯЦ ПОП ШОУ - Время Лететь.wav
Пиковый уровень 100.0 %
Качество диапазона 100.0 %
CRC теста 44580630
CRC копии 44580630
Копирование... OK
Ошибок не произошло
AccurateRip: сводка
Трек 1 точное извлечение (доверие 1) [BEA1C977]
Трек 2 нет в базе данных
Трек 3 нет в базе данных
Трек 4 нет в базе данных
Трек 5 нет в базе данных
Трек 6 точное извлечение (доверие 1) [C2BC4855]
Трек 7 нет в базе данных
Трек 8 нет в базе данных
Трек 9 нет в базе данных
Трек 10 нет в базе данных
Трек 11 нет в базе данных
Трек 12 нет в базе данных
Трек 13 нет в базе данных
Трек 14 нет в базе данных
Трек 15 нет в базе данных
Трек 16 нет в базе данных
Трек 17 нет в базе данных
2 трек(и) скопированы точно
15 трек(и) не содержатся в базе AccurateRip
Некоторые треки не прошли проверку на точность
Конец отчёта


Доп. информация: Исполнители: [Николай Зайцев],
Александр Романов, Scream,
Анжела Бабич, Надежда Антончик,
Михаил Шелег, Вова Зайцев,
Владимир Истомин, Сергей Васюта, Ацетон и др.
Оффсайт: http://zayatspopshow.narod.ru/discography
Спасибо жене Коли за предоставленный полностью материал!

Издатели этого проекта просят женщин и детей воздержаться от прослушивания некоторых песен!!!
Музыка / Lossless / Дискографии (Поп музыка)
СКАЧАТЬ БЕСПЛАТНО  [7.1 GB]


30
мая
2009

Дискография/Мин нет 2004-2005, Поп

Формат: MP3, tracks, 192-320kbps [VBR]
Год выпуска: 2004-2005
Страна: Россия
Жанр: Поп
Продолжительность: 03:00:00
Треклист: Peace да (192 kbps) 1 Intro: Radio (А что скажет Путин) 2 Peace - да! 3 Мин нет 4 Таллинская (Intro) 5 Все будет хорошо 6 Школа No. 705 (Intro) 7 Никто не знает 8 Ленинградское шоссе (Intro) 9 Судный день 10 Роман плюс Юля (Intro) 11 На игле 12 Intro 14 Прощальный разговор 15 Прости, прощай 16 Анфиса, Герда и Алиса 17 Мин нет (Radio Remix) 18 Никто не знает (Remix) 19 Peace - да! (Remix) Убить ДеЦла (320 kbps) 1 Intro 2 Три слова 3 Не плачь 4 Все будет хорошо 5 Ми ...

16
июл
2014

Ленинград - Поп и балда [2014, Рок, MP3]

Формат: MP3, tracks, 320kbps
Год выпуска: 2014
Страна: Россия
Жанр: Рок
Продолжительность: 01:08:01
Описание: 01. Родная 02. Финский залив 03. Мы играли 04. Белуга 05. Парголово 06. Батл Красного 07. Sensation 08. Сумка 09. Хорошо там, где мы есть 10. Плачу 11. Алиса 12. Суходрочка 13. Интеграл 14. Цунами 15. Дорожная LIVE
БОНУСЫ: 16. Борщ (live bonus) 17. Нет, я не хочу (live bonus) 18. Пока жив (live bonus) 19. Prada (live bonus) 20. Уебан (live bonus) 21. Танцпол (live bonus) 22. Парголово (live bonus) 23. Баба не моего масштаба (live bonus) 24. Русалка (live bonu ...

27
фев
2014

Григорий Данской и ансамбль Пятый корпус - Dead Moroz и другие П [2009, фолк-рок, MP3]

Формат: MP3, tracks, 320kbps
Год выпуска: 2009
Страна: Россия
Жанр: фолк-рок
Продолжительность: 00:50:00
Описание: 01. Станция Боковая 02. В пользу натуры 03. Писатель 04. Нас подняли рано 05. Место здесь, а время сейчас... (Трое) 06. Летчик 07. Фрост 08. Сапог 09. Где было море 10. DEAD MOROZ 2008 11. Нет конца 12. REMAKE 13. Певец по городу 14. DEAD MOROZ 2009

22
янв
2016

Сборник - Сектор Газа и другие [2016, Панк, Рок, MP3]

Формат: MP3, tracks, 320kbps
Год выпуска: 2016
Страна: Россия
Жанр: Панк, Рок
Продолжительность: 09:06:49
Описание: ТреклистСЕКТОР ГАЗА 001 Мы совковские ребята 002 ВИА Сектор Газа 003 Колхозный панк 004 Носки 005 Импотент 006 Возле Дома Твоего 007 Вечером На Лавочке 008 Скотник 009 Страх 010 Пердун 011 Ой, Ты Травушка Зелёная 012 Спор 013 Плуги-вуги 014 Нас Ждут Из Темноты 015 Снегурочка 016 Ночь перед Рождеством 017 Кума 018 Ява 019 Презерватив - 2 020 Щи 021 Утопленник 022 Туман 023 Гуляй, мужик! 024 Песенка 025 Свидание 026 30 лет 027 Местные 028 Демобилизация 029 Голубь 030 Частушки 031 ...

19
июн
2016

DJ Slon и другие - Видеоколлекция [2000-2010, Techno, Pop, DVD5]

Формат: DVD5, DVD Video, MPEG2, AC3
Песня: Видеоколлекция
Жанр: Techno, Pop
Продолжительность: 01:16:34
Год выпуска: 2000-2010
Видео: 720х576 (PAL 16:9), 25,000 fps, MPEG-2, ~7086 kbps avg, 0.683 bit/pixel
Аудио: 48.0 КГц, Audio Coding 3, 2 ch, 192 kbps
Доп. информация: Александер Альберт (DJ Slon), музыкант и продюсер.
Место проживания: Гамбург (Германия) Программа проекта «DJ SLON » рассчитана на любую аудиторию. Полная анимация, профессионализм, 10 лет на концертных и клубных площадках. Огромный опыт выступлений на площадках Европы и Америки. Танцевальная программа, как для открытых площа ...

26
янв
2007

VA - Дискотека Авария и другие [2007, Disco / Popmusic, MP3]

Формат: MP3, tracks, 192kbps
Год выпуска: 2007
Страна: Россия
Жанр: Disco
Продолжительность: 01:20:00
Треклист: 1. CJ КОКЕТКА - ЮНОШИ, ДЕВУШКИ ЖДУТ 2. Дискотека Авария - Дискотека Авария 3. Дискотека Авария - Банда (Remix) 4. Жуки - Танкист (remix) 5. Дискотека Авария - Опа 6. Reflex - Танцы 7. Алиби - Шаги по краю 8. Plazma - One Life 9. Hi-fi - A my lyubili 10. Arash и Блестящие - Восточная сказка 11. Дискотека Авария - Новогодняя 12. Дискотека Авария - Давай авария 13. Дискотека Авария - Пей пиво 14. Дискотека Авария и Жанна Фриске - Малинки 15. Мr.Credo - Чудная долина 16. Согдиана - Сердц ...

16
янв
2014

Майк - Сладкая N и Другие [1980, Рок, MP3]

Формат: MP3, tracks, 320kbps
Год выпуска: 1980
Страна: СССР
Жанр: Рок
Продолжительность: 00:46:02
Описание: 01 - Если ты хочешь 02 - Седьмое небо 03 - Фрагмент 04 - Пригородный блюз 05 - Свет 06 - Утро вдвоём 07 - Если будет дождб 08 - Я возвращаюсь домой 09 - Blues De Moscou I 10 - Сладкая N 11 - Блюз твоей реки 12 - Дрянь 13 - Всё в порядке 14 - Всю ночь 15 - Позвони мне рано утром 16 - Прощай, детка!

14
окт
2015

Эмиль Крупник - Мурка и другие... [2000, Шансон, MP3]

Формат: MP3, tracks, 320kbps
Год выпуска: 2000
Страна: Украина
Жанр: Шансон
Продолжительность: 00:52:49
Описание: 01. Мурка (на укр. яз.) 02. Я фарцовщик с черновицкого базара 03. Уехали 04. Шиксотник 05. Канада 06. Рос черновицким пацаном... 07. Опыт ностальгии 08. Ты помнишь, Белла! 09. Эти старые дворики 10. Тель-Авив 11. Мурка (караоке) 12. Рос черновицким пацаном... (караоке)
Доп. информация: Спасибо
Ник: IZYA

21
апр
2013

Владимир Шишов - Курочка Ряба и другие [2009, Шансон, MP3]

Формат: MP3, tracks, 320kbps
Год выпуска: 2009
Страна: Россия
Жанр: Шансон
Продолжительность: 01:04:27
Описание: 01. Волк и семеро козлят 02. Не пингвины 03. Весна 04. Стареем 05. Курочка Ряба 06. Белые ночи 07. Пятница 08. День рождения мамы 09. Живой журнал 10. Что же мне осталось 11. Песня о друге 12. Каменка 13. Мила 14. Охотничья 15. Однажды 16. Служебный роман 17. Я поссорился с женой

26
июн
2015

Владимир Узланер - Тетя Зина и другие [2010, Шансон, MP3]

Формат: MP3, tracks, 160kbps
Год выпуска: 2010
Страна: Россия
Жанр: Шансон
Продолжительность: 00:18:23
Описание: 01. Постой, Дед Мороз, подари мне колёса 02. Куплеты Евы 03. Тань, ах Тань 04. Через колючую проволоку 05. Гимн Милкшейкеру (про быка-осеменителя) 06. Тётя Зина и другие 07. Длинные нарды 08. Я еду завтра в Шарлоттаун
Доп. информация: Спасибо за разрешение на публикацию
Ник: ОлегМ

30
мая
2015

Сергей Аполонский - Воркута и другие города [1990, Шансон, MP3]

Формат: MP3, tracks, 128kbps
Год выпуска: 1990
Страна: СССР
Жанр: Шансон
Продолжительность: 00:36:26
Описание: 01. Воркута 02. Одесса 03. Соня 04. А я не догадался 05. В Магадане 06. Как нам быть 07. Колыма 08. Здравствуй, друг 09. Вера 10. Если б я был турецкий султан 11. До новых встреч

16
янв
2015

Gulag Tunes - ... И другие хорошие мелодии [2006, Шансон, Инструментал, MP3]

Формат: MP3, tracks, 320kbps
Год выпуска: 2006
Страна: Россия
Жанр: Шансон, Инструментал
Продолжительность: 00:45:38
Описание: 01 Фотография 02 Шкеты 03 Ходят кони над рекою 04 Раскинулось море широко 05 Серебрится серенький дымок 06 Мурка 07 Не шумите, ради Б-га тише 08 По приютам я с детства скитался 09 На Колыме 10 Розамунда 11 Если женщина изменит 12 Крутится-вертится шар голубой 13 Когда с тобой мы встретились 14 Окурочек

20
июл
2014

Сергей Аполлонский - Воркута и другие города [1990, Шансон, MP3]

Формат: MP3, tracks, 128kbps
Год выпуска: 1990
Страна: СССР
Жанр: Шансон
Продолжительность: 00:36:26
Описание: 01. Воркута 02. Одесса 03. Соня 04. А я не догадался 05. В Магадане 06. Как нам быть 07. Колыма 08. Здравствуй, друг 09. Вера 10. Еслиб я был турецкий султан 11. До новых встреч Доп. Информация :

12
ноя
2015

Андрей Петров - Берегись автомобиля и другие... [2002, Саундтрек, APE]

Формат: APE, (image + .cue), lossless
Год выпуска: 2002
Страна: Россия
Жанр: Саундтрек
Продолжительность: 00:39:03
Описание: 1. Утро (из к/ф "Служебный роман") 2. Вальс (из к/ф "Берегись автомобиля") 3. Баллада (из к/ф "Мой добрый папа") 4. Фантазия на тему музыкального к/ф "Человек Амфибия" 5. Мелодия (из к/ф "Осенний марафон") 6. Вступление (из к/ф "Вокзал для двоих") 7. Поезд (из к/ф "Белый Бим, черное ухо") 8. Вальс (из к/ф "О бедном гусаре замолвите слово") 9. Увертюра из к/ф "Укрощение огня" Отчет ЕАСExact Audio Copy V0.99 prebeta 4 from 23. January 2008 Отчёт EAC об извлечении, выполн ...

16
мар
2008

Авто-шоу девочки и веселая музыка [2003, рор, HDTV]

Исполнитель: Сборник клипов(3 клипа)
Страна: США
Год выпуска: 2003
Продолжительность: 10мин
Жанр: рор
Язык: английский
Описание: авто-шоу девочки и веселая музыка 1.Import Life 2 Portland 2002 2.Import Motion Portland 2003 3.Import Showoff BC 2002
Качество: HDTV
Формат: MPEG
Видео кодек: XviD
Аудио кодек: MP3
Видео: 640x480 (1.33:1), 25 fps, DivX Codec 5.1.1 ~1869 kbps avg, 0.24 bit/pixel
Аудио: 48 kHz, MPEG Layer 3, 2 ch, ~256.06 kbps avg