13
апр
2016

Виктор Салтыков - Дискография[1983 - 2013, Поп. FLAC]

Виктор Салтыков - Дискография
Формат: FLAC, (image + .cue), lossless
Год выпуска: 1983 - 2013
Страна: Россия
Жанр: Поп
Продолжительность: 08:44:50
Описание:

Виктор Салтыков и Мануфактура

1983 Зал ожидания 00
Виктор Салтыков - Дискография
01. Зал Ожидания 03:43
02. Городские дела 03:40
03. Невский проспект 4:44
04. Чёрно-Белый Мир 03:20
05. Гарантия 04:19
06. Ночь-Полночь 03:00
07. Миллионный дом 03;55

EAC
Exact Audio Copy V1.0 beta 3 from 29. August 2011

Отчёт EAC об извлечении, выполненном 13. апреля 2016, 19:17

Мануфактура / Зал ожидания

Дисковод: ASUS DRW-24F1ST a Adapter: 0 ID: 0

Режим чтения : Достоверность
Использование точного потока : Да
Отключение кэша аудио : Нет
Использование указателей C2 : Да

Коррекция смещения при чтении : 6
Способность читать области Lead-in и Lead-out : Нет
Заполнение пропущенных сэмплов тишиной : Да
Удаление блоков с тишиной в начале и конце : Нет
При вычислениях CRC использовались нулевые сэмплы : Да
Интерфейс : Встроенный Win32-интерфейс для Win NT/2000

Выходной формат : Пользовательский кодировщик
Выбранный битрейт : 768 kBit/s
Качество : Высокий
Добавление ID3-тега : Нет
Утилита сжатия : C:Program Files (x86)Exact Audio CopyFLACFLAC.EXE
Дополнительные параметры : -V -8 -T "Date=%year%" -T "Genre=%genre%" %source%

TOC извлечённого CD

Трек | Старт | Длительность | Начальный сектор | Конечный сектор
---------------------------------------------------------------------
1 | 0:00.10 | 3:43.32 | 10 | 16766
2 | 3:43.42 | 3:40.43 | 16767 | 33309
3 | 7:24.10 | 4:44.58 | 33310 | 54667
4 | 12:08.68 | 3:20.37 | 54668 | 69704
5 | 15:29.30 | 4:19.46 | 69705 | 89175
6 | 19:49.01 | 3:00.11 | 89176 | 102686
7 | 22:49.12 | 3:55.02 | 102687 | 120313

Характеристики диапазона извлечения и сообщения об ошибках

Выбранный диапазон

Имя файла F:Виктор Салтыков1983 Зал ожиданияМануфактура - Зал ожидания.wav

Пиковый уровень 97.7 %
Скорость извлечения 8.1 X
Качество диапазона 99.9 %
CRC теста 8197BD33
CRC копии 8197BD33
Копирование... OK

Ошибок не произошло

AccurateRip: сводка

Трек 1 отсутствует в базе данных
Трек 2 отсутствует в базе данных
Трек 3 отсутствует в базе данных
Трек 4 отсутствует в базе данных
Трек 5 отсутствует в базе данных
Трек 6 отсутствует в базе данных
Трек 7 отсутствует в базе данных

Ни одного трека нет в базе AccurateRip

Конец отчёта


Виктор Салтыков

1994 Вернись 01
Виктор Салтыков - Дискография
01. Серебряный ветер 4:08
02. Серая Луна 4:21
03. Нежные локоны 4:10
04. Не всегда 3:53
05. Единственный друг 3:26
06. Василиса 4:04
07. Полчаса 2:59
08. От 8 до 8 4:30
09. В рождественскую ночь 4:23
10. Магазин игрушек 4:00
11. Судьба 4:24
12. Я не волнуюсь 3:16
13. Вернись 6:43
14. Водолей 3:35
15. Перекрёсток 5:11
16. Алиса в Стране Чудес 5:12
17. Армия любви 4:06

EAC
Exact Audio Copy V1.0 beta 3 from 29. August 2011

Отчёт EAC об извлечении, выполненном 3. апреля 2016, 15:15

Виктор Салтыков / Вернись

Дисковод: ASUS DRW-24F1ST a Adapter: 0 ID: 0

Режим чтения : Достоверность
Использование точного потока : Да
Отключение кэша аудио : Нет
Использование указателей C2 : Да

Коррекция смещения при чтении : 6
Способность читать области Lead-in и Lead-out : Нет
Заполнение пропущенных сэмплов тишиной : Да
Удаление блоков с тишиной в начале и конце : Нет
При вычислениях CRC использовались нулевые сэмплы : Да
Интерфейс : Встроенный Win32-интерфейс для Win NT/2000

Выходной формат : Пользовательский кодировщик
Выбранный битрейт : 768 kBit/s
Качество : Высокий
Добавление ID3-тега : Нет
Утилита сжатия : C:Program Files (x86)Exact Audio CopyFLACFLAC.EXE
Дополнительные параметры : -V -8 -T "Date=%year%" -T "Genre=%genre%" %source%

TOC извлечённого CD

Трек | Старт | Длительность | Начальный сектор | Конечный сектор
---------------------------------------------------------------------
1 | 0:00.00 | 4:08.10 | 0 | 18609
2 | 4:08.10 | 4:21.07 | 18610 | 38191
3 | 8:29.17 | 4:10.00 | 38192 | 56941
4 | 12:39.17 | 3:52.43 | 56942 | 74384
5 | 16:31.60 | 3:26.20 | 74385 | 89854
6 | 19:58.05 | 4:03.70 | 89855 | 108149
7 | 24:02.00 | 2:58.42 | 108150 | 121541
8 | 27:00.42 | 4:29.45 | 121542 | 141761
9 | 31:30.12 | 4:23.00 | 141762 | 161486
10 | 35:53.12 | 3:59.40 | 161487 | 179451
11 | 39:52.52 | 4:23.68 | 179452 | 199244
12 | 44:16.45 | 3:15.40 | 199245 | 213909
13 | 47:32.10 | 6:43.20 | 213910 | 244154
14 | 54:15.30 | 3:35.12 | 244155 | 260291
15 | 57:50.42 | 5:11.23 | 260292 | 283639
16 | 63:01.65 | 5:11.52 | 283640 | 307016
17 | 68:13.42 | 4:06.03 | 307017 | 325469

Характеристики диапазона извлечения и сообщения об ошибках

Выбранный диапазон

Имя файла C:UsersshuraviMusicВиктор Салтыков1994 ВернисьВиктор Салтыков - Вернись.wav

Пиковый уровень 88.5 %
Скорость извлечения 10.1 X
Качество диапазона 99.9 %
CRC теста 5D9A9D1C
CRC копии 5D9A9D1C
Копирование... OK

Ошибок не произошло

AccurateRip: сводка

Трек 1 отсутствует в базе данных
Трек 2 отсутствует в базе данных
Трек 3 отсутствует в базе данных
Трек 4 отсутствует в базе данных
Трек 5 отсутствует в базе данных
Трек 6 отсутствует в базе данных
Трек 7 отсутствует в базе данных
Трек 8 отсутствует в базе данных
Трек 9 отсутствует в базе данных
Трек 10 отсутствует в базе данных
Трек 11 отсутствует в базе данных
Трек 12 отсутствует в базе данных
Трек 13 отсутствует в базе данных
Трек 14 отсутствует в базе данных
Трек 15 отсутствует в базе данных
Трек 16 отсутствует в базе данных
Трек 17 отсутствует в базе данных

Ни одного трека нет в базе AccurateRip

Конец отчёта


1995 Свожу с ума 00
Виктор Салтыков - Дискография
01. Белая ночь 5:35
02. Островок 4:54
03. Магазин игрушек 4:41
04. Схожу с ума 5:46
05. Ты замуж за него не выходи 4:30
06. Спасибо за день, спасибо за ночь 4:59
07. Давайте созвонимся 5:31
08. Компьютер 4:27
09. Улетели листья 4:53
10. Островок (Karaoke) 4:30

EAC
Exact Audio Copy V1.0 beta 3 from 29. August 2011

Отчёт EAC об извлечении, выполненном 3. апреля 2016, 22:50

Виктор Салтыков / Свожу с ума

Дисковод: ASUS DRW-24F1ST a Adapter: 0 ID: 0

Режим чтения : Достоверность
Использование точного потока : Да
Отключение кэша аудио : Нет
Использование указателей C2 : Да

Коррекция смещения при чтении : 6
Способность читать области Lead-in и Lead-out : Нет
Заполнение пропущенных сэмплов тишиной : Да
Удаление блоков с тишиной в начале и конце : Нет
При вычислениях CRC использовались нулевые сэмплы : Да
Интерфейс : Встроенный Win32-интерфейс для Win NT/2000

Выходной формат : Пользовательский кодировщик
Выбранный битрейт : 768 kBit/s
Качество : Высокий
Добавление ID3-тега : Нет
Утилита сжатия : C:Program Files (x86)Exact Audio CopyFLACFLAC.EXE
Дополнительные параметры : -V -8 -T "Date=%year%" -T "Genre=%genre%" %source%

TOC извлечённого CD

Трек | Старт | Длительность | Начальный сектор | Конечный сектор
---------------------------------------------------------------------
1 | 0:00.00 | 5:35.10 | 0 | 25134
2 | 5:35.10 | 4:54.35 | 25135 | 47219
3 | 10:29.45 | 4:41.00 | 47220 | 68294
4 | 15:10.45 | 5:46.35 | 68295 | 94279
5 | 20:57.05 | 4:29.65 | 94280 | 114519
6 | 25:26.70 | 4:59.03 | 114520 | 136947
7 | 30:25.73 | 5:31.07 | 136948 | 161779
8 | 35:57.05 | 4:26.70 | 161780 | 181799
9 | 40:24.00 | 4:52.38 | 181800 | 203737
10 | 45:16.38 | 4:30.22 | 203738 | 224009

Характеристики диапазона извлечения и сообщения об ошибках

Выбранный диапазон

Имя файла C:UsersshuraviMusicВиктор Салтыков1995 Свожу с умаВиктор Салтыков - Свожу с ума.wav

Пиковый уровень 98.8 %
Скорость извлечения 9.2 X
Качество диапазона 100.0 %
CRC теста 8FD4CB21
CRC копии 8FD4CB21
Копирование... OK

Ошибок не произошло

AccurateRip: сводка

Трек 1 отсутствует в базе данных
Трек 2 отсутствует в базе данных
Трек 3 отсутствует в базе данных
Трек 4 отсутствует в базе данных
Трек 5 отсутствует в базе данных
Трек 6 отсутствует в базе данных
Трек 7 отсутствует в базе данных
Трек 8 отсутствует в базе данных
Трек 9 отсутствует в базе данных
Трек 10 отсутствует в базе данных

Ни одного трека нет в базе AccurateRip

Конец отчёта


1996 Белая ночь 01
Виктор Салтыков - Дискография

01. Белая ночь 4:28
02. Схожу с ума 5:45
03. Островок 3:19
04. Ты замуж за него не выходи 3:33
05. Маменькина дочка 3:34
06. Я тебя не прощу 3:18
07. Кони в яблоках 3:28
08. Василиса 3:58
09. Нежные локоны 4:55
10. Улетели листья 4:09
11. Что сравнится с юностью 3:26
12. Полчаса 2:57
13. Дело в шляпе 3:12
14. Последнее свидание 3:31
15. Магазин игрушек 4:01
16. Серебряный ветер 4:08
17. Судьба 4:29

EAC
Exact Audio Copy V1.0 beta 3 from 29. August 2011

Отчёт EAC об извлечении, выполненном 5. апреля 2016, 22:58

Виктор Салтыков / Белая ночь

Дисковод: ASUS DRW-24F1ST a Adapter: 0 ID: 0

Режим чтения : Достоверность
Использование точного потока : Да
Отключение кэша аудио : Нет
Использование указателей C2 : Да

Коррекция смещения при чтении : 6
Способность читать области Lead-in и Lead-out : Нет
Заполнение пропущенных сэмплов тишиной : Да
Удаление блоков с тишиной в начале и конце : Нет
При вычислениях CRC использовались нулевые сэмплы : Да
Интерфейс : Встроенный Win32-интерфейс для Win NT/2000

Выходной формат : Пользовательский кодировщик
Выбранный битрейт : 768 kBit/s
Качество : Высокий
Добавление ID3-тега : Нет
Утилита сжатия : C:Program Files (x86)Exact Audio CopyFLACFLAC.EXE
Дополнительные параметры : -V -8 -T "Date=%year%" -T "Genre=%genre%" %source%

TOC извлечённого CD

Трек | Старт | Длительность | Начальный сектор | Конечный сектор
---------------------------------------------------------------------
1 | 0:00.00 | 4:27.45 | 0 | 20069
2 | 4:27.45 | 5:44.67 | 20070 | 45936
3 | 10:12.37 | 3:18.48 | 45937 | 60834
4 | 13:31.10 | 3:33.20 | 60835 | 76829
5 | 17:04.30 | 3:34.30 | 76830 | 92909
6 | 20:38.60 | 3:18.05 | 92910 | 107764
7 | 23:56.65 | 3:28.10 | 107765 | 123374
8 | 27:25.00 | 3:57.62 | 123375 | 141211
9 | 31:22.62 | 4:54.55 | 141212 | 163316
10 | 36:17.42 | 4:09.13 | 163317 | 182004
11 | 40:26.55 | 3:25.55 | 182005 | 197434
12 | 43:52.35 | 2:56.42 | 197435 | 210676
13 | 46:49.02 | 3:12.23 | 210677 | 225099
14 | 50:01.25 | 3:31.15 | 225100 | 240939
15 | 53:32.40 | 4:01.02 | 240940 | 259016
16 | 57:33.42 | 4:07.60 | 259017 | 277601
17 | 61:41.27 | 4:29.25 | 277602 | 297801

Характеристики диапазона извлечения и сообщения об ошибках

Выбранный диапазон

Имя файла C:UsersshuraviMusicВиктор Салтыков1996 Белая ночьВиктор Салтыков - Белая ночь.wav

Пиковый уровень 96.6 %
Скорость извлечения 10.1 X
Качество диапазона 100.0 %
CRC теста 843FCC58
CRC копии 843FCC58
Копирование... OK

Ошибок не произошло

AccurateRip: сводка

Трек 1 отсутствует в базе данных
Трек 2 отсутствует в базе данных
Трек 3 отсутствует в базе данных
Трек 4 отсутствует в базе данных
Трек 5 отсутствует в базе данных
Трек 6 отсутствует в базе данных
Трек 7 отсутствует в базе данных
Трек 8 отсутствует в базе данных
Трек 9 отсутствует в базе данных
Трек 10 отсутствует в базе данных
Трек 11 отсутствует в базе данных
Трек 12 отсутствует в базе данных
Трек 13 отсутствует в базе данных
Трек 14 отсутствует в базе данных
Трек 15 отсутствует в базе данных
Трек 16 отсутствует в базе данных
Трек 17 отсутствует в базе данных

Ни одного трека нет в базе AccurateRip

Конец отчёта


1999 Вот так встреча 00
Виктор Салтыков - Дискография
01. Улетели листья 3:25
02. Белая ночь 5:35
03. Спасибо за день, спасибо за ночь 4:03
04. Островок 4:55
05. Алиса в стране чудес 5:12
06. Осень 4:29
07. Схожу с ума 5:48
08. Нежные локоны 4:53
09. Кони в яблоках 3:28
10. Вот так встреча 4:08

EAC
Exact Audio Copy V1.0 beta 3 from 29. August 2011

Отчёт EAC об извлечении, выполненном 7. апреля 2016, 20:56

Виктор Салтыков / Вот так встреча

Дисковод: ASUS DRW-24F1ST a Adapter: 0 ID: 0

Режим чтения : Достоверность
Использование точного потока : Да
Отключение кэша аудио : Нет
Использование указателей C2 : Да

Коррекция смещения при чтении : 6
Способность читать области Lead-in и Lead-out : Нет
Заполнение пропущенных сэмплов тишиной : Да
Удаление блоков с тишиной в начале и конце : Нет
При вычислениях CRC использовались нулевые сэмплы : Да
Интерфейс : Встроенный Win32-интерфейс для Win NT/2000

Выходной формат : Пользовательский кодировщик
Выбранный битрейт : 768 kBit/s
Качество : Высокий
Добавление ID3-тега : Нет
Утилита сжатия : C:Program Files (x86)Exact Audio CopyFLACFLAC.EXE
Дополнительные параметры : -V -8 -T "Date=%year%" -T "Genre=%genre%" %source%

TOC извлечённого CD

Трек | Старт | Длительность | Начальный сектор | Конечный сектор
---------------------------------------------------------------------
1 | 0:00.00 | 3:24.63 | 0 | 15362
2 | 3:24.63 | 5:34.72 | 15363 | 40484
3 | 8:59.60 | 4:02.50 | 40485 | 58684
4 | 13:02.35 | 4:55.03 | 58685 | 80812
5 | 17:57.38 | 5:11.61 | 80813 | 104198
6 | 23:09.24 | 4:29.26 | 104199 | 124399
7 | 27:38.50 | 5:47.48 | 124400 | 150472
8 | 33:26.23 | 4:53.36 | 150473 | 172483
9 | 38:19.59 | 3:28.13 | 172484 | 188096
10 | 41:47.72 | 4:08.04 | 188097 | 206700

Характеристики диапазона извлечения и сообщения об ошибках

Выбранный диапазон

Имя файла C:UsersshuraviMusicВиктор Салтыков1999 Вот так встречаВиктор Салтыков - Вот так встреча.wav

Пиковый уровень 100.0 %
Скорость извлечения 22.0 X
Качество диапазона 100.0 %
CRC теста FBD0FB06
CRC копии FBD0FB06
Копирование... OK

Ошибок не произошло

AccurateRip: сводка

Трек 1 отсутствует в базе данных
Трек 2 отсутствует в базе данных
Трек 3 отсутствует в базе данных
Трек 4 отсутствует в базе данных
Трек 5 отсутствует в базе данных
Трек 6 отсутствует в базе данных
Трек 7 отсутствует в базе данных
Трек 8 отсутствует в базе данных
Трек 9 отсутствует в базе данных
Трек 10 отсутствует в базе данных

Ни одного трека нет в базе AccurateRip

Конец отчёта


1999 Шаг за шагом 00
Виктор Салтыков - Дискография
01. Клоун 4:21
02. Осень 4:30
03. Журавли 4:50
04. Привет, старик 4:09
05. Не вместе 3:52
06. Никогда 4:37
07. Шаг за шагом 4:18
08. Летняя ночь 3:39
09. Убей меня 5:10
10. Миллионный 3:36
11. Семь цифр 4:27

EAC

Exact Audio Copy V1.0 beta 3 from 29. August 2011

Отчёт EAC об извлечении, выполненном 7. апреля 2016, 21:17

Виктор Салтыков / Шаг за шагом

Дисковод: ASUS DRW-24F1ST a Adapter: 0 ID: 0

Режим чтения : Достоверность
Использование точного потока : Да
Отключение кэша аудио : Нет
Использование указателей C2 : Да

Коррекция смещения при чтении : 6
Способность читать области Lead-in и Lead-out : Нет
Заполнение пропущенных сэмплов тишиной : Да
Удаление блоков с тишиной в начале и конце : Нет
При вычислениях CRC использовались нулевые сэмплы : Да
Интерфейс : Встроенный Win32-интерфейс для Win NT/2000

Выходной формат : Пользовательский кодировщик
Выбранный битрейт : 768 kBit/s
Качество : Высокий
Добавление ID3-тега : Нет
Утилита сжатия : C:Program Files (x86)Exact Audio CopyFLACFLAC.EXE
Дополнительные параметры : -V -8 -T "Date=%year%" -T "Genre=%genre%" %source%

TOC извлечённого CD

Трек | Старт | Длительность | Начальный сектор | Конечный сектор
---------------------------------------------------------------------
1 | 0:00.00 | 4:21.32 | 0 | 19606
2 | 4:21.32 | 4:29.71 | 19607 | 39852
3 | 8:51.28 | 4:49.53 | 39853 | 61580
4 | 13:41.06 | 4:09.24 | 61581 | 80279
5 | 17:50.30 | 3:51.47 | 80280 | 97651
6 | 21:42.02 | 4:36.38 | 97652 | 118389
7 | 26:18.40 | 4:18.25 | 118390 | 137764
8 | 30:36.65 | 3:39.14 | 137765 | 154203
9 | 34:16.04 | 5:10.15 | 154204 | 177468
10 | 39:26.19 | 3:36.33 | 177469 | 193701
11 | 43:02.52 | 4:26.49 | 193702 | 213700

Характеристики диапазона извлечения и сообщения об ошибках

Выбранный диапазон

Имя файла C:UsersshuraviMusicВиктор Салтыков1999 Шаг за шагомВиктор Салтыков - Шаг за шагом.wav

Пиковый уровень 99.8 %
Скорость извлечения 21.8 X
Качество диапазона 100.0 %
CRC теста F3B221E0
CRC копии F3B221E0
Копирование... OK

Ошибок не произошло

AccurateRip: сводка

Трек 1 отсутствует в базе данных
Трек 2 отсутствует в базе данных
Трек 3 отсутствует в базе данных
Трек 4 отсутствует в базе данных
Трек 5 отсутствует в базе данных
Трек 6 отсутствует в базе данных
Трек 7 отсутствует в базе данных
Трек 8 отсутствует в базе данных
Трек 9 отсутствует в базе данных
Трек 10 отсутствует в базе данных
Трек 11 отсутствует в базе данных

Ни одного трека нет в базе AccurateRip

Конец отчёта


2001 Звездная коллекция 01
Виктор Салтыков - Дискография
01. Кони в яблоках 4:43
02. Островок 3:18
03. Улетели листья 4:09
04. Белая ночь 4:38
05. Магазин игрушек 4:01
06. Серебряный ветер 4:08
07. Водолей 3:36
08. Спасибо за день, спасибо за ночь 4:58
09. Перекрёсток 5:10
10. Схожу с ума 5:45
11. Я не волнуюсь 3:13
12. Армия любви 4:08
13. Ты замуж за него не выходи 3:33
14. Алиса в стране чудес 5:10
15. Вернись 6:39

EAC
Exact Audio Copy V1.0 beta 3 from 29. August 2011

Отчёт EAC об извлечении, выполненном 10. апреля 2016, 11:37

Виктор Салтыков / Звездная коллекция

Дисковод: ASUS DRW-24F1ST a Adapter: 0 ID: 0

Режим чтения : Достоверность
Использование точного потока : Да
Отключение кэша аудио : Нет
Использование указателей C2 : Да

Коррекция смещения при чтении : 6
Способность читать области Lead-in и Lead-out : Нет
Заполнение пропущенных сэмплов тишиной : Да
Удаление блоков с тишиной в начале и конце : Нет
При вычислениях CRC использовались нулевые сэмплы : Да
Интерфейс : Встроенный Win32-интерфейс для Win NT/2000

Выходной формат : Пользовательский кодировщик
Выбранный битрейт : 768 kBit/s
Качество : Высокий
Добавление ID3-тега : Нет
Утилита сжатия : C:Program Files (x86)Exact Audio CopyFLACFLAC.EXE
Дополнительные параметры : -V -8 -T "Date=%year%" -T "Genre=%genre%" %source%

TOC извлечённого CD

Трек | Старт | Длительность | Начальный сектор | Конечный сектор
---------------------------------------------------------------------
1 | 0:00.00 | 4:43.00 | 0 | 21224
2 | 4:43.00 | 3:18.28 | 21225 | 36102
3 | 8:01.28 | 4:09.03 | 36103 | 54780
4 | 12:10.31 | 4:37.44 | 54781 | 75599
5 | 16:48.00 | 4:00.65 | 75600 | 93664
6 | 20:48.65 | 4:07.60 | 93665 | 112249
7 | 24:56.50 | 3:35.60 | 112250 | 128434
8 | 28:32.35 | 4:58.09 | 128435 | 150793
9 | 33:30.44 | 5:10.31 | 150794 | 174074
10 | 38:41.00 | 5:44.64 | 174075 | 199938
11 | 44:25.64 | 3:13.00 | 199939 | 214413
12 | 47:38.64 | 4:07.42 | 214414 | 232980
13 | 51:46.31 | 3:32.71 | 232981 | 248951
14 | 55:19.27 | 5:10.21 | 248952 | 272222
15 | 60:29.48 | 6:38.69 | 272223 | 302141

Характеристики диапазона извлечения и сообщения об ошибках

Выбранный диапазон

Имя файла C:UsersshuraviMusicВиктор Салтыков2001 Звездная коллекцияВиктор Салтыков - Звездная коллекция.wav

Пиковый уровень 96.0 %
Скорость извлечения 9.9 X
Качество диапазона 99.9 %
CRC теста 4D661F76
CRC копии 4D661F76
Копирование... OK

Ошибок не произошло

AccurateRip: сводка

Трек 1 отсутствует в базе данных
Трек 2 отсутствует в базе данных
Трек 3 отсутствует в базе данных
Трек 4 отсутствует в базе данных
Трек 5 отсутствует в базе данных
Трек 6 отсутствует в базе данных
Трек 7 отсутствует в базе данных
Трек 8 отсутствует в базе данных
Трек 9 отсутствует в базе данных
Трек 10 отсутствует в базе данных
Трек 11 отсутствует в базе данных
Трек 12 отсутствует в базе данных
Трек 13 отсутствует в базе данных
Трек 14 отсутствует в базе данных
Трек 15 отсутствует в базе данных

Ни одного трека нет в базе AccurateRip

Конец отчёта


2011 Новое и лучшее 01
Виктор Салтыков - Дискография
01. Белая ночь 4:07
02. Кони в яблоках 4:43
03. Вернись 6:45
04. Нежные локоны 4:06
05. Осень 4:31
06. Перелётные птицы 4:17
07. Островок 4:55
08. Полчаса 3:01
09. Привет, старик 4:10
10. Ты замуж за него не выходи 3:35
11. Серебряный ветер 4:10
12. Судьба 4:26
13. Беда 3:05
14. Салтыков Виктор feat. Польна Ева - Какая нелепость 3:50
15. Салтыков Виктор feat. Май Даща - Закодированная дверь 3:58
16. Салтыков Виктор feat. Овсиенко Татьяна - Берега любви 3:36
17. Салтыков Виктор feat. Молния Катя - Виновата весна 4:08
18. Белая ночь (Remix) 3:20

EAC
Exact Audio Copy V1.0 beta 3 from 29. August 2011

Отчёт EAC об извлечении, выполненном 10. апреля 2016, 12:17

Виктор Салтыков / Новое и лучшее

Дисковод: ASUS DRW-24F1ST a Adapter: 0 ID: 0

Режим чтения : Достоверность
Использование точного потока : Да
Отключение кэша аудио : Нет
Использование указателей C2 : Да

Коррекция смещения при чтении : 6
Способность читать области Lead-in и Lead-out : Нет
Заполнение пропущенных сэмплов тишиной : Да
Удаление блоков с тишиной в начале и конце : Нет
При вычислениях CRC использовались нулевые сэмплы : Да
Интерфейс : Встроенный Win32-интерфейс для Win NT/2000

Выходной формат : Пользовательский кодировщик
Выбранный битрейт : 768 kBit/s
Качество : Высокий
Добавление ID3-тега : Нет
Утилита сжатия : C:Program Files (x86)Exact Audio CopyFLACFLAC.EXE
Дополнительные параметры : -V -8 -T "Date=%year%" -T "Genre=%genre%" %source%

TOC извлечённого CD

Трек | Старт | Длительность | Начальный сектор | Конечный сектор
---------------------------------------------------------------------
1 | 0:00.00 | 4:07.27 | 0 | 18551
2 | 4:07.27 | 4:42.73 | 18552 | 39774
3 | 8:50.25 | 6:45.19 | 39775 | 70168
4 | 15:35.44 | 4:05.74 | 70169 | 88617
5 | 19:41.43 | 4:31.20 | 88618 | 108962
6 | 24:12.63 | 4:17.21 | 108963 | 128258
7 | 28:30.09 | 4:55.00 | 128259 | 150383
8 | 33:25.09 | 3:00.41 | 150384 | 163924
9 | 36:25.50 | 4:09.40 | 163925 | 182639
10 | 40:35.15 | 3:35.22 | 182640 | 198786
11 | 44:10.37 | 4:10.12 | 198787 | 217548
12 | 48:20.49 | 4:25.67 | 217549 | 237490
13 | 52:46.41 | 3:04.41 | 237491 | 251331
14 | 55:51.07 | 3:49.69 | 251332 | 268575
15 | 59:41.01 | 3:58.04 | 268576 | 286429
16 | 63:39.05 | 3:36.24 | 286430 | 302653
17 | 67:15.29 | 4:08.11 | 302654 | 321264
18 | 71:23.40 | 3:20.37 | 321265 | 336301

Характеристики диапазона извлечения и сообщения об ошибках

Выбранный диапазон

Имя файла C:UsersshuraviMusicВиктор Салтыков2011 Новое и лучшееВиктор Салтыков - Новое и лучшее.wav

Пиковый уровень 98.8 %
Скорость извлечения 10.3 X
Качество диапазона 100.0 %
CRC теста FBA3C157
CRC копии FBA3C157
Копирование... OK

Ошибок не произошло

AccurateRip: сводка

Трек 1 отсутствует в базе данных
Трек 2 отсутствует в базе данных
Трек 3 отсутствует в базе данных
Трек 4 отсутствует в базе данных
Трек 5 отсутствует в базе данных
Трек 6 отсутствует в базе данных
Трек 7 отсутствует в базе данных
Трек 8 отсутствует в базе данных
Трек 9 отсутствует в базе данных
Трек 10 отсутствует в базе данных
Трек 11 отсутствует в базе данных
Трек 12 отсутствует в базе данных
Трек 13 отсутствует в базе данных
Трек 14 отсутствует в базе данных
Трек 15 отсутствует в базе данных
Трек 16 отсутствует в базе данных
Трек 17 отсутствует в базе данных
Трек 18 отсутствует в базе данных

Ни одного трека нет в базе AccurateRip

Конец отчёта


Виктор Салтыков и Унесенные ветром

2013 Золотые хиты 01
Виктор Салтыков - Дискография
01. Белая ночь 04:20
02. Давай, наливай! (100 балерин) 03:38
03. Родная 04:55
04. Какао 03:55
05. Островок 04:53
06. День Рождения 03:57
07. Перелетные птицы 04:12
08. Полтергейст 03:06
09. Невесомость 04:09
10. Цветные сны 03:43
11. Кони в яблоках 04:39
12. Серые капли 03:33
13. Влюбленные люди 04:26
14. Мотылек 03:27
15. Ты замуж за него не выходи 04:01
16. Свадебные кольца 03:59
17. Улетели листья 03:53
18. День без любви 04:02
19. Американцы 02:57

EAC
Exact Audio Copy V1.0 beta 3 from 29. August 2011

Отчёт EAC об извлечении, выполненном 10. апреля 2016, 12:57

Виктор Салтыков и "Унесенные ветром" / Золотые хиты

Дисковод: ASUS DRW-24F1ST a Adapter: 0 ID: 0

Режим чтения : Достоверность
Использование точного потока : Да
Отключение кэша аудио : Нет
Использование указателей C2 : Да

Коррекция смещения при чтении : 6
Способность читать области Lead-in и Lead-out : Нет
Заполнение пропущенных сэмплов тишиной : Да
Удаление блоков с тишиной в начале и конце : Нет
При вычислениях CRC использовались нулевые сэмплы : Да
Интерфейс : Встроенный Win32-интерфейс для Win NT/2000

Выходной формат : Пользовательский кодировщик
Выбранный битрейт : 768 kBit/s
Качество : Высокий
Добавление ID3-тега : Нет
Утилита сжатия : C:Program Files (x86)Exact Audio CopyFLACFLAC.EXE
Дополнительные параметры : -V -8 -T "Date=%year%" -T "Genre=%genre%" %source%

TOC извлечённого CD

Трек | Старт | Длительность | Начальный сектор | Конечный сектор
---------------------------------------------------------------------
1 | 0:00.00 | 4:02.48 | 0 | 18197
2 | 4:02.48 | 3:38.48 | 18198 | 34595
3 | 7:41.21 | 4:55.04 | 34596 | 56724
4 | 12:36.25 | 3:55.08 | 56725 | 74357
5 | 16:31.33 | 4:53.06 | 74358 | 96338
6 | 21:24.39 | 3:57.26 | 96339 | 114139
7 | 25:21.65 | 4:12.57 | 114140 | 133096
8 | 29:34.47 | 3:06.37 | 133097 | 147083
9 | 32:41.09 | 4:09.73 | 147084 | 165831
10 | 36:51.07 | 3:43.08 | 165832 | 182564
11 | 40:34.15 | 4:39.49 | 182565 | 203538
12 | 45:13.64 | 3:33.00 | 203539 | 219513
13 | 48:46.64 | 4:26.19 | 219514 | 239482
14 | 53:13.08 | 3:27.49 | 239483 | 255056
15 | 56:40.57 | 4:01.20 | 255057 | 273151
16 | 60:42.02 | 3:59.41 | 273152 | 291117
17 | 64:41.43 | 3:53.52 | 291118 | 308644
18 | 68:35.20 | 4:02.03 | 308645 | 326797
19 | 72:37.23 | 2:57.04 | 326798 | 340076

Характеристики диапазона извлечения и сообщения об ошибках

Выбранный диапазон

Имя файла C:UsersshuraviMusicВиктор Салтыков2013 Золотые хитыВиктор Салтыков и ''Унесенные ветром'' - Золотые хиты.wav

Пиковый уровень 100.0 %
Скорость извлечения 10.3 X
Качество диапазона 100.0 %
CRC теста 39CD2693
CRC копии 39CD2693
Копирование... OK

Ошибок не произошло

AccurateRip: сводка

Трек 1 отсутствует в базе данных
Трек 2 отсутствует в базе данных
Трек 3 отсутствует в базе данных
Трек 4 отсутствует в базе данных
Трек 5 отсутствует в базе данных
Трек 6 отсутствует в базе данных
Трек 7 отсутствует в базе данных
Трек 8 отсутствует в базе данных
Трек 9 отсутствует в базе данных
Трек 10 отсутствует в базе данных
Трек 11 отсутствует в базе данных
Трек 12 отсутствует в базе данных
Трек 13 отсутствует в базе данных
Трек 14 отсутствует в базе данных
Трек 15 отсутствует в базе данных
Трек 16 отсутствует в базе данных
Трек 17 отсутствует в базе данных
Трек 18 отсутствует в базе данных
Трек 19 отсутствует в базе данных

Ни одного трека нет в базе AccurateRip

Конец отчёта
Музыка / Lossless / Дискографии (Поп музыка)
СКАЧАТЬ БЕСПЛАТНО  [3.5 GB]


23
янв
2012

Виктор Салтыков - Звездная Коллекция [2001, Pop, MP3]

Формат: MP3, tracks, 320kbps
Год выпуска: 2001
Страна: Russia
Жанр: Pop
Продолжительность: 01:07:09
Описание: 01. Кони в яблоках 02. Островок 03. Улетели листья 04. Белая ночь 05. Магазин игрушек 06. Серебряный ветер 07. Водолей 08. Спасибо за... 09. Перекресток 10. Схожу с ума 11. Я не волнуюсь 12. Армия любви 13. Ты замуж за него не выходи 14. Алиса в стране чудес 15. Вернись
Доп. информация: Сборник представлен группой

28
дек
2012

Ирина Салтыкова и Виктор Салтыков - Музыкальный ринг (Золотая коллекция) [1999, Pop, TVRip]

Формат: TVRip, AVI, XviD, MP3
Песня: Музыкальный ринг
Жанр: Pop
Продолжительность: 01:27:04
Год выпуска: 1999
Видео: 600x480 (1.25:1), 25 fps, XviD build 50 ~1555 kbps avg, 0.22 bit/pixel
Аудио: 44.100 kHz, MPEG Layer 3, 2 ch, ~256.00 kbps avg
Доп. информация: «Музыкальный ринг» - легендарная программа, которую знают и помнят все. Десятки знаменитых российских звезд впервые появились на телеэкране и получили «путевку» в большую жизнь на эстраде благодаря программе «Музыкальный ринг» Сегодня на Музыкальном Ринге- Ирина Салтыкова и Виктор Салтыков. Ведущие "Музыкального Ринга" Тамара и Анастас ...

29
сен
2008

Виктор Салтыков - От А до Я (25 клипов, +бонус)[2007, поп]

Формат: DVDRip, WMV, Windows Media, WMA
Исполнитель: Виктор Салтыков
Песня: Видеоклипы и концерты
Жанр: поп
Продолжительность: 93 мин
Год выпуска: 2007
Видео: 352 x 288 (1.222), WMV2 at 632 Кбит/сек
Аудио: WMA2 at 64 Кбит/сек, 2 каналы, 44 КГц
Доп. информация: +Бонус: 01. Форум 20 лет(с концерта) 02. Гостроли(с концерта) 03. О жизни Виктора Салтыкова ч.1 04. О жизни Виктора Салтыкова ч.2 05. Музыкальный ринг 1999г. В Мае 1983 года Виктор Салтыков был солистом группы «Мануфактура». На концерты в рок-клуб заходили и известные композиторы, музыканты, уже работавшие на профессиональной сцене. Поэ ...

12
июн
2011

Виктор Смольский - Дискография [1993 - 2004, Melodic Heavy Metal, MP3]

Формат: MP3, tracks, 320kbps
Год выпуска: 1993 - 2004
Страна: Германия, Беларусь
Жанр: Melodic Heavy Metal
Продолжительность: 02:42:52
Описание: Inspector 1993 - Russian Prayer 0001 - Fever Love 03:41 02 - London Town 04:17 03 - In a Heat of the Night 03:41 04 - Rocker Rider 03:21 05 - Night Bar 05:11 06 - Russian Prayer 05:10 07 - Rolling in the Rain 04:44 08 - Joyride 02:45 09 - Passion 05:51 10 - Pretty Girl 04:10 11 - Dreamer 02:37 12 - Good Time 04:06 Victor Smolski1996 - Destiny (EP) 0001 - Destiny 03:05 02 - Day Without Your Love 03:03 03 - Rocker Rider 04:20 04 - Passion 05:132000 ...

14
ноя
2011

Виктор Третьяков - Дискография [2001 - 2011, Авторская песня, APE]

Формат: APE, (image + .cue), lossless
Год выпуска: 2001 - 2011
Страна: Россия
Жанр: Авторская песня
Продолжительность: 06:23:28
Описание: Бог Россия и Любовь 2001 00 Tреклист: 01. Роль [2:46] 02. Письмо из детдома [2:54] 03. Рижский вокзал [5:23] 04. Вася [2:47] 05. Поэты [2:58] 06. Эскиз [3:12] 07. Бог, Россия и Любовь [3:57] 08. Птицы [3:37] 09. Колокола [4:16] 10. Молитва [3:57] 11. Рождество [3:07] 12. Колыбельная [4:22] 13. Родина [3:16] 14. Париж [3:06] 15. Час Пик [2:03] Беглец 2003 00 Tреклист: 01. Осенний романс [3:06] 02. Вам звонят от Бога [3:31] 03. Кленовая [2:13] 04. Блудный сы ...

07
ноя
2009

Виктор Цой и группа "Кино" - Дискография (39 CD) [1982 - 2008, Rock, FLAC]

Формат: FLAC, tracks, 510-1093 Кбит/с
Год выпуска: 1982 - 2008
Страна: Россия
Жанр: Rock
Продолжительность: 16:00:00
Описание: 45 / 1982 / 001. Время есть, а денег нету 2. Просто хо4ешь ты знать 3. Аллюминиевые огурцы 4. Солне4ные дни 5. Бездельник 6. Бездельник 2 7. Электри4ка 8. Восьмиклассница 9. Мои друзья 10. Ситар играл 11. Дерево 12. Когда-то ты был битником 13. На кухне 14. Я - асфальт Неизвестные записи (CD 4) - Акустика - Ленинград / 1982 / 001. Просто хо4еш ты знать 2. Солне4ные дни 3. Весна 4. Алюминиевые огурцы 5. Бездельник 1 6. бездельник 2 7. Время есть, а денег нет 8. Мое наст ...

26
фев
2015

Альберт Салтыков - Воспоминания [2004, Шансон, MP3]

Формат: MP3, tracks, 320kbps
Год выпуска: 2004
Страна: Россия
Жанр: Шансон
Продолжительность: 01:03:57
Описание: 01. Молодой, молодая 02. Воспоминание 03. Осень 04. Ах, жизнь моя! 05. Я не жалею 06. Прощенье 07. Старый альбом 08. Переживу 09. Не забывайте 10. Судьба 11. Благодарю 12. Дорога 13. Белый снег 14. Рождество 15. Никогда 16. Не догонит тебя беда

27
мар
2011

Альберт Салтыков - Мадам [2007, Шансон, MP3]

Формат: MP3, tracks, 320kbps
Год выпуска: 2007
Страна: Россия
Жанр: Шансон
Продолжительность: 01:02:16
Описание: 01. Оборвется струна 02. Мадам 03. Города-дороги 04. Ягодка 05. А над храмом кресты 06. Война не мамка 07. А где-то там 08. Молодой-молодая (remix) 09. Школьный вальс 10. Родная душа 11. Между мной и тобой 12. Офицерская честь 13. За морями дальними 14. Струн я нежно коснусь 15. Давай споем

26
фев
2015

Альберт Салтыков - Города-дороги [2011, Шансон, MP3]

Формат: MP3, tracks, 192kbps
Год выпуска: 2011
Страна: Россия
Жанр: Шансон
Продолжительность: 00:57:28
Описание: 01. За туманом 02. Города-дороги 03. Купола 04. Вороной 05. Мы не волки 06. Золотые поля (дуэт В. Казначеев) 07. Переживу 08. Моя любовь (дуэт Л. Ткаченко) 09. Знаешь, я живу (Украинская) 10. Ах, как мы жили (дуэт с В. Зеленым) 11. Только ты 12. И друзья и гости 13. От лейтенанта, до генерала 14. Еду, я домой 15. Погуляем-поживем

25
мар
2011

Альберт Салтыков - Родная душа [2005, Шансон, MP3]

Формат: MP3, tracks, 320kbps
Год выпуска: 2005
Страна: Украина
Жанр: Шансон
Продолжительность: 00:54:43
Описание: 01. Родная душа 02. Не пропащая 03. Я и ты (Дуэт с О. Орловой) 04. Ягодка 05. Не догонит тебя беда (Дуэт с И. Слуцким) 06. Там-там 07. Погуляем-поживем 08. Молодой, молодая 09. Воспоминание 10. Небо 11. Для тебя (Дуэт с Л. Ткаченко) 12. Благодарю 13. Белая ночь 14. Выпьем стоя

21
дек
2013

Альберт Салтыков Офицерская честь [2006, Шансон, MP3]

Формат: MP3, tracks, 320kbps
Год выпуска: 2006
Страна: Россия
Жанр: Шансон
Продолжительность: 01:03:01
Описание: 01. Офицерская честь 02. Между мной и тобой 03. Рождество 04. Оборвется струна 05. Не пропащая 06. Не догонит судьба (дуэт с Игорем Слуцким) 07. Ягодка 08. А над храмом кресты 09. Родная душа (дуэт с Игорем Слуцким) 10. Эта жизнь 11. Погуляем-поживем 12. Молодой-молодая 13. Благодарю 14. Война не мамка 15. Переживу 16. Струн я нежно коснусь

07
дек
2017

Виктор Цой - Виктор Цой (2CD) [2017, Рок, MP3]

Формат: MP3, tracks, 320kbps
Год выпуска: 2017
Страна: Россия
Жанр: Рок
Продолжительность: 02:36:11
Описание:
ТреклистCD1: 01. Группа крови 02. Звезда по имени Солнце 03. Стук 04. Хочу перемен 05. Пачка сигарет 06. Следи за собой 07. В наших глазах 08. Кукушка 09. Песня без слов 10. Война 11. Когда твоя девушка больна 12. Нам с тобой 13. Красно жёлтые дни 14. Мама. анархия 15. Рядом со мной 16. Это не любовь 17. Генерал 18. Камчатка CD2: 01. Место для шага вперед 02. Кончится лето 03. Печаль 04. Звезда 05. Невесёлая песня моя 06. Закрой за мной дверь я ухожу 07. Сказка 08. Последний герой 0 ...

03
ноя
2013

Виктор Калина The Best [2004, Шансон, MP3]

Формат: MP3, tracks, 320kbps
Год выпуска: 2004
Страна: Россия
Жанр: Шансон
Продолжительность: 01:16:34
Описание: 01. Гражданка-Осень 02. Ну и что ж 03. Северный ветер 04. Обломись, мусорок 05. Генералы дворов 06. Калина 07. За друзей 08. Домой 09. Злые вороны 10. Ты одна 11. Бутырка 12. Гармонь-подруга 13. Ветер северный 2 14. Женщина-беда 15. Не зови 16. Люблю жену 17. Володарка 18. Коляда 19. Лето-Казанова 20. Не значит

26
мая
2007

ВИКТОР ЦОЙ (Сборник) [mp3, 128]

Жанр:Рок
Формат: MP3
Битрейт аудио: 128
Продолжительность: 22:12
Трэклист: 1.Группа Крови 2.Звезда по имени Солнце 3.Когда твоя девушка больна 4.Пачка сигарет 5.Следи за собой

14
фев
2009

Виктор - Память [1996, Рок]

Формат: MP3, tracks, 128kbps (оцифрованный магнитоальбом)
Год выпуска: 1996
Страна: Россия
Жанр: Рок
Продолжительность: 43 минуты
Описание: 1. Ночь 2. Каждый день 3. Такой я есть 4. Ожидание рассвета 5. Бездельник 6. ........................ 7. Осень 8. Память 9. Прощай 10. Полночь 11. Одно призвание 12. Проблема №1 13. Настроение
Доп. информация: Песни № 6 на альбоме нет (по замыслу автора) - просто минута тишины