22
авг
2012

Vacuum - Дискография [1997 - 2007, Syntpop, FLAC]

Vacuum - Дискография

Формат: FLAC, (image + .cue), lossless
Год выпуска: 1997 - 2007
Страна: Sweden
Жанр: Syntpop
Продолжительность: 04:46:32
Описание:

1997 The Plutonium Cathedral 00


01.Parallel Universe 04:11
02.I Breathe 04:36
03.Pride In My Religion 04:21
04.Science Of The Sacred 04:54
05.Rise And Shine Olympia 04:02
06.Atlas Shrugged 04:40
07.Illuminati 04:15
08.A Woman Named America 04:18
09.Prussia 04:39
10.Shape Of Things To Come 04:04
11.Sign On The Skyline 05:27
12.Tin Soldiers 04:32
13.Closer Than The Holy Ghost 05:02

EAC
Exact Audio Copy V1.0 beta 3 from 29. August 2011

Отчёт EAC об извлечении, выполненном 17. августа 2012, 15:06

Vacuum / The Plutonium Cathedral

Дисковод: TSSTcorpCDDVDW SH-222AB Adapter: 4 ID: 0

Режим чтения : Достоверность
Использование точного потока : Да
Отключение кэша аудио : Да
Использование указателей C2 : Нет

Коррекция смещения при чтении : 6
Способность читать области Lead-in и Lead-out : Нет
Заполнение пропущенных сэмплов тишиной : Да
Удаление блоков с тишиной в начале и конце : Нет
При вычислениях CRC использовались нулевые сэмплы : Да
Интерфейс : Встроенный Win32-интерфейс для Win NT/2000

Выходной формат : Пользовательский кодировщик
Выбранный битрейт : 320 kBit/s
Качество : Высокий
Добавление ID3-тега : Нет
Утилита сжатия : C:Program Files (x86)FLACflac.exe
Дополнительные параметры : -V -8 -T "Date=%year%" -T "Genre=%genre%" %source%

TOC извлечённого CD

Трек | Старт | Длительность | Начальный сектор | Конечный сектор
---------------------------------------------------------------------
1 | 0:00.00 | 4:11.45 | 0 | 18869
2 | 4:11.45 | 4:37.00 | 18870 | 39644
3 | 8:48.45 | 4:21.25 | 39645 | 59244
4 | 13:09.70 | 4:54.50 | 59245 | 81344
5 | 18:04.45 | 4:02.15 | 81345 | 99509
6 | 22:06.60 | 4:40.43 | 99510 | 120552
7 | 26:47.28 | 4:15.00 | 120553 | 139677
8 | 31:02.28 | 4:18.42 | 139678 | 159069
9 | 35:20.70 | 4:39.45 | 159070 | 180039
10 | 40:00.40 | 4:04.23 | 180040 | 198362
11 | 44:04.63 | 5:27.05 | 198363 | 222892
12 | 49:31.68 | 4:32.12 | 222893 | 243304
13 | 54:04.05 | 5:02.40 | 243305 | 265994

Характеристики диапазона извлечения и сообщения об ошибках

Выбранный диапазон

Имя файла C:UsersshuraviMusicVacuum1997 The Plutonium CathedralVacuum - The Plutonium Cathedral.wav

Пиковый уровень 100.0 %
Скорость извлечения 8.0 X
Качество диапазона 100.0 %
CRC теста 536CCBFA
CRC копии 536CCBFA
Копирование... OK

Ошибок не произошло

AccurateRip: сводка

Трек 1 : извлечено точно (доверие 5) [8E5A6D5B] (AR v2)
Трек 2 : извлечено точно (доверие 5) [0D05CCE6] (AR v2)
Трек 3 : извлечено точно (доверие 3) [6F29EAF8] (AR v2)
Трек 4 : извлечено точно (доверие 4) [2B2F7737] (AR v2)
Трек 5 : извлечено точно (доверие 4) [CEC46BC2] (AR v2)
Трек 6 : извлечено точно (доверие 4) [ECEE9223] (AR v2)
Трек 7 : извлечено точно (доверие 4) [27C5F5F4] (AR v2)
Трек 8 : извлечено точно (доверие 4) [57DD6BA9] (AR v2)
Трек 9 : извлечено точно (доверие 4) [058BD5A7] (AR v2)
Трек 10 : извлечено точно (доверие 5) [F0F2CCF6] (AR v2)
Трек 11 : извлечено точно (доверие 3) [9AE70963] (AR v2)
Трек 12 : извлечено точно (доверие 3) [CAF16D80] (AR v2)
Трек 13 : извлечено точно (доверие 4) [5D2D9F5C] (AR v2)

Все треки извлечены точно

Конец отчёта


1998 Seance At The Chaebol 00


01.Tonnes Of Attraction 04:21
02.Power 03:53
03.Tears Of A Nation 04:14
04.Let The Mountain Come To Me 03:31
05.Chant Like A Mantra 05:02
06.Satyricon 04:06
07.Nuclear India 04:16
08.The Culture Of Night 03:55
09.Big Ideas Grand Vision 04:15
10.Ulysses 04:17
11.I Breathe 03:56
12.Science Of The Sacred 03:48

EAC
Exact Audio Copy V1.0 beta 3 from 29. August 2011

Отчёт EAC об извлечении, выполненном 17. августа 2012, 15:45

Vacuum / Seance At The Chaebol

Дисковод: TSSTcorpCDDVDW SH-222AB Adapter: 4 ID: 0

Режим чтения : Достоверность
Использование точного потока : Да
Отключение кэша аудио : Да
Использование указателей C2 : Нет

Коррекция смещения при чтении : 6
Способность читать области Lead-in и Lead-out : Нет
Заполнение пропущенных сэмплов тишиной : Да
Удаление блоков с тишиной в начале и конце : Нет
При вычислениях CRC использовались нулевые сэмплы : Да
Интерфейс : Встроенный Win32-интерфейс для Win NT/2000

Выходной формат : Пользовательский кодировщик
Выбранный битрейт : 320 kBit/s
Качество : Высокий
Добавление ID3-тега : Нет
Утилита сжатия : C:Program Files (x86)FLACflac.exe
Дополнительные параметры : -V -8 -T "Date=%year%" -T "Genre=%genre%" %source%

TOC извлечённого CD

Трек | Старт | Длительность | Начальный сектор | Конечный сектор
---------------------------------------------------------------------
1 | 0:00.00 | 4:21.65 | 0 | 19639
2 | 4:21.65 | 3:53.32 | 19640 | 37146
3 | 8:15.22 | 4:14.35 | 37147 | 56231
4 | 12:29.57 | 3:31.38 | 56232 | 72094
5 | 16:01.20 | 5:02.05 | 72095 | 94749
6 | 21:03.25 | 4:06.27 | 94750 | 113226
7 | 25:09.52 | 4:16.03 | 113227 | 132429
8 | 29:25.55 | 3:55.52 | 132430 | 150106
9 | 33:21.32 | 4:15.05 | 150107 | 169236
10 | 37:36.37 | 4:17.35 | 169237 | 188546
11 | 41:53.72 | 3:56.25 | 188547 | 206271
12 | 45:50.22 | 3:49.00 | 206272 | 223446

Характеристики диапазона извлечения и сообщения об ошибках

Выбранный диапазон

Имя файла C:UsersshuraviMusicVacuum1998 Seance At The ChaebolVacuum - Seance At The Chaebol.wav

Пиковый уровень 100.0 %
Скорость извлечения 7.7 X
Качество диапазона 100.0 %
CRC теста 9BC39D39
CRC копии 9BC39D39
Копирование... OK

Ошибок не произошло

AccurateRip: сводка

Трек 1 : извлечено точно (доверие 3) [ADBB0FE6] (AR v2)
Трек 2 : извлечено точно (доверие 3) [F1CCBEAA] (AR v2)
Трек 3 : извлечено точно (доверие 3) [9305DBDA] (AR v2)
Трек 4 : извлечено точно (доверие 3) [07EF363B] (AR v2)
Трек 5 : извлечено точно (доверие 3) [1A0823C7] (AR v2)
Трек 6 : извлечено точно (доверие 3) [6CE809DB] (AR v2)
Трек 7 : извлечено точно (доверие 3) [FD41C8E3] (AR v2)
Трек 8 : извлечено точно (доверие 3) [0D1C2B4B] (AR v2)
Трек 9 : извлечено точно (доверие 3) [E6B977C6] (AR v2)
Трек 10 : извлечено точно (доверие 3) [E69B75D9] (AR v2)
Трек 11 : извлечено точно (доверие 3) [279A8918] (AR v2)
Трек 12 : извлечено точно (доверие 3) [089CFE54] (AR v2)

Все треки извлечены точно

Конец отчёта


2000 Culture Of Night (Russian version) 00


01.Satyricon 04:05
02.Culture Of Night 03:49
03.Icaros 04:08
04.Let The Mountain Come To Me 03:31
05.Tears 03:22
06.Power 03:08
07.My Melting Mood 04:39
08.Chant Like A Mantra 05:01
09.Tears Of A Nation 04:15
10.Tonnes Of Attraction 04:22
11.Ulysses 04:15

EAC
Exact Audio Copy V1.0 beta 3 from 29. August 2011

Отчёт EAC об извлечении, выполненном 17. августа 2012, 16:11

Vacuum / Culture Of Night

Дисковод: TSSTcorpCDDVDW SH-222AB Adapter: 4 ID: 0

Режим чтения : Достоверность
Использование точного потока : Да
Отключение кэша аудио : Да
Использование указателей C2 : Нет

Коррекция смещения при чтении : 6
Способность читать области Lead-in и Lead-out : Нет
Заполнение пропущенных сэмплов тишиной : Да
Удаление блоков с тишиной в начале и конце : Нет
При вычислениях CRC использовались нулевые сэмплы : Да
Интерфейс : Встроенный Win32-интерфейс для Win NT/2000

Выходной формат : Пользовательский кодировщик
Выбранный битрейт : 320 kBit/s
Качество : Высокий
Добавление ID3-тега : Нет
Утилита сжатия : C:Program Files (x86)FLACflac.exe
Дополнительные параметры : -V -8 -T "Date=%year%" -T "Genre=%genre%" %source%

TOC извлечённого CD

Трек | Старт | Длительность | Начальный сектор | Конечный сектор
---------------------------------------------------------------------
1 | 0:00.00 | 4:05.37 | 0 | 18411
2 | 4:05.37 | 3:49.38 | 18412 | 35624
3 | 7:55.00 | 4:08.00 | 35625 | 54224
4 | 12:03.00 | 3:31.00 | 54225 | 70049
5 | 15:34.00 | 3:22.00 | 70050 | 85199
6 | 18:56.00 | 3:08.00 | 85200 | 99299
7 | 22:04.00 | 4:39.00 | 99300 | 120224
8 | 26:43.00 | 5:01.50 | 120225 | 142849
9 | 31:44.50 | 4:15.00 | 142850 | 161974
10 | 35:59.50 | 4:22.00 | 161975 | 181624
11 | 40:21.50 | 4:15.31 | 181625 | 200780

Характеристики диапазона извлечения и сообщения об ошибках

Выбранный диапазон

Имя файла C:UsersshuraviMusicVacuum2000 Culture Of NightVacuum - Culture Of Night.wav

Пиковый уровень 98.8 %
Скорость извлечения 7.5 X
Качество диапазона 100.0 %
CRC теста 69B14991
CRC копии 69B14991
Копирование... OK

Ошибок не произошло

AccurateRip: сводка

Трек 1 : извлечено точно (доверие 4) [692A9D8C] (AR v2)
Трек 2 : извлечено точно (доверие 4) [03817F6B] (AR v2)
Трек 3 : извлечено точно (доверие 4) [7364DBA7] (AR v2)
Трек 4 : извлечено точно (доверие 4) [9E034FA4] (AR v2)
Трек 5 : извлечено точно (доверие 4) [6A4DAFC4] (AR v2)
Трек 6 : извлечено точно (доверие 4) [FA539404] (AR v2)
Трек 7 : извлечено точно (доверие 4) [33B671A3] (AR v2)
Трек 8 : извлечено точно (доверие 4) [69FCFB2A] (AR v2)
Трек 9 : извлечено точно (доверие 4) [4573B7A6] (AR v2)
Трек 10 : извлечено точно (доверие 4) [F886D577] (AR v2)
Трек 11 : извлечено точно (доверие 4) [3468773E] (AR v2)

Все треки извлечены точно

Конец отчёта


2002 Culture Of Night 00


01.Starting (Where The Story Ended) 03:18
02.Icaros 04:06
03.Culture Of Night 03:48
04.Satyricon 04:03
05.Ripples On The Surface 03:13
06.My Melting Mood 04:37
07.Power 03:05
08.Let The Mountain Come To Me 03:28
09.Tears 03:20
10.Chant Like A Mantra 04:55
11.Ulysses 04:15

EAC
Exact Audio Copy V1.0 beta 3 from 29. August 2011

Отчёт EAC об извлечении, выполненном 17. августа 2012, 16:40

Vacuum / Culture Of Night

Дисковод: TSSTcorpCDDVDW SH-222AB Adapter: 4 ID: 0

Режим чтения : Достоверность
Использование точного потока : Да
Отключение кэша аудио : Да
Использование указателей C2 : Нет

Коррекция смещения при чтении : 6
Способность читать области Lead-in и Lead-out : Нет
Заполнение пропущенных сэмплов тишиной : Да
Удаление блоков с тишиной в начале и конце : Нет
При вычислениях CRC использовались нулевые сэмплы : Да
Интерфейс : Встроенный Win32-интерфейс для Win NT/2000

Выходной формат : Пользовательский кодировщик
Выбранный битрейт : 320 kBit/s
Качество : Высокий
Добавление ID3-тега : Нет
Утилита сжатия : C:Program Files (x86)FLACflac.exe
Дополнительные параметры : -V -8 -T "Date=%year%" -T "Genre=%genre%" %source%

TOC извлечённого CD

Трек | Старт | Длительность | Начальный сектор | Конечный сектор
---------------------------------------------------------------------
1 | 0:00.00 | 3:18.10 | 0 | 14859
2 | 3:18.10 | 4:06.51 | 14860 | 33360
3 | 7:24.61 | 3:48.47 | 33361 | 50507
4 | 11:13.33 | 4:03.47 | 50508 | 68779
5 | 15:17.05 | 3:13.15 | 68780 | 83269
6 | 18:30.20 | 4:37.46 | 83270 | 104090
7 | 23:07.66 | 3:05.28 | 104091 | 117993
8 | 26:13.19 | 3:28.69 | 117994 | 133662
9 | 29:42.13 | 3:20.58 | 133663 | 148720
10 | 33:02.71 | 4:55.52 | 148721 | 170897
11 | 37:58.48 | 4:15.27 | 170898 | 190049

Характеристики диапазона извлечения и сообщения об ошибках

Выбранный диапазон

Имя файла C:UsersshuraviMusicVacuum2002 Culture Of NightVacuum - Culture Of Night.wav

Пиковый уровень 98.9 %
Скорость извлечения 7.4 X
Качество диапазона 100.0 %
CRC теста 5B8B691E
CRC копии 5B8B691E
Копирование... OK

Ошибок не произошло

AccurateRip: сводка

Трек 1 : извлечено точно (доверие 2) [5C40D896] (AR v2)
Трек 2 : извлечено точно (доверие 2) [280AAF65] (AR v2)
Трек 3 : извлечено точно (доверие 2) [E6AA2A6B] (AR v2)
Трек 4 : извлечено точно (доверие 2) [F950BBEF] (AR v2)
Трек 5 : извлечено точно (доверие 2) [E94BE810] (AR v2)
Трек 6 : извлечено точно (доверие 2) [1E8FA585] (AR v2)
Трек 7 : извлечено точно (доверие 2) [60CA9593] (AR v2)
Трек 8 : извлечено точно (доверие 2) [A1EA3E77] (AR v2)
Трек 9 : извлечено точно (доверие 2) [CBCFD5F3] (AR v2)
Трек 10 : извлечено точно (доверие 2) [2587422B] (AR v2)
Трек 11 : извлечено точно (доверие 2) [D8993D0D] (AR v2)

Все треки извлечены точно

Конец отчёта


2007 Your Whole Life Is Leading Up To This 01


01. Intro 00:24
02. Your Whole Life Is Leading Up To This 03:55
03. They Do It 03:55
04. Mind Your Mind 03:46
05. The Void 03:48
06. In The Dirt 04:28
07. Love Earth Cry 04:15
08. Something Evil I Love 04:34
09. Sea Of Silence 03:48
10. A Shallow Heart 03:03
11. Queen 03:49
12. Fools Like Me 03:31
13. Dead 03:34
14. Temporary Solution 04:00
bonus track:
15. Preview 02:56
16. Six Billion Voices (Credhead remix - Radio) 03:28
17. Six Billion Voices (Credhead remix - Extended) 06:26
18. Walk On The Sun 03:53
19. Only Human 03:13

EAC
Exact Audio Copy V1.0 beta 3 from 29. August 2011

Отчёт EAC об извлечении, выполненном 17. августа 2012, 18:02

Vacuum / Your Whole Life Is Leading Up To This

Дисковод: TSSTcorpCDDVDW SH-222AB Adapter: 4 ID: 0

Режим чтения : Достоверность
Использование точного потока : Да
Отключение кэша аудио : Да
Использование указателей C2 : Нет

Коррекция смещения при чтении : 6
Способность читать области Lead-in и Lead-out : Нет
Заполнение пропущенных сэмплов тишиной : Да
Удаление блоков с тишиной в начале и конце : Нет
При вычислениях CRC использовались нулевые сэмплы : Да
Интерфейс : Встроенный Win32-интерфейс для Win NT/2000

Выходной формат : Пользовательский кодировщик
Выбранный битрейт : 320 kBit/s
Качество : Высокий
Добавление ID3-тега : Нет
Утилита сжатия : C:Program Files (x86)FLACflac.exe
Дополнительные параметры : -V -8 -T "Date=%year%" -T "Genre=%genre%" %source%

TOC извлечённого CD

Трек | Старт | Длительность | Начальный сектор | Конечный сектор
---------------------------------------------------------------------
1 | 0:00.00 | 0:24.14 | 0 | 1813
2 | 0:24.14 | 3:55.46 | 1814 | 19484
3 | 4:19.60 | 3:55.57 | 19485 | 37166
4 | 8:15.42 | 3:46.74 | 37167 | 54190
5 | 12:02.41 | 3:48.39 | 54191 | 71329
6 | 15:51.05 | 4:28.25 | 71330 | 91454
7 | 20:19.30 | 4:15.70 | 91455 | 110649
8 | 24:35.25 | 4:34.04 | 110650 | 131203
9 | 29:09.29 | 3:48.54 | 131204 | 148357
10 | 32:58.08 | 3:03.53 | 148358 | 162135
11 | 36:01.61 | 3:49.72 | 162136 | 179382
12 | 39:51.58 | 3:31.09 | 179383 | 195216
13 | 43:22.67 | 3:34.49 | 195217 | 211315
14 | 46:57.41 | 4:00.64 | 211316 | 229379
15 | 50:58.30 | 2:56.68 | 229380 | 242647
16 | 53:55.23 | 3:28.22 | 242648 | 258269
17 | 57:23.45 | 6:26.34 | 258270 | 287253
18 | 63:50.04 | 3:53.25 | 287254 | 304753
19 | 67:43.29 | 3:13.11 | 304754 | 319239

Характеристики диапазона извлечения и сообщения об ошибках

Выбранный диапазон

Имя файла C:UsersshuraviMusicVacuum2007 Your Whole Life Is Leading Up To ThisVacuum - Your Whole Life Is Leading Up To This.wav

Пиковый уровень 98.9 %
Скорость извлечения 8.4 X
Качество диапазона 100.0 %
CRC теста 1C18F85C
CRC копии 1C18F85C
Копирование... OK

Ошибок не произошло

AccurateRip: сводка

Трек 1 : извлечено точно (доверие 5) [918ADDA3] (AR v2)
Трек 2 : извлечено точно (доверие 5) [87AE6D90] (AR v2)
Трек 3 : извлечено точно (доверие 5) [4A018CC4] (AR v2)
Трек 4 : извлечено точно (доверие 5) [42D1F511] (AR v2)
Трек 5 : извлечено точно (доверие 5) [731AAA0E] (AR v2)
Трек 6 : извлечено точно (доверие 5) [82E04B06] (AR v2)
Трек 7 : извлечено точно (доверие 5) [12EF1BDF] (AR v2)
Трек 8 : извлечено точно (доверие 4) [633DFDBC] (AR v2)
Трек 9 : извлечено точно (доверие 5) [7DF92D4E] (AR v2)
Трек 10 : извлечено точно (доверие 5) [CEDD55EE] (AR v2)
Трек 11 : извлечено точно (доверие 5) [5DF2EB19] (AR v2)
Трек 12 : извлечено точно (доверие 5) [9083D3BA] (AR v2)
Трек 13 : извлечено точно (доверие 4) [83184B74] (AR v2)
Трек 14 : извлечено точно (доверие 5) [2EB98B3D] (AR v2)
Трек 15 : извлечено точно (доверие 5) [2EE7E32D] (AR v2)
Трек 16 : извлечено точно (доверие 5) [3601C6DD] (AR v2)
Трек 17 : извлечено точно (доверие 5) [29D968B1] (AR v2)
Трек 18 : извлечено точно (доверие 5) [33CD2249] (AR v2)
Трек 19 : извлечено точно (доверие 5) [C8FDA1FA] (AR v2)

Все треки извлечены точно

Конец отчёта


Доп. информация:

ВикипедиЯ

Официальный российский сайт
Музыка / Lossless / Дискографии (Поп музыка)
СКАЧАТЬ БЕСПЛАТНО  [1.8 GB]


10
мар
2012

Vacuum - Discography [1997-2008, Pop, Synthpop, Electropop, MP3]

Формат: MP3, tracks, 320kbps
Год выпуска: 1997-2008
Страна: Sweden, Gemany
Жанр: Pop, Synthpop, Electropop
Продолжительность: 12:54:10
Описание: Albums 1997 - The Plutonium Cathedral 0001. Parallel Universe 02. I Breathe 03. Pride In My Religion 04. Science Of The Sacred 05. Rise And Shine Olympia 06. Atlas Shrugged 07. Illuminati 08. A Woman Named America 09. Prussia 10. Shape Of Things To Come 11. Sign On The Skyline 12. Tin Soldiers 13. Closer Than The Holy Ghost 1997 - The Plutonium Cathedral 0001. Parallel Universe 02. I Breathe 03. Pride In My Religion 04. Science Of The Sacred 05. R ...

02
июл
2013

Organoid - Inner Vacuum [2013, IDM, Electronic, MP3]

Формат: MP3, tracks, 320kbps
Год выпуска: 2013
Страна: Ukraine
Жанр: IDM, Electronic
Продолжительность: 00:48:02
Описание: 01. Illusive Dawn 02. Moonlight 03. Inner Vacuum 04. One 05. Metamorphosis 06. Ubfu 07. Cascade 08. Sometime 09. Purple Drift 10. Vertigo 11. Distance
Доп. информация: Релиз представлен группой

26
авг
2011

Vacuum - Single [1997-2004, Synthpop, DVD5]

Формат: DVD5, DVD Video, MPEG2, MP2
Песня: Single
Жанр: Synthpop
Продолжительность: 00:30:53
Год выпуска: 1997-2004
Видео: 720х576 (4:3), 25 fps, MPEG-2, ~8172 kbps avg, 0.788 bit/pixel
Аудио: 48 kHz, MPEG Layer 2, 2 ch, 384.00 kbps avg
Доп. информация: Vacuum — название шведского коллектива, работающего в стиле synthpop. В настоящее время коллектив представляют Маттиас Линдблум и Андерс Вольбек. Они познакомились в 1996 году, тогда же группа записала свой первый альбом. Группа работает в собственной студии «Home», расположенной в центральной части Стокгольма, и часто гастролируют по всему м ...

06
дек
2011

Zero Cult - Vacuum [2011, Ambient,Downtempo, MP3]

Формат: MP3, tracks, 320kbps
Год выпуска: 2011
Страна: Израиль
Жанр: Ambient, Downtempo
Продолжительность: 01:15:27
Описание: 1. 8 Hertz [09:21] 2. Dying Dolphin [09:24] 3. Second Breath (Vocal Radio Mix) [05:07] 4. 360 [07:48] 5. Muse [07:15] 6. Heartwork [08:17] 7. Equator [07:13] 8. In Motion [06:46] 9. Second Breath (Original Mix) [07:37] 10. Back To Earth [06:35]

13
сен
2014

Vacuum - Harmony Of Art [2014, Synthpop, MP3]

Формат: MP3, tracks, 320kbps
Год выпуска: 2014
Страна: Sweden
Жанр: Synthpop
Продолжительность: 01:02:17
Описание: 01. Black Angels 4:02 02. The Ocean 4:09 03. Open My Eyes 3:42 04. Fly On The Wall (Live) 4:36 05. The Russian (Live) 2:36 06. The Void (Mattias Lindblom New Remix) 4:15 07. I Loved You (One Version) 3:39 08. Know By Now 4:01 09. Walk On The Sun 3:51 10. Six Billion Voices 3:17 11. Where Angels Belong 4:23 12. Animal 4:10 13. My Friend Misery 4:17 14. I Loved You (Two Version) 4:13 15. They Do It (Mattias Lindblom Lounge Version Mix) 7:00

26
июн
2012

Quantec - 1000 Vacuum Tubes [25.06.2012, Techno, MP3]

Формат: MP3, tracks, 256kbps
Год выпуска: 25.06.2012
Страна: All World
Жанр: Techno
Продолжительность: 01:17:16
Описание: 01. Ayahuasca 07:49 02. 1000 Vacuum Tubes (Live Extract) 06:10 03. Unplumbed Depth 07:49 04. The Gathering 08:22 05. Truth Maintenance 05:53 06. Eternal Soul 06:57 07. Multiple Dependency 07:08 08. Rank And File 06:48 09. Brain Machinery 06:46 10. Dare To Start A New Life 07:02 11. We Did Survive 06:26
Доп. информация: Album представлен группой:

30
дек
2016

Sol Sistere - Unfading Incorporeal Vacuum [2016, Atmospheric Black Metal, MP3]

Формат: MP3, tracks, 320kbps
Год выпуска: 2016
Страна: Chile
Жанр: Atmospheric Black Metal
Продолжительность: 00:49:38
Описание: 01. Death Knell 02. Relentless Ascension 03. Deliver Us 04. Sight Of The Oracle 05. Degraded Soul 06. Towards The Morning Sun 07. 6th Replicant 08. Seeker Of Souls
Доп. информация: Pablo Vera - Drums (2013-present) See also: ex-Anima Inmortalis, ex-Animus Mortis, ex-Target, ex-Timecode, ex-Totten Korps Ricardo Araya - Guitars (lead) (2013-present) See also: ex-Maleficarium, ex-Cathar Eclipse Juan Díaz - Bass (2014-present) See also: Bauda, ex-Perpetuum, ex-No ...

18
ноя
2008

Александр Бард - проекты - Vacuum, Alcazar, BWO +клип I Breathe [2004, поп - музыка]

Формат: MP3, tracks, 192-320
Год выпуска: 2004
Страна: Швеция
Жанр: поп - музыка
Продолжительность: 6 ч
Описание: Vacuum 1997 - The Plutonium Cathedral 1998 - Seance At The Chaebol 2000 - Culture Of Night 2002 - Culture Of Night 2004 - Your Whole Life Is Leading Up To This Другие проекты Alcazar - Casino 2001 Bodies Without Organs - Prototype 2004 alcazar BWO Alcazar [192 kbps] (01) Alcazar - Sexual Guarantee (02) Alcazar - Crying At The Discotheque (03) Alcazar - Don't Leave Me Alone (04) Alcazar - Almost Famous (05) Alcazar - Paradise (06) Alcazar - Transmetropolis (07) Alcazar - Stars Com ...

17
апр
2012

The The - Дискография [1981 - 2002, Post-Punk, Alternative, MP3]

Формат: MP3, tracks, 192 - 320kbps
Год выпуска: 1981 - 2002
Страна: United Kingdom
Жанр: Post-Punk, Alternative
Продолжительность: 10:05:20
Описание: The The (Matt Johnson) Альбомы 1981 - Burning Blue Soul 00 01. "Red Cinders in the Sand" - 5:42 02. "Song Without an Ending" - 4:35 03. "Time (Again) for the Golden Sunset" - 3:51 04. "Icing Up" - 7:36 05. "(Like a) Sun Rising Through My Garden" - 5:01 06. "Out of Control" - 2:01 07. "Bugle Boy" - 2:27 08. "Delirious" - 3:33 09. "The River Flows East in Spring" - 3:33 10. "Another Boy Drowning" - 5:53 1983 - Soul Mining 00 01. "I've Been Waiting ...

27
мая
2011

Zero Nine - Дискография [1982-2009, Rock, Hard Rock, MP3]

Формат: MP3, tracks, 192-320kbps
Год выпуска: 1982-2009
Страна: Finland
Жанр: Rock, Hard Rock
Продолжительность: 07:08:47
Описание: 1982 Visions, Scenes and Dreams 00 01.Vision, Scenes And Dreams 3:50 02.In The Drizzlin' Rain 3:35 03.Down The Line 4:09 04.Once Again 4:19 05.Steamroller 2:57 06.Who?s Gonna Cry Now 3:24 07.I'm Gonna Try 3:02 08.Land Of Rhinos 2:52 09.I'm Steamin' Away 3:54 10.Dreamless World 5:52
Состав: Kepa Salmirinne - Vocals Mara Mantyniemi - Guitar Iso-T Kasma - Guitar Jarski Jaakkola - Bass Borno Korpela - Drums Iro Murtola - Keyboards1982 Blank Verse 00 01.I Don't Wa ...

24
сен
2016

Seven - Дискография [2014 - 2016, Hard Rock, MP3]

Формат: MP3, tracks, 320kbps
Год выпуска: 2014 - 2016
Страна: UK
Жанр: Hard Rock
Продолжительность: 01:51:22
Описание: 2014 - 7, 00 01. Shoot To Kill 02. Inside Love 03. Diana 04. Still 05. Headlines 06. Strangers 07. America 08. Thru The Night 09. Never Too Late 10. Don't Break My Heart 11. Say Goodbye 12. Charlie 13. Just Close Your Eyes 14. Man With A Vision 15. Stranger (In The Night) 2016 - Shattered, 00 01. Light Of 1000 Eyes 02. A Better Life 03. Fight 04. Shattered 05. Live This Life 06. Pieces Of You 07. Broken Dream 08. High Hopes 09. I Needed Time 10. Taking Over 11. Last Illusion ...

25
окт
2009

Down - Дискография [1991, Southern Metal]

Формат: MP3, tracks, 160-320Kbps
Год выпуска: 1991
Страна: США
Жанр: Southern Metal
Описание: Дискография. Группа Down – непростая группа. По той причине, что это – супергруппа. И не столько потому, что в её составе числятся Филип Ансельмо, Rex Brown (половина Pantera), Pepper Kinan (Corrosion Of Conformity), Kirk Windstein (Crowbar) и Kirk Bauer (Eyehategod). Down играют супермузыку – настоящий, если не сказать эталонный, тяжелый рок на стыке Black Sabbath, Led Zeppelin и Pantera. Slow, Heavy, Psychedelic & Southern – формула Down. И пусть группу до сих можно назвать сайд-проектом, в особенно ...

17
июл
2009

The Used - Дискография [2002 - 2009, Mall-Emo]

Формат: MP3, tracks
Год выпуска: 2002 - 2009
Общая продолжительность: 02:46:47
Страна:
Жанр: Mall-Emo [br][br][br][br][br][br][br][br][br][br][br][br][br][br][br][br][br][br][br][br][br][br][br][br]
Дискография: The Used (2002) Битрейт / Bitrate: 320 kbps Трэклист / Tracklist: 1. Maybe memories 2. The taste of ink 3. Bulimic 4. Say days ago 5. Poetic tragedy 6. Buried myself alive 7. A box full of sharp objects 8. Blue and yellow 9. Greener with the scenery 10. Noise and kisses 11. On my own 12. Pieces mended In Love & Death (2004) Битрейт / Bitrate: 320 kbps Трэклист / Tracklist ...

04
ноя
2017

The Well - Дискография [2014 - 2016, Psychedelic Stoner Metal, MP3]

Формат: MP3, tracks, 320kbps
Год выпуска: 2014 - 2016
Страна: USA
Жанр: Psychedelic Stoner Metal
Продолжительность: 01:28:34
Описание: 2014 - Samsara, 00 01. Mortal Bones 02. Trespass 03. 1000 Lies 04. Lucifer Sam 05. Refuge 06. The Eternal Well 07. Dragon Snort 08. I Bring The Light 2016 - Pagan Science, 00 01. Black Eyed Gods 02. Forecast 03. Skybound 04. A Pilgrimage 05. Drug From The Banks 06. Byzantine 07. One Nation 08. Choir Of The Stars 09. Brambles 10. I Don't Believe 11. Guinevere

15
июн
2016

After All - Дискография [1997 - 2016, Thrash Metal, MP3]

Формат: MP3, tracks, 320kbps
Год выпуска: 1997 - 2016
Страна: Бельгия
Жанр: Thrash Metal
Продолжительность: 05:56:25
Описание: 1997 - Transcendent, 00 01. Sixteen, Black Sunday 02. Behind The Mask (Pt. 1) 03. The Force Within 04. Darkest Rage 05. Burn A Hole 06. Damaged Trust 07. The Last Sigh 08. Selfdestruct 09. On Forbidden Grounds 10. The Avenger 11. Visionary Thoughts 12. June 13. Behind The Mask (Pt. 2) 2000 - Dead Loss, 00 01. Erase Your Past 02. Self, Inflicted 03. A Sweet Departure 04. Fragments Of Time 05. Condemned Heritage 06. Into The Sun 07. Reflection Of The Light 08. Lost, Ins ...