29
мар
2016

Toto Cutugno - Discography [1979 - 2008, Pop, FLAC]

Toto Cutugno - Discography
Формат: FLAC, (image + .cue), lossless
Год выпуска: 1979 - 2008
Страна: Italy
Жанр: Pop
Продолжительность: 21:16:54
Описание:
CD 1979 Voglio L' Anima (Reissue, CBS 83832 Russia 2012) 00
Toto Cutugno - Discography
01. Voglio l'anima
02. Ma...
03. Una serata come tante
04. 'Na parola
05. Aeroporto Kennedy
06. Amore no
07. Soli
08. Liberi
09. Se vai via
10. Donna donna mia

eac
Exact Audio Copy V0.99 prebeta 5 from 4. May 2009

Отчёт EAC об извлечении, выполненном 27. декабря 2012, 19:26

Toto Cutugno / Voglio L`Anima

Дисковод: PIONEER DVD-RW DVR-219L Adapter: 5 ID: 0

Режим чтения : Достоверность
Использование точного потока : Да
Отключение кэша аудио : Да
Использование указателей C2 : Нет

Коррекция смещения при чтении : 6
Способность читать области Lead-in и Lead-out : Нет
Заполнение пропущенных сэмплов тишиной : Да
Удаление блоков с тишиной в начале и конце : Нет
При вычислениях CRC использовались нулевые сэмплы : Да
Интерфейс : Встроенный Win32-интерфейс для Win NT/2000

Выходной формат : Пользовательский кодировщик
Выбранный битрейт : 1024 kBit/s
Качество : Высокий
Добавление ID3-тэга : Нет
Утилита сжатия : C:Program Files (x86)Exact Audio CopyFlacflac.exe
Дополнительные параметры : -8 -V -T "ARTIST=%a" -T "TITLE=%t" -T "ALBUM=%g" -T "DATE=%y" -T "TRACKNUMBER=%n" -T "GENRE=%m" -T "COMMENT=EAC FLAC -8" %s

TOC извлечённого CD

Трек | Старт | Длительность | Начальный сектор | Конечный сектор
---------------------------------------------------------------------
1 | 0:00.00 | 3:42.21 | 0 | 16670
2 | 3:42.21 | 3:38.30 | 16671 | 33050
3 | 7:20.51 | 3:08.39 | 33051 | 47189
4 | 10:29.15 | 2:50.12 | 47190 | 59951
5 | 13:19.27 | 5:26.08 | 59952 | 84409
6 | 18:45.35 | 5:01.19 | 84410 | 107003
7 | 23:46.54 | 4:08.38 | 107004 | 125641
8 | 27:55.17 | 4:07.16 | 125642 | 144182
9 | 32:02.33 | 3:37.72 | 144183 | 160529
10 | 35:40.30 | 2:59.01 | 160530 | 173955

Характеристики диапазона извлечения и сообщения об ошибках

Выбранный диапазон

Имя файла F:СВОИ РЕЛИЗЫToto CutugnoToto Cutugno-1979-Voglio L'animaToto Cutugno - Voglio L`Anima.wav

Пиковый уровень 100.0 %
Качество диапазона 99.9 %
CRC теста 76BF9377
CRC копии 76BF9377
Копирование... OK

Ошибок не произошло

AccurateRip: сводка

Трек 1 точность не определена (достоверность 1) [6CE3B7D3], AccurateRip вернул [999F6209]
Трек 2 точность не определена (достоверность 1) [48D37DFB], AccurateRip вернул [EDB726AB]
Трек 3 точность не определена (достоверность 1) [069FF15F], AccurateRip вернул [DD9BD6EF]
Трек 4 точность не определена (достоверность 1) [D1A35AAC], AccurateRip вернул [830ABD42]
Трек 5 точность не определена (достоверность 1) [139FDF29], AccurateRip вернул [335F4AB7]
Трек 6 точность не определена (достоверность 1) [11A8AE14], AccurateRip вернул [CD30472C]
Трек 7 точность не определена (достоверность 1) [4598D4E7], AccurateRip вернул [65337527]
Трек 8 точность не определена (достоверность 1) [CCDCE54E], AccurateRip вернул [A9A2326C]
Трек 9 точность не определена (достоверность 1) [98AD5E42], AccurateRip вернул [C9CBB23E]
Трек 10 точность не определена (достоверность 1) [1D38DCD7], AccurateRip вернул [3292EA33]

Ни один трек не прошёл проверки на точность
В вашей базе может быть иной вариант штамповки диска

Конец отчёта
CD 1980 Innamorata, Innamorato, Innamorati (Reissue, Carosello CLN 25087 Russia 2012) 00
Toto Cutugno - Discography
01. Francesca non sa
02. Mi dici che stai bene con me
03. Cieli azzurri
04. Tu sei mia
05. Flash
06. Il cielo e sempre un po' piu blu
07. E' un anno che tu butti via
08. Donna
09. E...io ti amavo
10. Innamorati

eac
Exact Audio Copy V0.99 prebeta 5 from 4. May 2009

Отчёт EAC об извлечении, выполненном 25. декабря 2012, 19:06

Toto Cutugno / Innamorata, Innamorato, Innamorati

Дисковод: PIONEER DVD-RW DVR-219L Adapter: 5 ID: 0

Режим чтения : Достоверность
Использование точного потока : Да
Отключение кэша аудио : Да
Использование указателей C2 : Нет

Коррекция смещения при чтении : 6
Способность читать области Lead-in и Lead-out : Нет
Заполнение пропущенных сэмплов тишиной : Да
Удаление блоков с тишиной в начале и конце : Нет
При вычислениях CRC использовались нулевые сэмплы : Да
Интерфейс : Встроенный Win32-интерфейс для Win NT/2000

Выходной формат : Пользовательский кодировщик
Выбранный битрейт : 1024 kBit/s
Качество : Высокий
Добавление ID3-тэга : Нет
Утилита сжатия : C:Program Files (x86)Exact Audio CopyFlacflac.exe
Дополнительные параметры : -8 -V -T "ARTIST=%a" -T "TITLE=%t" -T "ALBUM=%g" -T "DATE=%y" -T "TRACKNUMBER=%n" -T "GENRE=%m" -T "COMMENT=EAC FLAC -8" %s

TOC извлечённого CD

Трек | Старт | Длительность | Начальный сектор | Конечный сектор
---------------------------------------------------------------------
1 | 0:00.00 | 3:38.37 | 0 | 16386
2 | 3:38.37 | 5:04.07 | 16387 | 39193
3 | 8:42.44 | 4:20.23 | 39194 | 58716
4 | 13:02.67 | 3:50.53 | 58717 | 76019
5 | 16:53.45 | 3:20.12 | 76020 | 91031
6 | 20:13.57 | 3:20.45 | 91032 | 106076
7 | 23:34.27 | 4:48.29 | 106077 | 127705
8 | 28:22.56 | 3:36.70 | 127706 | 143975
9 | 31:59.51 | 3:23.66 | 143976 | 159266
10 | 35:23.42 | 3:52.00 | 159267 | 176666

Характеристики диапазона извлечения и сообщения об ошибках

Выбранный диапазон

Имя файла F:СВОИ РЕЛИЗЫToto CutugnoToto Cutugno-1980-Innamorata, Innamorato, InnamoratiToto Cutugno - Innamorata, Innamorato, Innamorati.wav

Пиковый уровень 100.0 %
Качество диапазона 100.0 %
CRC теста 8338A544
CRC копии 8338A544
Копирование... OK

Ошибок не произошло

AccurateRip: сводка

Трек 1 нет в базе данных
Трек 2 нет в базе данных
Трек 3 нет в базе данных
Трек 4 нет в базе данных
Трек 5 нет в базе данных
Трек 6 нет в базе данных
Трек 7 нет в базе данных
Трек 8 нет в базе данных
Трек 9 нет в базе данных
Трек 10 нет в базе данных

Ни одного трека нет в базе AccurateRip

Конец отчёта
CD 1981 La Mia Musica (Reissue, Carosello CLN 25093 Russia '2012) 00
Toto Cutugno - Discography 01. La Mia Musica
02. L'estate vola via
03. Maledetto sogno
04. Mi va
05. America
06. Con te
07. Punto E Virgola
08. Da poco tempo che
09. Sinfonia
10. La Mia Musica (Reprise)

eac
Exact Audio Copy V0.99 prebeta 5 from 4. May 2009

Отчёт EAC об извлечении, выполненном 28. декабря 2012, 1:02

Toto Cutugno / La Mia Musica

Дисковод: PIONEER DVD-RW DVR-219L Adapter: 5 ID: 0

Режим чтения : Достоверность
Использование точного потока : Да
Отключение кэша аудио : Да
Использование указателей C2 : Нет

Коррекция смещения при чтении : 6
Способность читать области Lead-in и Lead-out : Нет
Заполнение пропущенных сэмплов тишиной : Да
Удаление блоков с тишиной в начале и конце : Нет
При вычислениях CRC использовались нулевые сэмплы : Да
Интерфейс : Встроенный Win32-интерфейс для Win NT/2000

Выходной формат : Пользовательский кодировщик
Выбранный битрейт : 1024 kBit/s
Качество : Высокий
Добавление ID3-тэга : Нет
Утилита сжатия : C:Program Files (x86)Exact Audio CopyFlacflac.exe
Дополнительные параметры : -8 -V -T "ARTIST=%a" -T "TITLE=%t" -T "ALBUM=%g" -T "DATE=%y" -T "TRACKNUMBER=%n" -T "GENRE=%m" -T "COMMENT=EAC FLAC -8" %s

TOC извлечённого CD

Трек | Старт | Длительность | Начальный сектор | Конечный сектор
---------------------------------------------------------------------
1 | 0:00.00 | 4:19.50 | 0 | 19474
2 | 4:19.50 | 3:53.70 | 19475 | 37019
3 | 8:13.45 | 3:22.55 | 37020 | 52224
4 | 11:36.25 | 4:04.10 | 52225 | 70534
5 | 15:40.35 | 3:33.45 | 70535 | 86554
6 | 19:14.05 | 4:19.72 | 86555 | 106051
7 | 23:34.02 | 4:25.60 | 106052 | 125986
8 | 27:59.62 | 4:23.63 | 125987 | 145774
9 | 32:23.50 | 4:38.37 | 145775 | 166661
10 | 37:02.12 | 1:12.61 | 166662 | 172122

Характеристики диапазона извлечения и сообщения об ошибках

Выбранный диапазон

Имя файла F:СВОИ РЕЛИЗЫToto CutugnoToto Cutugno-1981-La Mia MusicaToto Cutugno - La Mia Musica.wav

Пиковый уровень 100.0 %
Качество диапазона 100.0 %
CRC теста A9387B64
CRC копии A9387B64
Копирование... OK

Ошибок не произошло

AccurateRip: сводка

Трек 1 нет в базе данных
Трек 2 нет в базе данных
Трек 3 нет в базе данных
Трек 4 нет в базе данных
Трек 5 нет в базе данных
Трек 6 нет в базе данных
Трек 7 нет в базе данных
Трек 8 нет в базе данных
Трек 9 нет в базе данных
Трек 10 нет в базе данных

Ни одного трека нет в базе AccurateRip

Конец отчёта
CD 1983 L'italiano (Release Carosello CARSM 061-2 Russia 2012) 00
Toto Cutugno - Discography
01. L'italiano
02. Solo noi
03. Soli
04. Donna, donna mia
05. Voglio l'anima
06. Sara' [00:04:03]
07. Innamorati
08. La mia musica
09. Flash
10. Donna

eac
Exact Audio Copy V0.99 prebeta 5 from 4. May 2009

Отчёт EAC об извлечении, выполненном 22. декабря 2012, 21:09

Toto Cutugno / L'Italiano

Дисковод: PIONEER DVD-RW DVR-219L Adapter: 5 ID: 0

Режим чтения : Достоверность
Использование точного потока : Да
Отключение кэша аудио : Да
Использование указателей C2 : Нет

Коррекция смещения при чтении : 6
Способность читать области Lead-in и Lead-out : Нет
Заполнение пропущенных сэмплов тишиной : Да
Удаление блоков с тишиной в начале и конце : Нет
При вычислениях CRC использовались нулевые сэмплы : Да
Интерфейс : Встроенный Win32-интерфейс для Win NT/2000

Выходной формат : Пользовательский кодировщик
Выбранный битрейт : 1024 kBit/s
Качество : Высокий
Добавление ID3-тэга : Нет
Утилита сжатия : C:Program Files (x86)Exact Audio CopyFlacflac.exe
Дополнительные параметры : -8 -V -T "ARTIST=%a" -T "TITLE=%t" -T "ALBUM=%g" -T "DATE=%y" -T "TRACKNUMBER=%n" -T "GENRE=%m" -T "COMMENT=EAC FLAC -8" %s

TOC извлечённого CD

Трек | Старт | Длительность | Начальный сектор | Конечный сектор
---------------------------------------------------------------------
1 | 0:00.00 | 3:59.60 | 0 | 17984
2 | 3:59.60 | 4:07.10 | 17985 | 36519
3 | 8:06.70 | 4:10.35 | 36520 | 55304
4 | 12:17.30 | 3:01.16 | 55305 | 68895
5 | 15:18.46 | 3:44.24 | 68896 | 85719
6 | 19:02.70 | 4:03.22 | 85720 | 103966
7 | 23:06.17 | 3:58.17 | 103967 | 121833
8 | 27:04.34 | 4:18.41 | 121834 | 141224
9 | 31:23.00 | 3:22.29 | 141225 | 156403
10 | 34:45.29 | 3:35.33 | 156404 | 172561

Характеристики диапазона извлечения и сообщения об ошибках

Выбранный диапазон

Имя файла F:СВОИ РЕЛИЗЫToto CutugnoToto Cutugno-1983-L'ItalianoToto Cutugno - L'Italiano.wav

Пиковый уровень 100.0 %
Качество диапазона 100.0 %
CRC теста 6B32D173
CRC копии 6B32D173
Копирование... OK

Ошибок не произошло

AccurateRip: сводка

Трек 1 точное извлечение (доверие 2)
Трек 2 точное извлечение (доверие 2) [F8304E08]
Трек 3 точное извлечение (доверие 2) [9138BBFB]
Трек 4 точное извлечение (доверие 2) [DF1A4B49]
Трек 5 точное извлечение (доверие 2) [CFEFA01C]
Трек 6 точное извлечение (доверие 2) [25D7ACF6]
Трек 7 точное извлечение (доверие 2) [64317E4C]
Трек 8 точное извлечение (доверие 2) [4535EEC0]
Трек 9 точное извлечение (доверие 2) [A28CCB45]
Трек 10 точное извлечение (доверие 2) [3A9F900D]

Все треки извлечены точно

Конец отчёта
CD 1986 Per Amore O Per Gioco (Baby Records, 259 827 Germany 1989) 00
Toto Cutugno - Discography 01. Mi piacerebbe... (andare al mare... al lunedi...) (04:29)
02. Azzurra malinconia
03. C'est Venice
04. Hei... guarda chi c'e'
05. Come mai
06. Una donna come te
07. Buonanotte
08. Il cielo
09. Anna
10. Mademoiselle Ca Va
11. Serenata
12. Because I Love You
13. Vivo

eac
Exact Audio Copy V1.0 beta 3 from 29. August 2011

Отчёт EAC об извлечении, выполненном 8. ноября 2014, 18:10

Toto Cutugno / Per Amore O Per Gioco

Дисковод: hp DVD-RAM SW830 Adapter: 0 ID: 0

Режим чтения : Достоверность
Использование точного потока : Да
Отключение кэша аудио : Да
Использование указателей C2 : Нет

Коррекция смещения при чтении : 6
Способность читать области Lead-in и Lead-out : Нет
Заполнение пропущенных сэмплов тишиной : Да
Удаление блоков с тишиной в начале и конце : Нет
При вычислениях CRC использовались нулевые сэмплы : Да
Интерфейс : Встроенный Win32-интерфейс для Win NT/2000

Выходной формат : Пользовательский кодировщик
Выбранный битрейт : 896 kBit/s
Качество : Высокий
Добавление ID3-тега : Нет
Утилита сжатия : C:Program Files (x86)Exact Audio CopyFlacflac.exe
Дополнительные параметры : -V -8 %source%

TOC извлечённого CD

Трек | Старт | Длительность | Начальный сектор | Конечный сектор
---------------------------------------------------------------------
1 | 0:00.33 | 4:29.62 | 33 | 20269
2 | 4:30.20 | 4:18.33 | 20270 | 39652
3 | 8:48.53 | 4:12.42 | 39653 | 58594
4 | 13:01.20 | 4:09.60 | 58595 | 77329
5 | 17:11.05 | 3:46.00 | 77330 | 94279
6 | 20:57.05 | 4:07.40 | 94280 | 112844
7 | 25:04.45 | 4:32.25 | 112845 | 133269
8 | 29:36.70 | 4:29.38 | 133270 | 153482
9 | 34:06.33 | 3:43.62 | 153483 | 170269
10 | 37:50.20 | 4:13.05 | 170270 | 189249
11 | 42:03.25 | 3:48.00 | 189250 | 206349
12 | 45:51.25 | 4:07.00 | 206350 | 224874
13 | 49:58.25 | 4:13.08 | 224875 | 243857

Характеристики диапазона извлечения и сообщения об ошибках

Выбранный диапазон

Имя файла F:torrent.ruToto Cutugno - DiscographyAlbumsToto Cutugno - Per Amore O Per Gioco.wav

Пиковый уровень 98.4 %
Скорость извлечения 7.1 X
Качество диапазона 100.0 %
CRC теста DE19D2DB
CRC копии DE19D2DB
Копирование... OK

Ошибок не произошло

AccurateRip: сводка

Трек 1 точность не определена (достоверность 2) [387F04FB], AccurateRip вернул [85F6643D] (AR v2)
Трек 2 точность не определена (достоверность 2) [4B744B56], AccurateRip вернул [5FFDA68B] (AR v2)
Трек 3 точность не определена (достоверность 2) [C599EC43], AccurateRip вернул [4ED1734B] (AR v2)
Трек 4 точность не определена (достоверность 2) [CDD1EBA1], AccurateRip вернул [49D02FEC] (AR v2)
Трек 5 точность не определена (достоверность 2) [A4826DA6], AccurateRip вернул [BE25316D] (AR v2)
Трек 6 точность не определена (достоверность 2) [F90A20AF], AccurateRip вернул [2BE6ACE8] (AR v2)
Трек 7 точность не определена (достоверность 2) , AccurateRip вернул [8DFC678C] (AR v2)
Трек 8 точность не определена (достоверность 2) [39DC9648], AccurateRip вернул [2B8DD7E7] (AR v2)
Трек 9 точность не определена (достоверность 2) [5EEA73A5], AccurateRip вернул [DE4A0CA4] (AR v2)
Трек 10 точность не определена (достоверность 2) [7B1D70E5], AccurateRip вернул [36F2A0C4] (AR v2)
Трек 11 точность не определена (достоверность 2) [ECDD69B8], AccurateRip вернул [3A75B661] (AR v2)
Трек 12 точность не определена (достоверность 2) [E192D3DE], AccurateRip вернул [9D279A90] (AR v2)
Трек 13 точность не определена (достоверность 2) [DC27225C], AccurateRip вернул [9AD4EE1C] (AR v2)

Ни один трек не прошёл проверки на точность
В вашей базе может быть иной вариант штамповки диска

Конец отчёта

==== Контрольная сумма отчёта 245F3917CA822C9A174F61DEAE006AC75B387FF2B3F7C9BD6569D2B105F58EAA ====
CD 1986 Azzurra Malinconia (EMI, 090 7940212 Italy) 00
Toto Cutugno - Discography 01. Anna
02. Azzurra malinconia
03. Una donna come te
04. Mi piacerebbe (andare al mare.. al lunedi..)
05. Il cielo
06. C'est Venice
07. Buonanotte
08. Come mai ?
09. Vivo
10. Mademoiselle ca va

eac
Exact Audio Copy V1.0 beta 3 from 29. August 2011

Отчёт EAC об извлечении, выполненном 9. ноября 2014, 11:39

Toto Cutugno / Azzurra Malinconia

Дисковод: hp DVD-RAM SW830 Adapter: 0 ID: 0

Режим чтения : Достоверность
Использование точного потока : Да
Отключение кэша аудио : Да
Использование указателей C2 : Нет

Коррекция смещения при чтении : 6
Способность читать области Lead-in и Lead-out : Нет
Заполнение пропущенных сэмплов тишиной : Да
Удаление блоков с тишиной в начале и конце : Нет
При вычислениях CRC использовались нулевые сэмплы : Да
Интерфейс : Встроенный Win32-интерфейс для Win NT/2000

Выходной формат : Пользовательский кодировщик
Выбранный битрейт : 896 kBit/s
Качество : Высокий
Добавление ID3-тега : Нет
Утилита сжатия : C:Program Files (x86)Exact Audio CopyFlacflac.exe
Дополнительные параметры : -V -8 %source%

TOC извлечённого CD

Трек | Старт | Длительность | Начальный сектор | Конечный сектор
---------------------------------------------------------------------
1 | 0:00.33 | 3:55.15 | 33 | 17672
2 | 3:55.48 | 4:27.02 | 17673 | 37699
3 | 8:22.50 | 4:10.38 | 37700 | 56487
4 | 12:33.13 | 4:32.30 | 56488 | 76917
5 | 17:05.43 | 4:32.47 | 76918 | 97364
6 | 21:38.15 | 4:17.00 | 97365 | 116639
7 | 25:55.15 | 4:41.50 | 116640 | 137764
8 | 30:36.65 | 3:46.13 | 137765 | 154727
9 | 34:23.03 | 4:20.62 | 154728 | 174289
10 | 38:43.65 | 4:14.53 | 174290 | 193392

Характеристики диапазона извлечения и сообщения об ошибках

Выбранный диапазон

Имя файла F:torrent.ruToto Cutugno - DiscographyAlbumsToto Cutugno - Azzurra Malinconia.wav

Пиковый уровень 93.8 %
Скорость извлечения 6.8 X
Качество диапазона 100.0 %
CRC теста 0D817BE5
CRC копии 0D817BE5
Копирование... OK

Ошибок не произошло

AccurateRip: сводка

Трек 1 отсутствует в базе данных
Трек 2 отсутствует в базе данных
Трек 3 отсутствует в базе данных
Трек 4 отсутствует в базе данных
Трек 5 отсутствует в базе данных
Трек 6 отсутствует в базе данных
Трек 7 отсутствует в базе данных
Трек 8 отсутствует в базе данных
Трек 9 отсутствует в базе данных
Трек 10 отсутствует в базе данных

Ни одного трека нет в базе AccurateRip

Конец отчёта

==== Контрольная сумма отчёта 8D3BCAFD6D7FD44704C2582E86E1E95E6A6BA83D912C551A625A589D59CFC038 ====
CD 1987 Mediterraneo (EMI, CDP 7468712 Shwitzerland) 00
Toto Cutugno - Discography 01. Mediterraneo
02. C'est Venice
03. Il Sognatore
04. Amico del cuore
05. Caspita
06. Figli
07. Napoli
08. Canzone d'amore
09. Io amo
10. Hei guarda chi c'e'

eac
Exact Audio Copy V1.0 beta 3 from 29. August 2011

Отчёт EAC об извлечении, выполненном 8. ноября 2014, 18:50

Toto Cutugno / Mediterraneo

Дисковод: hp DVD-RAM SW830 Adapter: 0 ID: 0

Режим чтения : Достоверность
Использование точного потока : Да
Отключение кэша аудио : Да
Использование указателей C2 : Нет

Коррекция смещения при чтении : 6
Способность читать области Lead-in и Lead-out : Нет
Заполнение пропущенных сэмплов тишиной : Да
Удаление блоков с тишиной в начале и конце : Нет
При вычислениях CRC использовались нулевые сэмплы : Да
Интерфейс : Встроенный Win32-интерфейс для Win NT/2000

Выходной формат : Пользовательский кодировщик
Выбранный битрейт : 896 kBit/s
Качество : Высокий
Добавление ID3-тега : Нет
Утилита сжатия : C:Program Files (x86)Exact Audio CopyFlacflac.exe
Дополнительные параметры : -V -8 %source%

TOC извлечённого CD

Трек | Старт | Длительность | Начальный сектор | Конечный сектор
---------------------------------------------------------------------
1 | 0:00.33 | 4:38.70 | 33 | 20952
2 | 4:39.28 | 4:26.10 | 20953 | 40912
3 | 9:05.38 | 4:22.17 | 40913 | 60579
4 | 13:27.55 | 4:19.10 | 60580 | 80014
5 | 17:46.65 | 5:05.40 | 80015 | 102929
6 | 22:52.30 | 4:08.68 | 102930 | 121597
7 | 27:01.23 | 4:29.37 | 121598 | 141809
8 | 31:30.60 | 4:36.13 | 141810 | 162522
9 | 36:06.73 | 4:10.55 | 162523 | 181327
10 | 40:17.53 | 4:05.65 | 181328 | 199767

Характеристики диапазона извлечения и сообщения об ошибках

Выбранный диапазон

Имя файла F:torrent.ruToto Cutugno - DiscographyAlbumsToto Cutugno - Mediterraneo.wav

Пиковый уровень 100.0 %
Скорость извлечения 6.8 X
Качество диапазона 100.0 %
CRC теста 583262B6
CRC копии 583262B6
Копирование... OK

Ошибок не произошло

AccurateRip: сводка

Трек 1 отсутствует в базе данных
Трек 2 отсутствует в базе данных
Трек 3 отсутствует в базе данных
Трек 4 отсутствует в базе данных
Трек 5 отсутствует в базе данных
Трек 6 отсутствует в базе данных
Трек 7 отсутствует в базе данных
Трек 8 отсутствует в базе данных
Трек 9 отсутствует в базе данных
Трек 10 отсутствует в базе данных

Ни одного трека нет в базе AccurateRip

Конец отчёта

==== Контрольная сумма отчёта 45383EAD8B79FDC4D18532CB812792FC076F2B83BA6B2F32266ABE24AFFB9A2E ====
CD 1987 L' Italiano (Carosello, DC 31006 E.C. 2CD 1998) 01
Toto Cutugno - Discography
CD -1 00:45:20

01. L'italiano
02. La mia musica
03. L'estate vola via
04. Africa
05. Volo AZ 504
06. Con te
07. Da poco tempo che
08. Sinfonia
09. Sara
10. Francesca non sa
11. Mi dici che stai bene con me


CD -2 00:46:33

01. Solo noi
02. Voglio l'anima
03. Ma...
04. Una serata come tante
05. Na parola
06. Donna donna mia
07. Amore no
08. Soli
09. Liberi
10. Se vai vai
11. Aeroporto Kennedy
12. Flash

eac CD 1
Exact Audio Copy V1.0 beta 3 from 29. August 2011

Отчёт EAC об извлечении, выполненном 15. августа 2014, 23:37

Toto Cutugno / L' Italiano CD1

Дисковод: hp DVD-RAM SW830 Adapter: 0 ID: 0

Режим чтения : Достоверность
Использование точного потока : Да
Отключение кэша аудио : Да
Использование указателей C2 : Нет

Коррекция смещения при чтении : 6
Способность читать области Lead-in и Lead-out : Нет
Заполнение пропущенных сэмплов тишиной : Да
Удаление блоков с тишиной в начале и конце : Нет
При вычислениях CRC использовались нулевые сэмплы : Да
Интерфейс : Встроенный Win32-интерфейс для Win NT/2000

Выходной формат : Пользовательский кодировщик
Выбранный битрейт : 896 kBit/s
Качество : Высокий
Добавление ID3-тега : Нет
Утилита сжатия : C:Program Files (x86)Exact Audio CopyFlacflac.exe
Дополнительные параметры : -V -8 %source%

TOC извлечённого CD

Трек | Старт | Длительность | Начальный сектор | Конечный сектор
---------------------------------------------------------------------
1 | 0:00.00 | 4:00.58 | 0 | 18057
2 | 4:00.58 | 4:19.65 | 18058 | 37547
3 | 8:20.48 | 3:51.70 | 37548 | 54942
4 | 12:12.43 | 3:15.00 | 54943 | 69567
5 | 15:27.43 | 3:46.25 | 69568 | 86542
6 | 19:13.68 | 4:17.72 | 86543 | 105889
7 | 23:31.65 | 4:21.63 | 105890 | 125527
8 | 27:53.53 | 4:36.37 | 125528 | 146264
9 | 32:30.15 | 4:04.03 | 146265 | 164567
10 | 36:34.18 | 3:41.42 | 164568 | 181184
11 | 40:15.60 | 5:04.28 | 181185 | 204012

Характеристики диапазона извлечения и сообщения об ошибках

Выбранный диапазон

Имя файла F:torrent.ruToto Cutugno - L' Italiano CD1.wav

Пиковый уровень 99.9 %
Скорость извлечения 4.2 X
Качество диапазона 100.0 %
CRC теста 7FE61AB3
CRC копии 7FE61AB3
Копирование... OK

Ошибок не произошло

AccurateRip: сводка

Трек 1 отсутствует в базе данных
Трек 2 отсутствует в базе данных
Трек 3 отсутствует в базе данных
Трек 4 отсутствует в базе данных
Трек 5 отсутствует в базе данных
Трек 6 отсутствует в базе данных
Трек 7 отсутствует в базе данных
Трек 8 отсутствует в базе данных
Трек 9 отсутствует в базе данных
Трек 10 отсутствует в базе данных
Трек 11 отсутствует в базе данных

Ни одного трека нет в базе AccurateRip

Конец отчёта

==== Контрольная сумма отчёта 0D8424876822EEF3CC3E4CA6C29794D0F5AA23E726CDFF450B156507252B428A ====
eac CD 2
Exact Audio Copy V1.0 beta 3 from 29. August 2011

Отчёт EAC об извлечении, выполненном 15. августа 2014, 23:58

Toto Cutugno / L' Italiano (CD2)

Дисковод: hp DVD-RAM SW830 Adapter: 0 ID: 0

Режим чтения : Достоверность
Использование точного потока : Да
Отключение кэша аудио : Да
Использование указателей C2 : Нет

Коррекция смещения при чтении : 6
Способность читать области Lead-in и Lead-out : Нет
Заполнение пропущенных сэмплов тишиной : Да
Удаление блоков с тишиной в начале и конце : Нет
При вычислениях CRC использовались нулевые сэмплы : Да
Интерфейс : Встроенный Win32-интерфейс для Win NT/2000

Выходной формат : Пользовательский кодировщик
Выбранный битрейт : 896 kBit/s
Качество : Высокий
Добавление ID3-тега : Нет
Утилита сжатия : C:Program Files (x86)Exact Audio CopyFlacflac.exe
Дополнительные параметры : -V -8 %source%

TOC извлечённого CD

Трек | Старт | Длительность | Начальный сектор | Конечный сектор
---------------------------------------------------------------------
1 | 0:00.00 | 4:08.28 | 0 | 18627
2 | 4:08.28 | 3:44.15 | 18628 | 35442
3 | 7:52.43 | 3:41.00 | 35443 | 52017
4 | 11:33.43 | 3:10.55 | 52018 | 66322
5 | 14:44.23 | 2:52.40 | 66323 | 79262
6 | 17:36.63 | 3:03.25 | 79263 | 93012
7 | 20:40.13 | 5:03.62 | 93013 | 115799
8 | 25:44.00 | 4:10.60 | 115800 | 134609
9 | 29:54.60 | 4:09.25 | 134610 | 153309
10 | 34:04.10 | 3:40.60 | 153310 | 169869
11 | 37:44.70 | 5:28.70 | 169870 | 194539
12 | 43:13.65 | 3:19.73 | 194540 | 209537

Характеристики диапазона извлечения и сообщения об ошибках

Выбранный диапазон

Имя файла F:torrent.ruToto Cutugno - L' Italiano (CD2).wav

Пиковый уровень 100.0 %
Скорость извлечения 6.9 X
Качество диапазона 100.0 %
CRC теста 75E09DC3
CRC копии 75E09DC3
Копирование... OK

Ошибок не произошло

AccurateRip: сводка

Трек 1 : извлечено точно (доверие 1) [6B23876C] (AR v1)
Трек 2 : извлечено точно (доверие 1) [353CA735] (AR v1)
Трек 3 : извлечено точно (доверие 1) [161BD096] (AR v1)
Трек 4 : извлечено точно (доверие 1) [DA181561] (AR v1)
Трек 5 : извлечено точно (доверие 1) [577B8E3B] (AR v1)
Трек 6 : извлечено точно (доверие 1) [05FE3113] (AR v1)
Трек 7 : извлечено точно (доверие 1) [A14DCF63] (AR v1)
Трек 8 : извлечено точно (доверие 1) [970AED74] (AR v1)
Трек 9 : извлечено точно (доверие 1) [BD6E7271] (AR v1)
Трек 10 : извлечено точно (доверие 1) [922D40B6] (AR v1)
Трек 11 : извлечено точно (доверие 1) [E046E94C] (AR v1)
Трек 12 : извлечено точно (доверие 1) [FBD74567] (AR v1)

Все треки извлечены точно

Конец отчёта

==== Контрольная сумма отчёта 1CE4A6865A77CF6658168450251003B2B560B0F9D527EC67AE72A5EC83AC19F9 ====
CD 1990 Toto Cutugno (Baby Records, BMG, 260 794 Germany) 00
Toto Cutugno - Discography 01. Gli Amori
02. Camminero
03. Se non avessi te
04. Posso ancora volare
05. Per te
06. Le mamme
07. Io vorrei
08. Strana gelosia
09. Ci vuole un' idea
10. Emozioni
11. La fine del mondo
12. Ora che ci sei
13. Piacere

eac
Exact Audio Copy V1.0 beta 3 from 29. August 2011

Отчёт EAC об извлечении, выполненном 30. сентября 2014, 6:50

Toto Cutugno / Toto Cutugno

Дисковод: hp DVD-RAM SW830 Adapter: 0 ID: 0

Режим чтения : Достоверность
Использование точного потока : Да
Отключение кэша аудио : Да
Использование указателей C2 : Нет

Коррекция смещения при чтении : 6
Способность читать области Lead-in и Lead-out : Нет
Заполнение пропущенных сэмплов тишиной : Да
Удаление блоков с тишиной в начале и конце : Нет
При вычислениях CRC использовались нулевые сэмплы : Да
Интерфейс : Встроенный Win32-интерфейс для Win NT/2000

Выходной формат : Пользовательский кодировщик
Выбранный битрейт : 896 kBit/s
Качество : Высокий
Добавление ID3-тега : Нет
Утилита сжатия : C:Program Files (x86)Exact Audio CopyFlacflac.exe
Дополнительные параметры : -V -8 %source%

TOC извлечённого CD

Трек | Старт | Длительность | Начальный сектор | Конечный сектор
---------------------------------------------------------------------
1 | 0:00.38 | 4:14.00 | 38 | 19087
2 | 4:14.38 | 4:17.25 | 19088 | 38387
3 | 8:31.63 | 4:22.50 | 38388 | 58087
4 | 12:54.38 | 4:13.00 | 58088 | 77062
5 | 17:07.38 | 4:19.25 | 77063 | 96512
6 | 21:26.63 | 4:11.12 | 96513 | 115349
7 | 25:38.00 | 4:00.50 | 115350 | 133399
8 | 29:38.50 | 3:45.63 | 133400 | 150337
9 | 33:24.38 | 3:50.50 | 150338 | 167637
10 | 37:15.13 | 4:08.50 | 167638 | 186287
11 | 41:23.63 | 4:13.50 | 186288 | 205312
12 | 45:37.38 | 4:07.37 | 205313 | 223874
13 | 49:45.00 | 3:49.38 | 223875 | 241087

Характеристики диапазона извлечения и сообщения об ошибках

Выбранный диапазон

Имя файла F:torrent.ruToto Cutugno - 'Toto Cutugno' '1990Toto Cutugno - Toto Cutugno.wav

Пиковый уровень 100.0 %
Скорость извлечения 7.2 X
Качество диапазона 100.0 %
CRC теста EC79D997
CRC копии EC79D997
Копирование... OK

Ошибок не произошло

AccurateRip: сводка

Трек 1 : извлечено точно (доверие 2) [0BFAE99F] (AR v2)
Трек 2 : извлечено точно (доверие 2) [93AD9798] (AR v2)
Трек 3 : извлечено точно (доверие 2) [331CC7BB] (AR v2)
Трек 4 : извлечено точно (доверие 2) [82F6A256] (AR v2)
Трек 5 : извлечено точно (доверие 2) [93503FFA] (AR v2)
Трек 6 : извлечено точно (доверие 2) [2E033F9D] (AR v2)
Трек 7 : извлечено точно (доверие 2) [C13476DD] (AR v2)
Трек 8 : извлечено точно (доверие 2) [04C03A33] (AR v2)
Трек 9 : извлечено точно (доверие 2) [8653144B] (AR v2)
Трек 10 : извлечено точно (доверие 2) [37FE04EE] (AR v2)
Трек 11 : извлечено точно (доверие 2) [AA1DDFD2] (AR v2)
Трек 12 : извлечено точно (доверие 2) [E6C45981] (AR v2)
Трек 13 : извлечено точно (доверие 2) (AR v2)

Все треки извлечены точно

Конец отчёта

==== Контрольная сумма отчёта 6C9439CAB690822C3FAFDAD73F97FFE699EC6D5214F9A2205C42920AAC7F03DD ====
CD 1990 Insieme 1992 (EMI, 564-7948712 UK) 00
Toto Cutugno - Discography 01. Insieme 1992
02. Donna donna mia
03. Voglio l'anima
04. Cantando
05. Et si tu n'existais pas
06. L'italiano
07. Il cielo e' sempre un po' piu blu
08. Occhi azzurri
09. Nel cuore, nei sensi
10. L'ete Indien

eac
Exact Audio Copy V1.0 beta 3 from 29. August 2011

Отчёт EAC об извлечении, выполненном 8. ноября 2014, 20:02

Toto Cutugno / Insieme 1992

Дисковод: hp DVD-RAM SW830 Adapter: 0 ID: 0

Режим чтения : Достоверность
Использование точного потока : Да
Отключение кэша аудио : Да
Использование указателей C2 : Нет

Коррекция смещения при чтении : 6
Способность читать области Lead-in и Lead-out : Нет
Заполнение пропущенных сэмплов тишиной : Да
Удаление блоков с тишиной в начале и конце : Нет
При вычислениях CRC использовались нулевые сэмплы : Да
Интерфейс : Встроенный Win32-интерфейс для Win NT/2000

Выходной формат : Пользовательский кодировщик
Выбранный битрейт : 896 kBit/s
Качество : Высокий
Добавление ID3-тега : Нет
Утилита сжатия : C:Program Files (x86)Exact Audio CopyFlacflac.exe
Дополнительные параметры : -V -8 %source%

TOC извлечённого CD

Трек | Старт | Длительность | Начальный сектор | Конечный сектор
---------------------------------------------------------------------
1 | 0:00.33 | 4:27.72 | 33 | 20129
2 | 4:28.30 | 3:37.50 | 20130 | 36454
3 | 8:06.05 | 4:02.23 | 36455 | 54627
4 | 12:08.28 | 4:25.60 | 54628 | 74562
5 | 16:34.13 | 4:23.10 | 74563 | 94297
6 | 20:57.23 | 4:20.27 | 94298 | 113824
7 | 25:17.50 | 4:09.28 | 113825 | 132527
8 | 29:27.03 | 4:54.50 | 132528 | 154627
9 | 34:21.53 | 4:10.32 | 154628 | 173409
10 | 38:32.10 | 5:00.23 | 173410 | 195932

Характеристики диапазона извлечения и сообщения об ошибках

Выбранный диапазон

Имя файла F:torrent.ruToto Cutugno - DiscographyAlbumsToto Cutugno - Insieme 1992.wav

Пиковый уровень 90.5 %
Скорость извлечения 6.8 X
Качество диапазона 100.0 %
CRC теста 16077361
CRC копии 16077361
Копирование... OK

Ошибок не произошло

AccurateRip: сводка

Трек 1 точность не определена (достоверность 1) [D9E68692], AccurateRip вернул [907B3971] (AR v2)
Трек 2 точность не определена (достоверность 1) [C28693B2], AccurateRip вернул [AFB4ED21] (AR v2)
Трек 3 точность не определена (достоверность 1) [E342706F], AccurateRip вернул [97F8AB13] (AR v2)
Трек 4 точность не определена (достоверность 1) [AE7B0F44], AccurateRip вернул [10AF6458] (AR v2)
Трек 5 точность не определена (достоверность 1) [4FB8E1ED], AccurateRip вернул [44C78201] (AR v2)
Трек 6 точность не определена (достоверность 1) [C7E2E13C], AccurateRip вернул [CBCB057E] (AR v2)
Трек 7 точность не определена (достоверность 1) [E64D2422], AccurateRip вернул [D060652A] (AR v2)
Трек 8 точность не определена (достоверность 1) , AccurateRip вернул [072451EE] (AR v2)
Трек 9 точность не определена (достоверность 1) [9818748D], AccurateRip вернул [8079CCBC] (AR v2)
Трек 10 точность не определена (достоверность 1) [F1D2992B], AccurateRip вернул [13DB6C19] (AR v2)

Ни один трек не прошёл проверки на точность
В вашей базе может быть иной вариант штамповки диска

Конец отчёта

==== Контрольная сумма отчёта F7B08FF88F8444B7CA6AC289C5E152414D76C496E40174F55BCBFE27EDE943C3 ====
CD 1990 Toto Cutugno (Successi in TV) (EMI, 090 7942112 Italy) 00
Toto Cutugno - Discography 01. Gli amori (1990 Sanremo)
02. Solo noi (1980 Sanremo)
03. Flash (1981 RAI)
04. L' italiano (1983 Sanremo)
05. Serenata (1984 Sanremo)
06. Azzurra Malinconia (1986 Sanremo)
07. Figli (1987 Sanremo)
08. Donna donna mia (1979 RAI)
09. Una domenica italiana (1987 RAI)
10. Emozioni (1988 Sanremo)
11. Le mamme (1989 Sanremo)
12. Piacere Rai 1 (1989 sigla programma RAI)

eac
Exact Audio Copy V1.0 beta 3 from 29. August 2011

Отчёт EAC об извлечении, выполненном 9. ноября 2014, 13:37

Toto Cutugno / Toto Cutugno (TV)

Дисковод: hp DVD-RAM SW830 Adapter: 0 ID: 0

Режим чтения : Достоверность
Использование точного потока : Да
Отключение кэша аудио : Да
Использование указателей C2 : Нет

Коррекция смещения при чтении : 6
Способность читать области Lead-in и Lead-out : Нет
Заполнение пропущенных сэмплов тишиной : Да
Удаление блоков с тишиной в начале и конце : Нет
При вычислениях CRC использовались нулевые сэмплы : Да
Интерфейс : Встроенный Win32-интерфейс для Win NT/2000

Выходной формат : Пользовательский кодировщик
Выбранный битрейт : 896 kBit/s
Качество : Высокий
Добавление ID3-тега : Нет
Утилита сжатия : C:Program Files (x86)Exact Audio CopyFlacflac.exe
Дополнительные параметры : -V -8 %source%

TOC извлечённого CD

Трек | Старт | Длительность | Начальный сектор | Конечный сектор
---------------------------------------------------------------------
1 | 0:00.32 | 4:11.63 | 32 | 18919
2 | 4:12.20 | 4:04.00 | 18920 | 37219
3 | 8:16.20 | 3:18.70 | 37220 | 52139
4 | 11:35.15 | 3:57.62 | 52140 | 69976
5 | 15:33.02 | 3:47.33 | 69977 | 87034
6 | 19:20.35 | 4:19.27 | 87035 | 106486
7 | 23:39.62 | 4:08.73 | 106487 | 125159
8 | 27:48.60 | 3:00.50 | 125160 | 138709
9 | 30:49.35 | 4:03.40 | 138710 | 156974
10 | 34:53.00 | 4:07.45 | 156975 | 175544
11 | 39:00.45 | 4:08.70 | 175545 | 194214
12 | 43:09.40 | 3:46.65 | 194215 | 211229

Характеристики диапазона извлечения и сообщения об ошибках

Выбранный диапазон

Имя файла F:torrent.ruToto Cutugno - DiscographyCompilationsToto Cutugno - Toto Cutugno (TV).wav

Пиковый уровень 91.4 %
Скорость извлечения 6.9 X
Качество диапазона 100.0 %
CRC теста 5094750D
CRC копии 5094750D
Копирование... OK

Ошибок не произошло

AccurateRip: сводка

Трек 1 отсутствует в базе данных
Трек 2 отсутствует в базе данных
Трек 3 отсутствует в базе данных
Трек 4 отсутствует в базе данных
Трек 5 отсутствует в базе данных
Трек 6 отсутствует в базе данных
Трек 7 отсутствует в базе данных
Трек 8 отсутствует в базе данных
Трек 9 отсутствует в базе данных
Трек 10 отсутствует в базе данных
Трек 11 отсутствует в базе данных
Трек 12 отсутствует в базе данных

Ни одного трека нет в базе AccurateRip

Конец отчёта

==== Контрольная сумма отчёта 21007EF736C841AD1504B20C9C7FEE669E9A285B0093987E04CC0896AFE33146 ====
CD 1990 Insieme 1992 Singles (EMI, 560-20 3887 2 Germany) 00
Toto Cutugno - Discography 1. Insieme: 1992
2. Occhi Azzurri
3. Insieme: 1992 (Instrumental)

eac
Exact Audio Copy V1.0 beta 3 from 29. August 2011

Отчёт EAC об извлечении, выполненном 29. июля 2014, 0:04

Toto Cutugno / Insieme: 1992

Дисковод: hp DVD-RAM SW830 Adapter: 0 ID: 0

Режим чтения : Достоверность
Использование точного потока : Да
Отключение кэша аудио : Да
Использование указателей C2 : Нет

Коррекция смещения при чтении : 6
Способность читать области Lead-in и Lead-out : Нет
Заполнение пропущенных сэмплов тишиной : Да
Удаление блоков с тишиной в начале и конце : Нет
При вычислениях CRC использовались нулевые сэмплы : Да
Интерфейс : Встроенный Win32-интерфейс для Win NT/2000

Выходной формат : Пользовательский кодировщик
Выбранный битрейт : 896 kBit/s
Качество : Высокий
Добавление ID3-тега : Нет
Утилита сжатия : C:Program Files (x86)Exact Audio CopyFlacflac.exe
Дополнительные параметры : -V -8 %source%

TOC извлечённого CD

Трек | Старт | Длительность | Начальный сектор | Конечный сектор
---------------------------------------------------------------------
1 | 0:00.00 | 4:28.50 | 0 | 20149
2 | 4:28.50 | 4:47.02 | 20150 | 41676
3 | 9:15.52 | 4:25.08 | 41677 | 61559

Характеристики диапазона извлечения и сообщения об ошибках

Выбранный диапазон

Имя файла F:torrent.ruToto Cutugno - Insieme- 1992.wav

Пиковый уровень 100.0 %
Скорость извлечения 5.3 X
Качество диапазона 100.0 %
CRC теста 020015A3
CRC копии 020015A3
Копирование... OK

Ошибок не произошло

AccurateRip: сводка

Трек 1 : извлечено точно (доверие 4) [AC0997C5] (AR v1)
Трек 2 : извлечено точно (доверие 4) [FCE1D999] (AR v1)
Трек 3 : извлечено точно (доверие 4) [7A7DB2F7] (AR v1)

Все треки извлечены точно

Конец отчёта

==== Контрольная сумма отчёта 9B5989E7CF21D74E9C5C7727779E74F0E3206002BFC98C36F6E8B3FA4335E477 ====
CD 1991 Quelli Come Noi Singles (EMI, 1188662 Holland) 00
Toto Cutugno - Discography 1. Quelli Come Noi
2. C'E' La Rai
3. Quelli Come Noi (instrumental)

eac
Exact Audio Copy V1.0 beta 3 from 29. August 2011

Отчёт EAC об извлечении, выполненном 29. июля 2014, 0:44

Toto Cutugno / Quelli Come noi

Дисковод: hp DVD-RAM SW830 Adapter: 0 ID: 0

Режим чтения : Достоверность
Использование точного потока : Да
Отключение кэша аудио : Да
Использование указателей C2 : Нет

Коррекция смещения при чтении : 6
Способность читать области Lead-in и Lead-out : Нет
Заполнение пропущенных сэмплов тишиной : Да
Удаление блоков с тишиной в начале и конце : Нет
При вычислениях CRC использовались нулевые сэмплы : Да
Интерфейс : Встроенный Win32-интерфейс для Win NT/2000

Выходной формат : Пользовательский кодировщик
Выбранный битрейт : 896 kBit/s
Качество : Высокий
Добавление ID3-тега : Нет
Утилита сжатия : C:Program Files (x86)Exact Audio CopyFlacflac.exe
Дополнительные параметры : -V -8 %source%

TOC извлечённого CD

Трек | Старт | Длительность | Начальный сектор | Конечный сектор
---------------------------------------------------------------------
1 | 0:00.33 | 4:28.25 | 33 | 20157
2 | 4:28.58 | 3:50.17 | 20158 | 37424
3 | 8:19.00 | 4:36.33 | 37425 | 58157

Характеристики диапазона извлечения и сообщения об ошибках

Выбранный диапазон

Имя файла F:torrent.ruToto Cutugno - Quelli Come noi.wav

Пиковый уровень 87.1 %
Скорость извлечения 3.3 X
Качество диапазона 100.0 %
CRC теста 53B77601
CRC копии 53B77601
Копирование... OK

Ошибок не произошло

AccurateRip: сводка

Трек 1 отсутствует в базе данных
Трек 2 отсутствует в базе данных
Трек 3 отсутствует в базе данных

Ни одного трека нет в базе AccurateRip

Конец отчёта

==== Контрольная сумма отчёта BCCC22176595814700F9612CCB4A11AF140FF1CD2DDF74F77B0CF0879F335A50 ====
CD 1991- Non E' Facile Essere Uomini (EMI, 090 7984562 Holland) 00
Toto Cutugno - Discography 01. Quelli come noi
02. Voglio che tu sia
03. Ocio
04. Quelle sere
05. Fino all' ultimo
06. C'e' la RAI
07. Stasera parliamo di donne
08. Week end in citta'
09. L'amore e'...
10. Un vecchio appena nato
11. Che donna
12. Come e' difficile essere uomini

eac
Exact Audio Copy V1.0 beta 3 from 29. August 2011

Отчёт EAC об извлечении, выполненном 8. ноября 2014, 20:25

Toto Cutugno / Non E' Facile Essere Uomini

Дисковод: hp DVD-RAM SW830 Adapter: 0 ID: 0

Режим чтения : Достоверность
Использование точного потока : Да
Отключение кэша аудио : Да
Использование указателей C2 : Нет

Коррекция смещения при чтении : 6
Способность читать области Lead-in и Lead-out : Нет
Заполнение пропущенных сэмплов тишиной : Да
Удаление блоков с тишиной в начале и конце : Нет
При вычислениях CRC использовались нулевые сэмплы : Да
Интерфейс : Встроенный Win32-интерфейс для Win NT/2000

Выходной формат : Пользовательский кодировщик
Выбранный битрейт : 896 kBit/s
Качество : Высокий
Добавление ID3-тега : Нет
Утилита сжатия : C:Program Files (x86)Exact Audio CopyFlacflac.exe
Дополнительные параметры : -V -8 %source%

TOC извлечённого CD

Трек | Старт | Длительность | Начальный сектор | Конечный сектор
---------------------------------------------------------------------
1 | 0:00.32 | 4:25.65 | 32 | 19971
2 | 4:26.22 | 4:33.25 | 19972 | 40471
3 | 8:59.47 | 4:03.73 | 40472 | 58769
4 | 13:03.45 | 4:36.27 | 58770 | 79496
5 | 17:39.72 | 4:11.18 | 79497 | 98339
6 | 21:51.15 | 3:50.50 | 98340 | 115639
7 | 25:41.65 | 3:59.15 | 115640 | 133579
8 | 29:41.05 | 3:48.22 | 133580 | 150701
9 | 33:29.27 | 3:36.20 | 150702 | 166921
10 | 37:05.47 | 3:25.10 | 166922 | 182306
11 | 40:30.57 | 4:29.60 | 182307 | 202541
12 | 45:00.42 | 6:07.65 | 202542 | 230131

Характеристики диапазона извлечения и сообщения об ошибках

Выбранный диапазон

Имя файла F:torrent.ruToto Cutugno - DiscographyAlbumsToto Cutugno - Non E' Facile Essere Uomini.wav

Пиковый уровень 100.0 %
Скорость извлечения 7.1 X
Качество диапазона 100.0 %
CRC теста B72981D7
CRC копии B72981D7
Копирование... OK

Ошибок не произошло

AccurateRip: сводка

Трек 1 : извлечено точно (доверие 2) [4574C475] (AR v2)
Трек 2 : извлечено точно (доверие 2) [54806E05] (AR v2)
Трек 3 : извлечено точно (доверие 2) [0985847E] (AR v2)
Трек 4 : извлечено точно (доверие 2) [7A5DDB77] (AR v2)
Трек 5 : извлечено точно (доверие 2) [5514698C] (AR v2)
Трек 6 : извлечено точно (доверие 2) [8331474B] (AR v2)
Трек 7 : извлечено точно (доверие 2) [CDA239D4] (AR v2)
Трек 8 : извлечено точно (доверие 2) [3854962C] (AR v2)
Трек 9 : извлечено точно (доверие 2) [101F0CA6] (AR v2)
Трек 10 : извлечено точно (доверие 2) (AR v2)
Трек 11 : извлечено точно (доверие 2) [3C985CF3] (AR v2)
Трек 12 : извлечено точно (доверие 2) [22E7396B] (AR v2)

Все треки извлечены точно

Конец отчёта

==== Контрольная сумма отчёта 58FC010659909A561BF426C56ACE7FAD0CB8EDBE0390AC89B79062A842B444DD ====
CD 1994 Se Mi Ami Singles (Mediterraneo) (BMG Ariola, 74321 21865 2 Germany) 00
Toto Cutugno - Discography 1. Se Mi Ami (Mediterraneo) (Radio Edit)
2. Se Mi Ami (Mediterraneo) (Versione Lunga)
3. Se Mi Ami (Mediterraneo) (Versione Karaoke)
4. Se Mi Ami (Mediterraneo) (Versione Flicorno)

eac
Exact Audio Copy V1.0 beta 3 from 29. August 2011

Отчёт EAC об извлечении, выполненном 29. июля 2014, 0:58

Toto Cutugno / Se Mi Ami (Mediterraneo)

Дисковод: hp DVD-RAM SW830 Adapter: 0 ID: 0

Режим чтения : Достоверность
Использование точного потока : Да
Отключение кэша аудио : Да
Использование указателей C2 : Нет

Коррекция смещения при чтении : 6
Способность читать области Lead-in и Lead-out : Нет
Заполнение пропущенных сэмплов тишиной : Да
Удаление блоков с тишиной в начале и конце : Нет
При вычислениях CRC использовались нулевые сэмплы : Да
Интерфейс : Встроенный Win32-интерфейс для Win NT/2000

Выходной формат : Пользовательский кодировщик
Выбранный битрейт : 896 kBit/s
Качество : Высокий
Добавление ID3-тега : Нет
Утилита сжатия : C:Program Files (x86)Exact Audio CopyFlacflac.exe
Дополнительные параметры : -V -8 %source%

TOC извлечённого CD

Трек | Старт | Длительность | Начальный сектор | Конечный сектор
---------------------------------------------------------------------
1 | 0:00.32 | 3:48.20 | 32 | 17151
2 | 3:48.52 | 5:06.25 | 17152 | 40126
3 | 8:55.02 | 3:45.68 | 40127 | 57069
4 | 12:40.70 | 5:03.37 | 57070 | 79831

Характеристики диапазона извлечения и сообщения об ошибках

Выбранный диапазон

Имя файла F:torrent.ruToto Cutugno - Se Mi Ami (Mediterraneo).wav

Пиковый уровень 100.0 %
Скорость извлечения 5.6 X
Качество диапазона 100.0 %
CRC теста 53F7E887
CRC копии 53F7E887
Копирование... OK

Ошибок не произошло

AccurateRip: сводка

Трек 1 отсутствует в базе данных
Трек 2 отсутствует в базе данных
Трек 3 отсутствует в базе данных
Трек 4 отсутствует в базе данных

Ни одного трека нет в базе AccurateRip

Конец отчёта

==== Контрольная сумма отчёта 76C32975BCC4F99D592F8A977CD51F8354933393DAB75B36E1AB8FF4F389560B ====
CD 1995 Voglio Andare A Vivere In Campagna Singles (Mint Records, ZYX, Germany 7818-8 ) 00
Toto Cutugno - Discography 1. Voglio Andare A Vivere In Campagna (radio edit)
2. Voglio Andare A Vivere In Campagna (campagna Toto)
3. Voglio Andare A Vivere In Campagna (campagna power mix)
4. Voglio Andare A Vivere In Campagna (Ah! Ah! Tecno Mix)

eac
Exact Audio Copy V1.0 beta 3 from 29. August 2011

Отчёт EAC об извлечении, выполненном 29. июля 2014, 1:30

Toto Cutugno / Voglio Andare A Vivere In Campagna

Дисковод: hp DVD-RAM SW830 Adapter: 0 ID: 0

Режим чтения : Достоверность
Использование точного потока : Да
Отключение кэша аудио : Да
Использование указателей C2 : Нет

Коррекция смещения при чтении : 6
Способность читать области Lead-in и Lead-out : Нет
Заполнение пропущенных сэмплов тишиной : Да
Удаление блоков с тишиной в начале и конце : Нет
При вычислениях CRC использовались нулевые сэмплы : Да
Интерфейс : Встроенный Win32-интерфейс для Win NT/2000

Выходной формат : Пользовательский кодировщик
Выбранный битрейт : 896 kBit/s
Качество : Высокий
Добавление ID3-тега : Нет
Утилита сжатия : C:Program Files (x86)Exact Audio CopyFlacflac.exe
Дополнительные параметры : -V -8 %source%

TOC извлечённого CD

Трек | Старт | Длительность | Начальный сектор | Конечный сектор
---------------------------------------------------------------------
1 | 0:00.00 | 4:22.15 | 0 | 19664
2 | 4:22.15 | 5:43.12 | 19665 | 45401
3 | 10:05.27 | 5:43.05 | 45402 | 71131
4 | 15:48.32 | 3:55.13 | 71132 | 88769

Характеристики диапазона извлечения и сообщения об ошибках

Выбранный диапазон

Имя файла F:torrent.ruToto Cutugno - Voglio Andare A Vivere In Campagna.wav

Пиковый уровень 100.0 %
Скорость извлечения 5.6 X
Качество диапазона 99.9 %
CRC теста E63FFA6A
CRC копии E63FFA6A
Копирование... OK

Ошибок не произошло

AccurateRip: сводка

Трек 1 отсутствует в базе данных
Трек 2 отсутствует в базе данных
Трек 3 отсутствует в базе данных
Трек 4 отсутствует в базе данных

Ни одного трека нет в базе AccurateRip

Конец отчёта

==== Контрольная сумма отчёта 05AB46F0B25C4F5E8285702230F2B817BE3001164BC4DEA19B27DE8930522D7F ====
CD 1997 Canzoni Nascoste (Carosello, 300595-2 Italy) 00
Toto Cutugno - Discography 01. Faccia pulita
02. Io e te
03. Cantando
04. Come e difficile essere uomini
05. Nel cuore nei sensi
06. Fino all'ultimo
07. Se mi ami
08. Donna donna mia
09. Dove ti porta il cuore
10. A... Rio
11. Et si tu n'existais pas
12. L'ete indien
13. Adulele

Музыка / Lossless / Дискографии (Поп музыка)
СКАЧАТЬ БЕСПЛАТНО  [7.7 GB]


17
мар
2012

Toto Cutugno - Discography [1975-2008, Italian Pop, MP3]

Формат: MP3, tracks, 320kbps
Год выпуска: 1975-2008
Страна: Italy
Жанр: Italian Pop
Продолжительность: 38:20:37
Описание: Albums 1976 - Volo AZ 504 (Albatros) 00 01.Gran Premio 02.Africa 03.Volo AZ 504 04.L'Albatros 05.Marieneige 06.Ha-Ri-Ah 07.Nel Coure Nei Sensi 08.La Mia Isola 09.Private Collection Part. 1 10.Private Collection Part. 2 11.Monja Monja 12.Oui-Bon-D'accord 13.Stop Stop Violence 14.Santamaria De Portugal 1979 - Voglio L'Anima 0001.Voglio L'Anima 02.Ma... 03.Una Serata Come Tante 04.'Na Parola 05.Aeroporto Kennedy 06.Amore No 07.Soli 08.Liberi 09.Se Vai Via 10.Donna Donna Mi ...

07
мая
2007

Toto Cutugno - The Best [2000,Popmusic,MP3]

Страна: Италия
Год выпуска: 2000
Жанр: Поп
Формат: MP3
Битрейт аудио: 128 kbps Трэклист 01 - L'italiano 02 - Soli 03 - Voglio L'anima 04 - Frnacesca Non Sa 05 - Africa 06 - Il Cielo E' Sempre Un Po' Piu' Blue 07 - Maledetto Sogno 08 - Donna Mia 09 - Da Poco Temp Che 10 - Sinfonia 11 - Aeroporto Kennedy 12 - Punto E Virgola 13 - E' Un Anno Che Tu Butti Via 14 - Solo Noi 15 - Serenata 16 - Flash 17 - Un'estate Con Te 18 - Innamorati 19 - Volo Az 504 20 - 'Na Parola 21 - La Mia Musica 22 - Mi Dici Che Stai Bene Con Me 23 - L'estate Vola Via 24 - Con Te 25 - Aio Aio Polinesia 26 - Mi Va 27 - Vogl ...

28
ноя
2015

Toto Cutugno - Super Live [1979 - 2002, Pop, DVD5]

Формат: DVD5, DVD Video, MPEG2, AC3
Песня: Super Live
Жанр: Pop
Продолжительность: 01:06:52
Год выпуска: 1979 - 2002
Видео: 720х576 (PAL 16:9), 25 fps, MPEG-2, ~6762 kbps avg, 0.652 bit/pixel
Аудио: 48.0 КГц, Audio Coding 3, 2 ch, 192 kbps
Доп. информация: Итальянский певец и композитор. Известен своим сотрудничеством с такими исполнителями как Адриано Челентано, Джо Дассен, Далида, Ricchi e Poveri. Прославился своей песней L’italiano. Победитель конкурса «Евровидение 1990» в Загребе. В начале 1975 года Кутуньо начинает выступать с группой «Albatros», пишет вместе с поэтом Вито Паллавичини п ...

10
фев
2014

Toto Cutugno - Pop Collectin [2002, Pop, FLAC]

Формат: FLAC, tracks, lossless
Год выпуска: 2002
Страна: Italy
Жанр: Pop
Продолжительность: 01:13:36
Описание: 01. Soli 02. Solo Noi 03. Serenata 04. L'Italiano 05. Le Mamme 06. Bonna Note 07. Gli Amori 08. Voglio Andare A Vivere In Campagna 09. Lo E Te 10. Innamorata 11. Piacere RAI1 12. Se Mi Ami 13. Insieme- 1992 14. Amanti 15. Emozioni 16. Figli 17. Una State Con Te 18. Voglio L'Anima
Доп.информация: audiochecker.logAUDIOCHECKER v2.0 beta (build 457) ~~~~~~~~~~~~~~~~~~~~~~~~~~~~~~~~~~
Путь: ...Toto Cutugno 01 -=- 01. Soli.flac -=- CDDA (100%) 02 -=- 02. Solo Noi.flac -=- CDDA (99%) ...

08
июн
2010

Toto Cutugno - Grand Collection [2004, Pop, MP3]

Формат: MP3, tracks, 320kbps
Год выпуска: 2004
Страна: Italy
Жанр: Pop
Продолжительность: 01:20:01
Трэклист: 1. - Flash 2. - Innamorati 3. - L'Italiano 4. - Soli 5. - Donna Donna Mia 6. - Amore No 7. - Nel Cuore, Nei Sensi 8. - Fino All'Ultimo 9. - Piacere Rai1 10. - C'e'La Rai 11. - Che Donna 12. - Com'E' Difficile Essere Uomini 13. - Il Treno Va 14. - Una Canzone Che Non C'e' 15. - Siamo Ancora Noi 16. - L'Italiano (Lasciate Mi Cantare) 17. - La Mia Musica 18. - Sinfonia 19. - La Mia Musica (Reprise) 20. - Voglio L'Anima Не забывайте нажимать:

26
окт
2010

Toto Cutugno - Un falco chiuso in gabbia [2008, Pop, mp3] [2008, Рор, MP3]

Формат: MP3, tracks, 192kbps
Год выпуска: 2008
Страна: Россия
Жанр: Рор
Продолжительность: 01:02:04
Описание: 01 Un falco chiuso in gabbia 02 Con te ci sto 03 Non valo la pena 04 Rappa Rappa 05 Cassetti vuoti 06 Per te per me per lui per noi 07 Cappuccetto rosso 08 Chico Siciliano 09 Sogni d'oro 10 M'innamorero 11 Sara la differenza di eta 12 www love 13 Sola 14 L'isola dell'amore (Lublu tibia) 15 Bonus track

26
мая
2010

Toto Cutugno - I Miei Sanremo [2010, Pop, MP3]

Формат: MP3, tracks, 320kbps
Год выпуска: 2010
Страна: Italy
Жанр: Pop
Продолжительность: 1:02:34
Описание: 1. Aeroplani (4:20) 2.Un Falco Chiuso In Gabbia (4:16) 3.Come Noi Nessuno Al Mondo Ft Annalisa Minetti (4:09) 4.Faccia Pulita (4:35) 5 Voglio Andare A Vivere In Campagna (4:27) 6.Gli Amori (4:13) 7.Le Mamme (4:11) 8.Emozioni (4:09) 9 Figli (Versione 2010) (4:14) 10.Azzurra Malinconia (4:18 ) 11.Serenata (3:49) 12.L'italiano (3:57) 13.Solo Noi (4:06) 14.Gran Premio (4:04) 15.Volo Az 504 (3:46)
Доп. информация: На этом диске Тото Кутуньо собрал все 15 песен, с которыми он выступал на фести ...

03
авг
2012

Toto Cutugno - Лира на подмостках [1982, Disco, SATRip]

Формат: SATRip, MPG, MPEG-2, MP2
Песня: Лира на подмостках
Жанр: Disco
Продолжительность: 00:38:23
Год выпуска: 1982
Видео: 704*576(4:3) PAL MPEG (Video Version 2), ~ 2522 Кбит/сек (15,0 Мбит/сек), ~ 25,000 кадр/сек,
Бит/Пиксели: 0.249
Аудио: 48 КГц, 2 канала(ов), 192 кбит/сек., MP2
Дополнительная информация: ДополнительноКонцерт был записан с телеканала, спутниковой картой, TT - budget S - 1401

19
мая
2015

Toto Cutugno - Super Hits Collection [2015, Pop, MP3]

Формат: MP3, tracks, 320kbps
Год выпуска: 2015
Страна: Italy
Жанр: Pop
Продолжительность: 01:18:04
Описание: 01. L'italiano 02. Solo Noi 03. Donna, Donna Mia 04. Soli 05. La Mia Musica 06. Innamorati 07. Serenata 08. Donna 09. Sara' 10. Flash 11.'Na Parola 12. Da Poco Tempo Che 13. Maledetto Sogno 14. Amore No 15. Sinfonia 16. L'ete indien (Africa) con voce originale di Joe Dassin 17. Il Treno Va 18. Se Una Donna Se Ne Va 19. Il Cielo E' Sempre Un Po' Piu' Blu 20. Un'Estate Con Te

07
окт
2015

Toto Cutugno - Good Songs 2015 [2015, Pop, MP3]

Формат: MP3, tracks, 128kbps
Год выпуска: 2015
Страна: All World
Жанр: Pop
Продолжительность: 12:31:52
Описание: Tracklist001. A... Rio 002. Adulele 003. Aeroplani 004. Aeroporto Kennedy 005. Aio Aio Polinesia 006. Amanti 007. America 008. Amico Del Cuore 009. Amore No 010. Anna 011. Arriva La Domenica 012. Autre chanson 013. Azzura Malinconia 014. Because 015. Bonna Note 016. C E La Rai 017. Camminero 018. Cantando 019. Canzone D'Amore 020. Cappuccetto rosso 021. Caspita 022. Cassetti vuoti 023. C'e la Rai 024. C'est Venice 025. Che sera 026. Chico siciliano 027. Che Donna 028. Ci Vuole Unide ...

20
авг
2007

Toto Cutugno - Лучшие хиты disco дискотека 80-х [2004,Popmusic,MP3]

Страна: Россия
Год выпуска: 2004
Жанр: Pop
Продолжительность: 01:15:35
Формат: MP3
Битрейт аудио: 128 kbps
Трэклист: 01 L' Italiano.mp3 02 Flash.mp3 03 Innamorati.mp3 04 Solo Noi.mp3 05 ll treno va.mp3 06 Donna donna mia.mp3 07 Serenata.mp3 08 Amore no.mp3 09 Sara.mp3 10 La mia musica.mp3 11 Voglio L'anima .mp3 12 ll cielo e' sempre un po' piu' blu.mp3 13 (Africa)L'ete indien '2003.mp3 14 C'e'la rai.mp3 15 Soli.mp3 16 E un anno che tu butti via.mp3 17 Cantando.mp3 18 Adulele.mp3 19 Et si tu n'existais pas (Oasis).mp3 20 Sinfonia.mp3

03
мар
2010

Toto Cutugno - Бенефис в кругу друзей-часть 1 [2007, Popmusic, SATRip]

Формат: SATRip, AVI, XviD, MP3
Песня: Бенефис в кругу друзей-часть 1
Жанр: Pop
Продолжительность: 01:19:39
Год выпуска: 2007
Видео: 720x540 (1.33:1), 25 fps, XviD MPEG-4 ~1490 kbps avg, 0.15 bit/pixel
Аудио: 44.100 kHz, MPEG Layer 3, 2 ch, ~192.00 kbps avg
Доп. информация: Запись юбилейного концерта в Москве, посвященного 40-летнему юбилею творческой деятельности этого выдающего итальянского певца - Тото Кутуньо.
Сэмпл: http://depositfiles.com/files/z49czpiii
Трек лист: 01. Il Treno Va (Toto Cutugno) 02. La Mia Musica / Музыка души моей (Toto Cutugno, гр. "ПМ") 03. Serenata (Toto Cutugno) 04. ...

08
мар
2010

Toto Cutugno - Бенефис в кругу друзей-часть 2 [2007, Pop, SATRip]

Формат: SATRip, AVI, XviD, MP3
Песня: Бенефис в кругу друзей-часть 2
Жанр: Pop
Продолжительность: 01:27:25
Год выпуска: 2007
Видео: 720x540 (1.33:1), 25 fps, XviD MPEG-4 ~1491 kbps avg, 0.15 bit/pixel
Аудио: 44.100 kHz, MPEG Layer 3, 2 ch, ~192.00 kbps avg
Доп. информация: Вторая часть юбилейного концерта в Москве, посвященного 40-летнему юбилею творческой деятельности этого выдающего итальянского певца - Тото Кутуньо.
Сэмпл: http://depositfiles.com/files/bjjmzbylr
Трек лист: 01. Emozioni (Toto Cutugno) 02. Ciao, Bambino, Sorry / Чао, бамбино, сорри (Toto Cutugno, Татьяна Овсиенко) 03. Amanti ...

22
июл
2013

Toto - Studio Discography [1978-2006, Arena rock, Hard rock, Soft rock, Progressive rock, Pop rock, Neo-progressive rock, FLAC]

Формат: FLAC, (image + .cue), lossless
Год выпуска: 1978-2006
Страна: USA
Жанр: Arena rock, Hard rock, Soft rock, Progressive rock, Pop rock, Neo-progressive rock
Продолжительность: 11:57:47
Описание: 1978 Toto (2005 Japan Mini LP MHCP 609) 00 01. Child's Anthem 02. I'll Supply The Love 03. Georgy Porgy 04. Manuela Run 05. You Are The Flower 06. Girl Goodbye 07. Takin' It Back 08. Rockmaker 09. Hold The Line 10. Angela EACExact Audio Copy V0.99 prebeta 5 from 4. May 2009 EAC extraction logfile from 19. February 2012, 7:06 Toto / Toto Used drive : PLEXTOR DVDR PX-810SA Adapter: 2 ID: 1 Read ...

10
мая
2015

Toto - Toto XIV (Japanese Edition) [2015, Melodic Rock, AOR, FLAC]

Формат: FLAC, (image + .cue), lossless
Год выпуска: 2015
Страна: USA
Жанр: Melodic Rock, AOR
Продолжительность: 00:58:57
Описание: 01. Running Out Of Time - 4:06 02. Burn - 4:56 03. Holy War - 5:24 04. 21st Century Blues - 6:08 05. Orphan - 3:55 06. Unknown Soldier (For Jeffrey) - 5:06 07. The Little Things - 4:34 08. Chinatown - 5:07 09. All The Tears That Shine - 5:09 10. Fortune - 4:46 11. Great Expectations - 6:52 12. Bend (bonus track for Japan) - 2:48
Доп. информация: Отчет EACExact Audio Copy V1.0 beta 3 from 29. August 2011 EAC extraction logfile from 17. April 2015, 17:2 ...