23
окт
2014

Сборник - Старые Песни о Главном (Коллекция) [1996-2001, Поп, FLAC]

Сборник - Старые Песни о Главном
Формат: FLAC, (image + .cue), lossless
Год выпуска: 1996-2001
Страна: Россия
Жанр: Поп
Продолжительность: 04:55:12
Описание:
1996 - Старые Песни о Главном 1, 00

01. Леонид Агутин - Песня о шофере
02. Кристина Орбакайте - Бежит река
03. Александр Малинин - Ты ждешь, Лизавета
04. Ирина Отиева и Лариса Долина - Хорошие девчата
05. София Ротару - Каким ты был
06. Олег Газманов - Куплеты Курочкина (из к/ф «Свадьба с приданым»)
07. Владимир Пресняков - На крылечке
08. Гарик Сукачев - Милого узнаю по походке
09. Николай Фоменко, Виктор Рыбин, Сергей Мазаев -
Нас извлекут из-под обломков (из к/ф «На войне, как на войне»)
10. Андрей Макаревич - Лейся песня на просторе
11. Алена Апина и Лада Дэнс - На побывку едет молодой моряк
12. Богдан Титомир - Червона рута
13. Николай Расторгуев - Спят курганы темные
14. Алена Свиридова - Одинокая гармонь
15. Филипп Киркоров - Я встретил девушку
16. Бари Алибасов и группа На-На - Мы, друзья, перелетные птицы
17. Наташа Королева, Лада Дэнс, Алена Апина - Вот кто-то с горочки спустился
18. Лев Лещенко - Почему ты мне не встретилась...
19. Коллективное исполнение - Будьте здоровы
Отчет ЕАС
Exact Audio Copy V0.99 prebeta 5 from 4. May 2009
Отчёт EAC об извлечении, выполненном 8. августа 2012, 21:19

Various / Старые Песни о Главном 1

Дисковод: Optiarc DVD RW AD-5170A Adapter: 0 ID: 0

Режим чтения : Достоверность
Использование точного потока : Да
Отключение кэша аудио : Да
Использование указателей C2 : Нет

Коррекция смещения при чтении : 48
Способность читать области Lead-in и Lead-out : Нет
Заполнение пропущенных сэмплов тишиной : Да
Удаление блоков с тишиной в начале и конце : Нет
При вычислениях CRC использовались нулевые сэмплы : Да
Интерфейс : Встроенный Win32-интерфейс для Win NT/2000

Выходной формат : Внутренние WAV-операции
Формат сэмплов : 44.100 Гц; 16 бит; стерео

TOC извлечённого CD

Трек | Старт | Длительность | Начальный сектор | Конечный сектор
---------------------------------------------------------------------
1 | 0:00.00 | 2:10.00 | 0 | 9749
2 | 2:10.00 | 3:00.00 | 9750 | 23249
3 | 5:10.00 | 2:56.00 | 23250 | 36449
4 | 8:06.00 | 1:50.00 | 36450 | 44699
5 | 9:56.00 | 3:33.00 | 44700 | 60674
6 | 13:29.00 | 2:13.00 | 60675 | 70649
7 | 15:42.00 | 2:53.00 | 70650 | 83624
8 | 18:35.00 | 3:35.00 | 83625 | 99749
9 | 22:10.00 | 2:40.00 | 99750 | 111749
10 | 24:50.00 | 2:12.00 | 111750 | 121649
11 | 27:02.00 | 2:35.00 | 121650 | 133274
12 | 29:37.00 | 4:08.00 | 133275 | 151874
13 | 33:45.00 | 3:26.00 | 151875 | 167324
14 | 37:11.00 | 2:34.00 | 167325 | 178874
15 | 39:45.00 | 3:31.00 | 178875 | 194699
16 | 43:16.00 | 2:53.00 | 194700 | 207674
17 | 46:09.00 | 1:57.00 | 207675 | 216449
18 | 48:06.00 | 2:38.00 | 216450 | 228299
19 | 50:44.00 | 2:03.00 | 228300 | 237524

Характеристики диапазона извлечения и сообщения об ошибках

Выбранный диапазон

Имя файла C:UsersВаняDocumentsVarious - Старые Песни о Главном 1.wav

Пиковый уровень 96.6 %
Качество диапазона 100.0 %
CRC теста 996DD34A
CRC копии 996DD34A
Копирование... OK

Ошибок не произошло

AccurateRip: сводка

Трек 1 нет в базе данных
Трек 2 нет в базе данных
Трек 3 нет в базе данных
Трек 4 нет в базе данных
Трек 5 нет в базе данных
Трек 6 нет в базе данных
Трек 7 нет в базе данных
Трек 8 нет в базе данных
Трек 9 нет в базе данных
Трек 10 нет в базе данных
Трек 11 нет в базе данных
Трек 12 нет в базе данных
Трек 13 нет в базе данных
Трек 14 нет в базе данных
Трек 15 нет в базе данных
Трек 16 нет в базе данных
Трек 17 нет в базе данных
Трек 18 нет в базе данных
Трек 19 нет в базе данных

Ни одного трека нет в базе AccurateRip
Конец отчёта


Старые Песни о Главном 2, 01

01. Валерий Сюткин - Как провожают пароходы
02. Лариса Долина - Стоят девчонки
03. Ирина Аллегрова - Белый свет
04. Валерий Меладзе - Ямайка
05. Андрей Макаревич - Люблю я макароны
06. Татьяна Буланова - Нежность
07. Александр Малинин - Лада
08. Владимир Пресняков - Течет Волга
09. Леонид Агутин - Каникулы любви (Песня о счастливой любви)
10. Дмитрий Маликов и Наталья Ветлицкая - Какая странная судьба
11. Валерия - Маленький принц
12. Анжелика Варум - Наш сосед
13. Кристина Орбакайте - Я тебя подожду
14. Филип Киркоров - Ди лайла
15. Вокал-бенд - Журавлиная песня
16. Олег Газманов - Марш высотников
17. Николай Фоменко, Виктор Рыбин, Сергей Мазаев - На безымянной высоте
18. Лайма Вайкуле - Лунный камень
19. Наташа Королёва - Вулкан страстей
20. Жанна Агузарова - Снег идет
21. Николай Расторгуев - Песня о друге
22. Алена Апина, Наташа Королева, Татьяна Буланова - Ромашки спрятались
23. Алена Свиридова - Песенка о медведях
24. Игорь Николаев - Люди встречаются
25. Людмила Гурченко - Московские окна
26. Алла Пугачева - Осенние листья
Отчет ЕАС
Exact Audio Copy V0.99 prebeta 5 from 4. May 2009
Отчёт EAC об извлечении, выполненном 5. августа 2012, 22:21

Various / Cтарые песни о главном 2

Дисковод: Optiarc DVD RW AD-5170A Adapter: 0 ID: 0

Режим чтения : Достоверность
Использование точного потока : Да
Отключение кэша аудио : Да
Использование указателей C2 : Нет

Коррекция смещения при чтении : 48
Способность читать области Lead-in и Lead-out : Нет
Заполнение пропущенных сэмплов тишиной : Да
Удаление блоков с тишиной в начале и конце : Нет
При вычислениях CRC использовались нулевые сэмплы : Да
Интерфейс : Встроенный Win32-интерфейс для Win NT/2000

Выходной формат : Внутренние WAV-операции
Формат сэмплов : 44.100 Гц; 16 бит; стерео

TOC извлечённого CD

Трек | Старт | Длительность | Начальный сектор | Конечный сектор
---------------------------------------------------------------------
1 | 0:00.00 | 3:30.03 | 0 | 15752
2 | 3:30.03 | 2:16.50 | 15753 | 26002
3 | 5:46.53 | 2:32.55 | 26003 | 37457
4 | 8:19.33 | 3:15.52 | 37458 | 52134
5 | 11:35.10 | 2:14.03 | 52135 | 62187
6 | 13:49.13 | 3:14.57 | 62188 | 76794
7 | 17:03.70 | 2:53.28 | 76795 | 89797
8 | 19:57.23 | 3:54.10 | 89798 | 107357
9 | 23:51.33 | 2:01.60 | 107358 | 116492
10 | 25:53.18 | 2:20.40 | 116493 | 127032
11 | 28:13.58 | 3:17.07 | 127033 | 141814
12 | 31:30.65 | 2:59.73 | 141815 | 155312
13 | 34:30.63 | 3:03.00 | 155313 | 169037
14 | 37:33.63 | 4:10.45 | 169038 | 187832
15 | 41:44.33 | 2:46.15 | 187833 | 200297
16 | 44:30.48 | 2:13.70 | 200298 | 210342
17 | 46:44.43 | 3:46.02 | 210343 | 227294
18 | 50:30.45 | 2:51.55 | 227295 | 240174
19 | 53:22.25 | 3:38.58 | 240175 | 256582
20 | 57:01.08 | 2:18.62 | 256583 | 266994
21 | 59:19.70 | 2:27.30 | 266995 | 278049
22 | 61:47.25 | 2:26.55 | 278050 | 289054
23 | 64:14.05 | 3:18.48 | 289055 | 303952
24 | 67:32.53 | 2:35.20 | 303953 | 315597
25 | 70:07.73 | 3:12.05 | 315598 | 330002
26 | 73:20.03 | 4:02.15 | 330003 | 348167

Характеристики диапазона извлечения и сообщения об ошибках

Выбранный диапазон

Имя файла C:UsersВаняDocumentsVarious - Cтарые песни о главном 2.wav

Пиковый уровень 98.8 %
Качество диапазона 99.9 %
CRC теста 4B7E5CAC
CRC копии 4B7E5CAC
Копирование... OK

Ошибок не произошло

AccurateRip: сводка

Трек 1 точное извлечение (доверие 1) [F9539A02]
Трек 2 точное извлечение (доверие 1) [ACF5CB00]
Трек 3 точное извлечение (доверие 1) [BC18930B]
Трек 4 точное извлечение (доверие 1) [417968B4]
Трек 5 точное извлечение (доверие 1) [8CECDD6D]
Трек 6 точное извлечение (доверие 1)
Трек 7 точное извлечение (доверие 1) [31BB7353]
Трек 8 точное извлечение (доверие 1) [C71C9CA0]
Трек 9 точное извлечение (доверие 1) [7B75D1BE]
Трек 10 точное извлечение (доверие 1) [D965CB67]
Трек 11 точное извлечение (доверие 1) [AAB4EFA4]
Трек 12 точное извлечение (доверие 1) [2E16A007]
Трек 13 точное извлечение (доверие 1) [D173997C]
Трек 14 точное извлечение (доверие 1) [A1E7F365]
Трек 15 точное извлечение (доверие 1) [1C9386ED]
Трек 16 точное извлечение (доверие 1) [AAF392FF]
Трек 17 точное извлечение (доверие 1) [D5480E8E]
Трек 18 точное извлечение (доверие 1) [2EDD17E6]
Трек 19 точное извлечение (доверие 1) [2045FE87]
Трек 20 точное извлечение (доверие 1) [3D4626AB]
Трек 21 точное извлечение (доверие 1) [9095B163]
Трек 22 точное извлечение (доверие 1) [D76EB91C]
Трек 23 точное извлечение (доверие 1) [55472032]
Трек 24 точное извлечение (доверие 1) [1B601537]
Трек 25 точное извлечение (доверие 1) [0FFDD9AE]
Трек 26 точное извлечение (доверие 1) [98770526]

Все треки извлечены точно
Конец отчёта


1998 - Старые Песни о Главном 3, 01

CD 1
01. Филип Киркоров - Уходило лето
02. Кристина Орбакайте - Эхо любви
03. Крис Норман и Наташа Королева - Stumblin’In
04. Иванушки International - Алешкина любовь
05. Леонид Агутин - Где-то далеко...
06. Алёна Апина - Стою на полустаночке
07. Лиз Митчел, «Boney M», Александр Буйнов - Rasputin
08. Лайма Вайкуле - Mammy blue
09. Лариса Долина - Песня из к/ф «31 июня»
10. Владимир Пресняков - Для меня нет тебя прекрасней
11. Анжелика Варум и Дмитрий Маликов - Листья желтые
12. Глория Гейнор и Лариса Долина - I Will Survive
13. Лев Лещенко и Алена Свиридова - Манчестер - Ливерпуль


CD 2
01. Максим Леонидов - Песенка студента
02. Николай Расторгуев - Песня из к/ф «Земля Санникова»
03. Марыля Родович и Александр Малинин - Разноцветные ярмарки
04. Гарик Сукачев - Кони привередливые
05. Валерий Леонтьев - Hafanana
06. Несчастный случай - Песня из к/ф «Генералы песчаных карьеров»
07. Кабаре-дуэт «Академия» - Moscau
08. Татьяна Буланова - Не отрекаются, любя
09. Группа На-На - Увезу тебя я в тундру
10. Валерий Меладзе - Звездочка моя
11. Николай Фоменко, Виктор Рыбин, Сергей Мазаев - Трус не играет в хоккей
12. Валерия - Песня из к/ф «Вам и не снилось»
13. Коллективное исполнение - Надежда
Отчет ЕАС
CD 1
Exact Audio Copy V0.99 prebeta 5 from 4. May 2009

Отчёт EAC об извлечении, выполненном 4. августа 2012, 13:15

Various / Старые песни о главном 3 CD1

Дисковод: Optiarc DVD RW AD-5170A Adapter: 0 ID: 0

Режим чтения : Достоверность
Использование точного потока : Да
Отключение кэша аудио : Да
Использование указателей C2 : Нет

Коррекция смещения при чтении : 48
Способность читать области Lead-in и Lead-out : Нет
Заполнение пропущенных сэмплов тишиной : Да
Удаление блоков с тишиной в начале и конце : Нет
При вычислениях CRC использовались нулевые сэмплы : Да
Интерфейс : Встроенный Win32-интерфейс для Win NT/2000

Выходной формат : Внутренние WAV-операции
Формат сэмплов : 44.100 Гц; 16 бит; стерео

TOC извлечённого CD

Трек | Старт | Длительность | Начальный сектор | Конечный сектор
---------------------------------------------------------------------
1 | 0:00.00 | 2:55.65 | 0 | 13189
2 | 2:55.65 | 3:23.11 | 13190 | 28425
3 | 6:19.01 | 4:07.30 | 28426 | 46980
4 | 10:26.31 | 3:24.32 | 46981 | 62312
5 | 13:50.63 | 4:07.42 | 62313 | 80879
6 | 17:58.30 | 2:35.56 | 80880 | 92560
7 | 20:34.11 | 4:46.60 | 92561 | 114070
8 | 25:20.71 | 4:18.14 | 114071 | 133434
9 | 29:39.10 | 4:58.34 | 133435 | 155818
10 | 34:37.44 | 3:15.03 | 155819 | 170446
11 | 37:52.47 | 3:44.17 | 170447 | 187263
12 | 41:36.64 | 3:50.45 | 187264 | 204558
13 | 45:27.34 | 3:12.22 | 204559 | 218980

Характеристики диапазона извлечения и сообщения об ошибках

Выбранный диапазон

Имя файла C:UsersВаняDocumentsVarious - Старые песни о главном 3 CD1.wav

Пиковый уровень 98.8 %
Качество диапазона 99.9 %
CRC теста 470FDB88
CRC копии 470FDB88
Копирование... OK

Ошибок не произошло

AccurateRip: сводка

Трек 1 нет в базе данных
Трек 2 нет в базе данных
Трек 3 нет в базе данных
Трек 4 нет в базе данных
Трек 5 нет в базе данных
Трек 6 нет в базе данных
Трек 7 нет в базе данных
Трек 8 нет в базе данных
Трек 9 нет в базе данных
Трек 10 нет в базе данных
Трек 11 нет в базе данных
Трек 12 нет в базе данных
Трек 13 нет в базе данных

Ни одного трека нет в базе AccurateRip

Конец отчёта

CD 2
Exact Audio Copy V0.99 prebeta 5 from 4. May 2009

Отчёт EAC об извлечении, выполненном 4. августа 2012, 11:13

Various / Старые песни о главном 3 CD2

Дисковод: Optiarc DVD RW AD-5170A Adapter: 0 ID: 0

Режим чтения : Достоверность
Использование точного потока : Да
Отключение кэша аудио : Да
Использование указателей C2 : Нет

Коррекция смещения при чтении : 48
Способность читать области Lead-in и Lead-out : Нет
Заполнение пропущенных сэмплов тишиной : Да
Удаление блоков с тишиной в начале и конце : Нет
При вычислениях CRC использовались нулевые сэмплы : Да
Интерфейс : Встроенный Win32-интерфейс для Win NT/2000

Выходной формат : Внутренние WAV-операции
Формат сэмплов : 44.100 Гц; 16 бит; стерео

TOC извлечённого CD

Трек | Старт | Длительность | Начальный сектор | Конечный сектор
---------------------------------------------------------------------
1 | 0:00.00 | 3:03.22 | 0 | 13746
2 | 3:03.22 | 4:18.41 | 13747 | 33137
3 | 7:21.63 | 3:18.30 | 33138 | 48017
4 | 10:40.18 | 5:11.16 | 48018 | 71358
5 | 15:51.34 | 2:36.51 | 71359 | 83109
6 | 18:28.10 | 4:14.25 | 83110 | 102184
7 | 22:42.35 | 4:31.73 | 102185 | 122582
8 | 27:14.33 | 3:44.03 | 122583 | 139385
9 | 30:58.36 | 3:21.61 | 139386 | 154521
10 | 34:20.22 | 4:18.06 | 154522 | 173877
11 | 38:38.28 | 2:12.29 | 173878 | 183806
12 | 40:50.57 | 2:58.26 | 183807 | 197182
13 | 43:49.08 | 4:45.40 | 197183 | 218597

Характеристики диапазона извлечения и сообщения об ошибках

Выбранный диапазон

Имя файла C:UsersВаняDocumentsVarious - Старые песни о главном 3 CD2.wav

Пиковый уровень 98.8 %
Качество диапазона 99.9 %
CRC теста 44B689B9
CRC копии 44B689B9
Копирование... OK

Ошибок не произошло

AccurateRip: сводка

Трек 1 точное извлечение (доверие 1) [FB534DCA]
Трек 2 точное извлечение (доверие 1) [BE2C01BC]
Трек 3 точное извлечение (доверие 1) [51EEF80D]
Трек 4 точное извлечение (доверие 1) [2FD64994]
Трек 5 точное извлечение (доверие 1) [6FE7B6A3]
Трек 6 точное извлечение (доверие 1) [15AE4A19]
Трек 7 точное извлечение (доверие 1) [7C8F3540]
Трек 8 точное извлечение (доверие 1) [60C6BE19]
Трек 9 точное извлечение (доверие 1) [553F6B3E]
Трек 10 точное извлечение (доверие 1) [33BACB0B]
Трек 11 точное извлечение (доверие 1) [9D95BF32]
Трек 12 точное извлечение (доверие 1) [C0732424]
Трек 13 точность не определена (достоверность 1) [3F81D849], AccurateRip вернул [04F25D09]

12 трек(и) скопированы точно
1 трек(и) не удалось проверить на точность

Некоторые треки не прошли проверку на точность

Конец отчёта


2001 - Старые Песни о Главном. Постскриптум, 01

01. Алла Пугачева - Голубка
02. Николай Носков - Полет на дельтаплане
03. Филип Киркоров - Livin` La Vida Loca
04. Кристина Орбакайте, Марина Хлебникова, Игорь Николаев, Дмитрий Маликов - Dancing Queen
05. Лайма Вайкуле - Эй, моряк!
06. Ввалерий Меладзе - Свадьба
07. Татьяна Буланова - Padam, Padam
08. Александр Буйнов - Let my people go (Go down mouses)
09. Максим Леонидов - Blue suede shoes
10. Мумий Тролль - Twist and shout
11. Валерия - Город детства
12. Лариса Долина - I Will Always Love You
13. Валерий Леонтьев - Une Vie D`Amour
14. Леонид Агутин - Шаланды
15. Николай Фоменко - Белеет мой парус
16. Владимир Кузьмин - Королева красоты
17. Иванушки International - Последняя электричка
18. Наташа Королева и Александр Цекало - Ты Ж Мене Пидманула
19. Олег Газманов и Лолита - Felicita
20. Людмила Гурченко - Хочешь?
21. Анжелика Варум - I Wanna Be Loved By You
Отчет ЕАС
Exact Audio Copy V0.99 prebeta 5 from 4. May 2009
Отчёт EAC об извлечении, выполненном 8. августа 2012, 22:46

various / Старые песни о главном. Постскриптум.

Дисковод: Optiarc DVD RW AD-5170A Adapter: 0 ID: 0

Режим чтения : Достоверность
Использование точного потока : Да
Отключение кэша аудио : Да
Использование указателей C2 : Нет

Коррекция смещения при чтении : 48
Способность читать области Lead-in и Lead-out : Нет
Заполнение пропущенных сэмплов тишиной : Да
Удаление блоков с тишиной в начале и конце : Нет
При вычислениях CRC использовались нулевые сэмплы : Да
Интерфейс : Встроенный Win32-интерфейс для Win NT/2000

Выходной формат : Внутренние WAV-операции
Формат сэмплов : 44.100 Гц; 16 бит; стерео

TOC извлечённого CD

Трек | Старт | Длительность | Начальный сектор | Конечный сектор
---------------------------------------------------------------------
1 | 0:00.00 | 4:25.00 | 0 | 19874
2 | 4:25.00 | 3:49.00 | 19875 | 37049
3 | 8:14.00 | 3:29.00 | 37050 | 52724
4 | 11:43.00 | 3:52.00 | 52725 | 70124
5 | 15:35.00 | 2:57.00 | 70125 | 83399
6 | 18:32.00 | 3:10.00 | 83400 | 97649
7 | 21:42.00 | 3:24.00 | 97650 | 112949
8 | 25:06.00 | 3:27.00 | 112950 | 128474
9 | 28:33.00 | 2:33.00 | 128475 | 139949
10 | 31:06.00 | 2:13.00 | 139950 | 149924
11 | 33:19.00 | 4:02.00 | 149925 | 168074
12 | 37:21.00 | 3:33.00 | 168075 | 184049
13 | 40:54.00 | 3:17.00 | 184050 | 198824
14 | 44:11.00 | 3:23.00 | 198825 | 214049
15 | 47:34.00 | 3:04.00 | 214050 | 227849
16 | 50:38.00 | 2:13.00 | 227850 | 237824
17 | 52:51.00 | 3:08.00 | 237825 | 251924
18 | 55:59.00 | 2:38.00 | 251925 | 263774
19 | 58:37.00 | 3:49.00 | 263775 | 280949
20 | 62:26.00 | 3:19.00 | 280950 | 295874
21 | 65:45.00 | 2:05.00 | 295875 | 305249

Характеристики диапазона извлечения и сообщения об ошибках

Выбранный диапазон

Имя файла C:UsersВаняDocumentsVarious - Старые песни о главном. Постскриптум.wav

Пиковый уровень 100.0 %
Качество диапазона 99.9 %
CRC теста D710A763
CRC копии D710A763
Копирование... OK

Ошибок не произошло

AccurateRip: сводка

Трек 1 точность не определена (достоверность 2) [96B059D2], AccurateRip вернул [7FF3F50A]
Трек 2 точность не определена (достоверность 2) [12CE278D], AccurateRip вернул [3DDA9747]
Трек 3 точность не определена (достоверность 2) [1955AC44], AccurateRip вернул [24F90AA2]
Трек 4 точность не определена (достоверность 2) [C7B3B495], AccurateRip вернул [931EACBD]
Трек 5 точность не определена (достоверность 2) [68C59E4C], AccurateRip вернул [9E5220F0]
Трек 6 точность не определена (достоверность 2) [A6B9D713], AccurateRip вернул [5CCADA1F]
Трек 7 точность не определена (достоверность 2) [012D6949], AccurateRip вернул [CB8E3323]
Трек 8 точность не определена (достоверность 2) [6D759559], AccurateRip вернул [2FD76F4D]
Трек 9 точность не определена (достоверность 2) [1ADF05DF], AccurateRip вернул [EB547DDD]
Трек 10 точность не определена (достоверность 2) [CBD96F34], AccurateRip вернул [C3AD5FF0]
Трек 11 точность не определена (достоверность 2) [2A9BEA4E], AccurateRip вернул [92665EF8]
Трек 12 точность не определена (достоверность 2) [5603832F], AccurateRip вернул [5A6176D3]
Трек 13 точность не определена (достоверность 2) [0C4B80ED], AccurateRip вернул [48F15159]
Трек 14 точность не определена (достоверность 2) [8FA287B9], AccurateRip вернул [AE63EEFF]
Трек 15 точность не определена (достоверность 2) [21F456AE], AccurateRip вернул [91106112]
Трек 16 точность не определена (достоверность 2) [3DC59010], AccurateRip вернул [C873AA62]
Трек 17 точность не определена (достоверность 2) [2C0EB1B3], AccurateRip вернул [E76CD15D]
Трек 18 точность не определена (достоверность 2) [1A127D84], AccurateRip вернул [D87A1398]
Трек 19 точность не определена (достоверность 2) [D20F1247], AccurateRip вернул [C85AC00B]
Трек 20 нет в базе данных
Трек 21 нет в базе данных

19 трек(и) не удалось проверить на точность
2 трек(и) не содержатся в базе AccurateRip

Ни один трек не прошёл проверки на точность
В вашей базе может быть иной вариант штамповки диска
Конец отчёта
Музыка / Lossless / Дискографии (Поп музыка)
СКАЧАТЬ БЕСПЛАТНО  [2.9 GB]


02
апр
2008

VA - Старые песни о главном (Дмитрий Фикс) [1995, Музыкальный, DVDRip]

Страна: Россия
Режиссер: Дмитрий Фикс
Жанр: Музыкальный
Продолжительность: 90 мин.
Год выпуска: 1995
Перевод: Не требуется
В ролях: Олег Газманов, Николай Фоменко, Лариса Долина, Алена Апина, Бари Алибасов, Леонид Агутин, Лада Дэнс, Филипп Киркоров, Наташа Королева, Лев Лещенко, Андрей Макаревич, Александр Малинин, Сергей Мазаев, Кристина Орбакайте, Ирина Отиева, Владимир Пресняков Мл, Николай Расторгуев, Виктор Рыбин, Гарик Сукачев, Алена Свиридова, Анжелика Варум, Леонид Якубович
Описание: В веселом новогоднем фильме звучат старые, любимые песни в новом исполнении популярных эстрадных артист ...

06
дек
2007

Старые песни о главном 2 (Джаник Файзиев) [1997, Мьюзикл, DVDRip]

Страна: Россия
Режиссер: Джаник Файзиев
Жанр: Мьюзикл
Продолжительность: 01:44:13
Год выпуска: 1997
Перевод: Отсутствует
В ролях: Филипп Киркоров, Лариса Долина, Валерий Меладзе, Леонид Агутин, Алла Пугачеваи многие другие
Описание: Со времен ударного колхоза из первой серии `Старых песен о главном` прошло 20 лет. Герои фильма переселились в город, лето сменилось зимой. На календаре - 31 декабря, самое время начинать рассказывать новогоднюю сказку. Итак, в нашей стране в 196 - каком- то году в одном дворе жили - были хорошие, веселые люди и пели `Старые песни о главном 2`.
Качество: DVDRip Фор ...

07
фев
2009

VA - Старые Песни о Главном [2009, Popmusic,MP3]

Формат: MP3, tracks, 256kbps
Год выпуска: 2009
Страна: Россия
Жанр: Pop
Продолжительность: 01:17:51
Трэклист: 01. Иосиф Кобзон и Лариса Долина – А снег идёт 02. Лев Лещенко – Чёртово колесо 03. Татьяна Буланова – От зари до зари 04. БиС – Комарово 05. Жасмин – Журчат ручьи 06. Владимир Пресняков – Для меня нет тебя прекрасней 07. Потап и Настя – Вечером на лавочке 08. Вячеслав Добрынин – Бабушки-старушки 09. Зара – Робот 10. Борис Моисеев и гр. Ассорти – Кукарача 11. Виктория Дайнеко – Маленький принц 12. Чай вдвоем – Возвращайся 13. Маша Распутина – Балалайка 14. Фабрика – Облако волос 15. Н ...

03
ноя
2008

Старые песни о главном 3 (Василий Пичул) [1998, мюзикл]

Формат: DVDRip, AVI, DivX, AC3
Режиссер: Василий Пичул
Жанр: мюзикл
Продолжительность: 02:01:14
Год выпуска: 1998
В ролях: Юрий Яковлев, Александр Демьяненко, Наталья Крачковская, Леонид Куравлёв, Наталья Селезнёва, Михаил Пуговкин, Алла Пугачёва, Чулпан Хаматова, Леонид Агутин, Бари Алибасов и др.
Описание: Замрите перед голубыми экранами своих телевизоров, на дворе семидесятые. Ностальгическое сплетение горячо любимых фильмов того времени и нежной песни, которая близка нашему сердцу...
Треклист: 01. Иванушки International - Алешкина любовь 02. Валерий Леонтьев - Hafanana 03. Леонид Агутин - ...

19
сен
2009

Старые песни о главном - 2 [1997, Pop, DVDRip]

Формат: DVDRip, AVI, DivX, MP3
Страна: Россия
Режиссер: Джахонгир (Джаник) Файзиев, Андрей Кнышев
Жанр: мюзикл
Продолжительность: 02:03:02
Год выпуска: 1997
Видео: 1.24 GB, 1452 Kbps, 25.0 fps, разрешение 704*544 (4:3), DX50 = DivXNetworks Divx v5
Аудио: 112 MB, 128 Kbps, 48000 Hz, 2 каналов, 0x55 = MPEG Layer-3,
Описание: Со времен ударного колхоза из первой серии "Старых песен о главном" прошло 20 лет. Герои фильма переселились в город, лето сменилось зимой. На календаре — 31 декабря, самое время начинать рассказывать новогоднюю сказку. Итак, в нашей стране в 196... каком-то году в одном д ...

07
фев
2009

Старые песни о главном Новогодний концерт[2009, Ретро]

Формат: SATRip, AVI, XviD, MP3
Исполнитель: Старые песни о главном
Жанр: Ретро
Продолжительность: 02:38:02
Год выпуска: 2009
Видео: Xvid 640x368 25.00fps 1190Kbps
Аудио: MPEG Audio Layer 3 48000Hz stereo 128Kbps
Описание: Старые песни о главном" - фестиваль любимых песен, которые были исполнены самыми популярными и любимыми артистами. Ведущими этого грандиозного концерта стали Народные артисты России Лариса Долина и Иосиф Кобзон. Не всегда находится время оторваться от работы и домашних дел и утроить себе праздник, отправившись на концерт любимых исполнителей. Особенно обидно пропустить яркое ...

12
июл
2009

VA - 1000% Старые песни о главном [2009, Рорmusic,MP3]

Формат: MP3, tracks, 192kbps
Год выпуска: 2009
Страна: Россия
Жанр: Рор
Продолжительность: 05:47:57
Трэклист: 1000% - Старые песни о главном 001. Песня о шофере 002. Бежит река 003. Ты ждешь, Лизавета 004. Хорошие девчата 005. Каким ты был 006. Куплеты Курочкина 007. На крылечке 008. Милого узнаю по походке 009. Нас извлекут из-под обломков 010. Лейся песня на просторе 011. На побывку едет молодой моряк 012. Червона рута 013. Спят курганы темные 014. Одинокая гармонь 015. Я встретил девушку 016. Мы, друзья, перелетные птицы 017. Вот кто-то с горочки спустился 018. Почему ты мне не встретилась ...

19
сен
2015

VA - Старые песни о главном - 1 [1995, Pop, HDTVRip 720p]

Формат: HDTVRip, MKV, H.264, AC3
Песня: Старые песни о главном 1
Жанр: Pop
Продолжительность: 01:29:13
Год выпуска: 1995
Видео: 1280x720p (16:9), 25,000 fps, MPEG4 AVC (x264), High@L4.1 ~6500 Kbps avg, 0.282 bit/pixel
Аудио: 48 kHz, AC3, 4 ch ~ 448 Kbps
Дополнительная информация: Треклист 01. Начало 02. Наташа Королёва, Алёна Апина, Лада Дэнс "Вот кто-то с горочки спустился" 03. Лев Лещенко "Почему ты мне не встретилась..." 04. Алёна Апина, Лада Дэнс "На побывку едет молодой моряк" 05. Филипп Киркоров "Я встретил девушку" 06. Ирина Отиева, Лариса Долина "Хорошие девчата" 07. Леонид Аг ...

20
сен
2015

VA - Старые песни о главном - 2 [1996, Pop, HDTVRip 720p]

Формат: HDTVRip, MKV, H.264, AC3
Песня: Старые песни о главном - 2
Жанр: Pop
Продолжительность: 01:35:52
Год выпуска: 1996
Видео: 1280x720p (16:9), 25,000 fps, MPEG4 AVC (x264), High@L4.1 ~6500 Kbps avg, 0.282 bit/pixel
Аудио: 48 kHz, AC3, 6 ch ~ 640 Kbps
Дополнительная информация: Треклист 01. Начало 02. В.Сюткин - Как провожают пароходы 03. Л.Долина - Стоят девчонки 04. И.Аллегрова - Белый свет 05. В.Меладзе - Ямайка 06. А.Макаревич - Люблю я макароны 07. В.Пресняков - Течёт река Волга 08. А.Малинин - Лада 09. Т.Буланова - Нежность 10. Л.Агутин - Каникулы любви 11. Д.Маликов и ...

19
апр
2010

VA - Золотая коллекция. Старые песни о главном [2009, Pop, MP3]

Формат: MP3, tracks, 256kbps
Год выпуска: 2009
Страна: Россия
Жанр: Pop
Продолжительность: 05:47:23
Треклист: CD-1, 00 01. Л.Агутин - Песня о шофёре 02. К.Арбакайте - Бежит река 03. А.Малинин - Ты ждёшь, Лизавета 04. И.Отиева и Л.Долина - Хорошие девчата 05. С.Ротару - Каким ты был 06. О.Газманов - Куплеты Курочкина 07. В.Пресняков - На крылечке 08. Г.Сукачев - Милого узнаю по походке 09. Н.Фоменко, В.Рыбин, С.Мазаев - Нас извлекут из-под обломков 10. А.Макаревич - Лейся песня на просторе 11. А.Апина и Л.Дэнс - На побывку едет молодой моряк 12. Б.Титомир - Червона рута 13. Н.Расторгуев - Спят ...

03
дек
2017

VA - Старые песни о главном - 1-2 [1995-1996, Pop, HDTVRip]

Формат: HDTVRip, AVI, XviD, AC3
Песня: Старые песни о главном - 1-2
Жанр: Pop
Продолжительность: 01:35:52
Год выпуска: 1995-1996
Видео: 720x400 (1.80:1), 25 fps, XviD build 63 ~1753 Kbps avg, 0.24 bit/pixel
Аудио: 48 kHz, AC3, 6 ch ~ 384 Kbps
Дополнительная информация: Треклист old-songs_about_the_main_01_[tfile.ru] 01. Начало 02. Наташа Королёва, Алёна Апина, Лада Дэнс "Вот кто-то с горочки спустился" 03. Лев Лещенко "Почему ты мне не встретилась..." 04. Алёна Апина, Лада Дэнс "На побывку едет молодой моряк" 05. Филипп Киркоров "Я встретил девушку" 06. Ирина Отиева, Лариса Долина " ...

30
авг
2012

VA-Старые Песни о Главном. Полная коллекция [2012, Pop, MP3]

Формат: MP3, tracks, 320kbps
Год выпуска: 2012
Страна: Россия
Жанр: Pop
Продолжительность: 04:03:21
Описание: Треклист 01. Леонид Агутин - Песня о шофёре 02. Кристина Орбакайте - Бежит река 03. Александр Малинин - Ты ждёшь, Лизавета 04. Ирина Отиева, Лариса Долина - Хорошие девчата 05. София Ротару - Каким ты был 06. Олег Газманов - Куплеты Курочкина 07. Владимир Пресняков - На крылечке 08. Гарик Сукачёв - Милого узнаю по походке 09. Николай Фоменко, Виктор Рыбин, Сергей Мазаев - Нас извлекут из-под обломков 10. Андрей Макаревич - Лейся песня на просторе 11. Алена Апина, Лада Дэнс - На побывк ...

19
фев
2018

Старые песни о главном 1 от ALEXnROCK [1996, Pop, DVDRip] 720р

Формат: DVDRip, MKV, H.264, PCM
Песня: Старые песни о главном 1
Жанр: Pop
Продолжительность: 01:29:30
Год выпуска: 1996
Видео: 1280x720 (16x9) 25 fps (High@L4) 4000kbps 0.174bit.pixel Аудио 1: PCM 2.0, 48KHz, 1536kbps Аудио 2: Ac3 448kbps 5.1 48000HZ Аудио 3: Mp3 48000KHz, 2 ch, 320 Kbps
Доп. информация: Самый клевый мюзикл. Видео прошло 32х часовую реставрационную обработку. Добавил 2 звуковые дороги с CD звуком. Да пребудет с нами качественная музыка! Все лучшее для вас. ALEXnROCK Ремастеринг видео, звук CD Треклист 1. Песня о шофере - Леонид АГУТИН 2. Бежит река - К.ОРБАКАЙТЕ 3. Ты ждешь, ...

12
мар
2018

VA - Старые песни о главном 2 от ALEXnROCK [1997, Pop, DVDRip] 720р

Формат: DVDRip, MKV, H.264, PCM
Песня: VA - Старые песни о главном 2
Жанр: Pop
Продолжительность: 01:44:15
Год выпуска: 1997
Видео: 1280x720 (16x9) 25 fps (High@L4) 4000kbps
Аудио: PCM 2.0, 48KHz, 1536kbps
Аудио: Ac3 448kbps 5.1 48000HZ
Аудио: Mp3 48000KHz, 2 ch, 320 Kbps
Доп. информация: Самый клевый мюзикл. Это 2я часть. Видео прошло 39ти часовую реставрационную обработку. Добавил 2 звуковые дороги с CD звуком. Да пребудет с нами качественная музыка! Все лучшее для вас. ALEXnROCK Ремастеринг видео, звук CD Треклист 01. Валерий Сюткин - "Как провожают пароходы" (А.Островский - К.Ваншенкин) ...

17
янв
2014

Сборник - Пьяные песни о главном [2007, Шансон, Поп, MP3]

Формат: MP3, tracks, 320kbps
Год выпуска: 2007
Страна: Россия
Жанр: Шансон, Поп
Продолжительность: 23:56:52
Описание: Треклист001. Верка Сердючка - Сама себе 002. В.КРЕСТНЫЙ - НА ПОСОШОК 003. Родня - Кума 004. СЕРГЕЙ СЕВЕР - ПАЦАНЫ - ПАЦАНЧИКИ 005. В.Егошин - Частушки 006. АЛЯБИН ОЛЕГ - ЧЕРЕШНЯ 007. Анна Сизова - Семицветик 008. М.КРУГ - ПУСТИ МЕНЯ, МАМА (НОВАЯ ВЕРСИЯ) 009. Н.Попова - Частушки 010. АНДРЕЙ БАНДЕРА - КЛЕН 011. ПЯТИЛЕТКА - ЦЫГАНОЧКА 012. Анютыны Глазки - Сеновал 013. Дележанс - Мясоедовская 014. Г.ЖАРОВ - СНЫ 015. Бизюлька - Рачок 016. ЛЕСОПОВАЛ - МОЛОДОСТЬ 017. Дележанс - Тёща 0 ...