03
фев
2015

Savage Garden - Дискография [1997 - 2005, Pop, Soft Rock, FLAC]

Savage Garden - Дискография
Формат: FLAC, (image + .cue), lossless
Год выпуска: 1997 - 2005
Страна: Австралия
Жанр: Pop, Soft Rock
Продолжительность: 04:19:07
Описание:

1997 Savage Garden 01

CD 1 00

01. To The Moon And Back 05:41
02. Carry On Dancing 03:44
03. Tears Of Pearls 03:46
04. I Want You 03:52
05. Truly Madly Deeply 04:37
06. Violet 04:03
07. All Around Me 04:10
08. Universe 04:20
09. A Thousand Words 03:59
10. Break Me Shake Me 03:23
11. Mine 04:30
12. Santa Monica 03:33
EAC
Exact Audio Copy V1.0 beta 3 from 29. August 2011

Отчёт EAC об извлечении, выполненном 1. февраля 2015, 17:32

Savage Garden / Savage Garden

Дисковод: TSSTcorpCDDVDW SH-222AB Adapter: 0 ID: 0

Режим чтения : Достоверность
Использование точного потока : Да
Отключение кэша аудио : Нет
Использование указателей C2 : Нет

Коррекция смещения при чтении : 6
Способность читать области Lead-in и Lead-out : Нет
Заполнение пропущенных сэмплов тишиной : Да
Удаление блоков с тишиной в начале и конце : Нет
При вычислениях CRC использовались нулевые сэмплы : Да
Интерфейс : Встроенный Win32-интерфейс для Win NT/2000

Выходной формат : Пользовательский кодировщик
Выбранный битрейт : 512 kBit/s
Качество : Высокий
Добавление ID3-тега : Нет
Утилита сжатия : C:Program Files (x86)Exact Audio CopyFLACFLAC.EXE
Дополнительные параметры : -V -8 -T "Date=%year%" -T "Genre=%genre%" %source%

TOC извлечённого CD

Трек | Старт | Длительность | Начальный сектор | Конечный сектор
---------------------------------------------------------------------
1 | 0:00.00 | 5:41.17 | 0 | 25591
2 | 5:41.17 | 3:44.58 | 25592 | 42449
3 | 9:26.00 | 3:46.40 | 42450 | 59439
4 | 13:12.40 | 3:52.00 | 59440 | 76839
5 | 17:04.40 | 4:37.45 | 76840 | 97659
6 | 21:42.10 | 4:03.55 | 97660 | 115939
7 | 25:45.65 | 4:10.67 | 115940 | 134756
8 | 29:56.57 | 4:20.03 | 134757 | 154259
9 | 34:16.60 | 3:59.60 | 154260 | 172244
10 | 38:16.45 | 3:23.05 | 172245 | 187474
11 | 41:39.50 | 4:30.00 | 187475 | 207724
12 | 46:09.50 | 3:34.00 | 207725 | 223774

Характеристики диапазона извлечения и сообщения об ошибках

Выбранный диапазон

Имя файла C:UsersshuraviMusicSavage Garden1997 Savage GardenCD 1Savage Garden - Savage Garden.wav

Пиковый уровень 100.0 %
Скорость извлечения 9.1 X
Качество диапазона 99.9 %
CRC теста 57E406E2
CRC копии 57E406E2
Копирование... OK

Ошибок не произошло

AccurateRip: сводка

Трек 1 извлечено точно (доверие 6) [C7AAC1C1] (AR v2)
Трек 2 извлечено точно (доверие 6) [BCB74E1C] (AR v2)
Трек 3 извлечено точно (доверие 6) (AR v2)
Трек 4 извлечено точно (доверие 6) [762CD560] (AR v2)
Трек 5 извлечено точно (доверие 6) [FCF94727] (AR v2)
Трек 6 извлечено точно (доверие 6) [15C482A1] (AR v2)
Трек 7 извлечено точно (доверие 6) [A15FA118] (AR v2)
Трек 8 извлечено точно (доверие 6) [BB609C9B] (AR v2)
Трек 9 извлечено точно (доверие 6) [77F92CC8] (AR v2)
Трек 10 извлечено точно (доверие 6) [D20BA020] (AR v2)
Трек 11 извлечено точно (доверие 6) [05009259] (AR v2)
Трек 12 извлечено точно (доверие 6) [9CB94764] (AR v2)

Все треки извлечены точно

Конец отчёта


Bonus Disk 01

01. I Want You [Xenomania Funxy Mix] 05:52
02. Break Me Shake Me [Broken Mix] 04:18
03. Santa Monica [Bittersweet Mix] 05:00
04. Tears Of Pearls [Tears On The Dancefloor Mix] 05:25
05. Carry On Dancing [Ultra Violet Mix] 06:47
06. All Around Me [Hardcore Catwalk Mix] 06:07
07. I Want You [Getmeouttathisclub Mix] 07:58
08. I Want You [Xenomania 12' Club Mix] 05:52
09. To The Moon And Back [Hani's Num Club Mix] 09:16
10. To The Moon And Back [Hani's Num Dub Mix] 05:15
11. To The Moon And Back [A Journey Through Space And Time] 05:04

EAC
Exact Audio Copy V1.0 beta 3 from 29. August 2011

Отчёт EAC об извлечении, выполненном 1. февраля 2015, 18:05

Savage Garden / Bonus Remix Album

Дисковод: TSSTcorpCDDVDW SH-222AB Adapter: 0 ID: 0

Режим чтения : Достоверность
Использование точного потока : Да
Отключение кэша аудио : Нет
Использование указателей C2 : Нет

Коррекция смещения при чтении : 6
Способность читать области Lead-in и Lead-out : Нет
Заполнение пропущенных сэмплов тишиной : Да
Удаление блоков с тишиной в начале и конце : Нет
При вычислениях CRC использовались нулевые сэмплы : Да
Интерфейс : Встроенный Win32-интерфейс для Win NT/2000

Выходной формат : Пользовательский кодировщик
Выбранный битрейт : 512 kBit/s
Качество : Высокий
Добавление ID3-тега : Нет
Утилита сжатия : C:Program Files (x86)Exact Audio CopyFLACFLAC.EXE
Дополнительные параметры : -V -8 -T "Date=%year%" -T "Genre=%genre%" %source%

TOC извлечённого CD

Трек | Старт | Длительность | Начальный сектор | Конечный сектор
---------------------------------------------------------------------
1 | 0:00.00 | 5:52.07 | 0 | 26406
2 | 5:52.07 | 4:18.13 | 26407 | 45769
3 | 10:10.20 | 5:00.47 | 45770 | 68316
4 | 15:10.67 | 5:25.18 | 68317 | 92709
5 | 20:36.10 | 6:47.12 | 92710 | 123246
6 | 27:23.22 | 6:07.58 | 123247 | 150829
7 | 33:31.05 | 7:58.05 | 150830 | 186684
8 | 41:29.10 | 5:52.17 | 186685 | 213101
9 | 47:21.27 | 9:16.43 | 213102 | 254844
10 | 56:37.70 | 5:15.20 | 254845 | 278489
11 | 61:53.15 | 5:04.35 | 278490 | 301324

Характеристики диапазона извлечения и сообщения об ошибках

Выбранный диапазон

Имя файла C:UsersshuraviMusicSavage Garden1997 Savage GardenCD 2Savage Garden - Bonus Remix Album.wav

Пиковый уровень 100.0 %
Скорость извлечения 5.1 X
Качество диапазона 100.0 %
CRC теста D64601F5
CRC копии D64601F5
Копирование... OK

Ошибок не произошло

AccurateRip: сводка

Трек 1 точное извлечение (доверие 3) [410DBAC0] (AR v2)
Трек 2 точное извлечение (доверие 3) [DFDB44D2] (AR v2)
Трек 3 точное извлечение (доверие 3) [BEAFBA5D] (AR v2)
Трек 4 точное извлечение (доверие 3) [F4D2B4ED] (AR v2)
Трек 5 точное извлечение (доверие 3) [6EB08C1A] (AR v2)
Трек 6 точное извлечение (доверие 3) [80D777E1] (AR v2)
Трек 7 точное извлечение (доверие 3) [D36888C2] (AR v2)
Трек 8 точное извлечение (доверие 3) [6612905A] (AR v2)
Трек 9 точное извлечение (доверие 3) [ADF28A20] (AR v2)
Трек 10 точное извлечение (доверие 3) [A528E7E0] (AR v2)
Трек 11 точное извлечение (доверие 3) (AR v2)

Все треки извлечены точно

Конец отчёта


1999 Affirmation 01


01. Affirmation 04:56
02. Hold Me 04:51
03. I Knew I Loved You 04:12
04. The Best Thing 04:19
05. Crash And Burn 04:41
06. Chained To You 04:08
07. The Animal Song 04:40
08. The Lover After Me 04:50
09. Two Beds And A Coffee Machine 03:28
10. You Can Still Be Free 04:18
11. Gunning Down Romance 05:32
12. I Don't Know You Anymore 03:52
13. The Animal Song [Hex Hector Club Mix] [Bonus Track] 09:53

EAC
Exact Audio Copy V1.0 beta 3 from 29. August 2011

Отчёт EAC об извлечении, выполненном 1. февраля 2015, 18:34

Savage Garden / Affirmation

Дисковод: TSSTcorpCDDVDW SH-222AB Adapter: 0 ID: 0

Режим чтения : Достоверность
Использование точного потока : Да
Отключение кэша аудио : Нет
Использование указателей C2 : Нет

Коррекция смещения при чтении : 6
Способность читать области Lead-in и Lead-out : Нет
Заполнение пропущенных сэмплов тишиной : Да
Удаление блоков с тишиной в начале и конце : Нет
При вычислениях CRC использовались нулевые сэмплы : Да
Интерфейс : Встроенный Win32-интерфейс для Win NT/2000

Выходной формат : Пользовательский кодировщик
Выбранный битрейт : 512 kBit/s
Качество : Высокий
Добавление ID3-тега : Нет
Утилита сжатия : C:Program Files (x86)Exact Audio CopyFLACFLAC.EXE
Дополнительные параметры : -V -8 -T "Date=%year%" -T "Genre=%genre%" %source%

TOC извлечённого CD

Трек | Старт | Длительность | Начальный сектор | Конечный сектор
---------------------------------------------------------------------
1 | 0:00.00 | 4:56.74 | 0 | 22273
2 | 4:56.74 | 4:51.74 | 22274 | 44172
3 | 9:48.73 | 4:12.00 | 44173 | 63072
4 | 14:00.73 | 4:19.74 | 63073 | 82571
5 | 18:20.72 | 4:41.73 | 82572 | 103719
6 | 23:02.70 | 4:08.74 | 103720 | 122393
7 | 27:11.69 | 4:40.00 | 122394 | 143393
8 | 31:51.69 | 4:50.74 | 143394 | 165217
9 | 36:42.68 | 3:28.00 | 165218 | 180817
10 | 40:10.68 | 4:18.73 | 180818 | 200240
11 | 44:29.66 | 5:32.73 | 200241 | 225213
12 | 50:02.64 | 3:52.00 | 225214 | 242613
13 | 53:54.64 | 9:53.72 | 242614 | 287160

Характеристики диапазона извлечения и сообщения об ошибках

Выбранный диапазон

Имя файла C:UsersshuraviMusicSavage Garden1999 AffirmationSavage Garden - Affirmation.wav

Пиковый уровень 98.8 %
Скорость извлечения 5.0 X
Качество диапазона 100.0 %
CRC теста 027ADD62
CRC копии 027ADD62
Копирование... OK

Ошибок не произошло

AccurateRip: сводка

Трек 1 точное извлечение (доверие 3) [D967C34F] (AR v2)
Трек 2 точное извлечение (доверие 3) [2AC4BE18] (AR v2)
Трек 3 точное извлечение (доверие 3) [64ABC633] (AR v2)
Трек 4 точное извлечение (доверие 3) [3CFE15E4] (AR v2)
Трек 5 точное извлечение (доверие 3) [84458364] (AR v2)
Трек 6 точное извлечение (доверие 3) [CA32499E] (AR v2)
Трек 7 точное извлечение (доверие 3) [0EE61B59] (AR v2)
Трек 8 точное извлечение (доверие 3) [4D48A1E8] (AR v2)
Трек 9 точное извлечение (доверие 3) [6C26EE60] (AR v2)
Трек 10 точное извлечение (доверие 3) [C1882086] (AR v2)
Трек 11 точное извлечение (доверие 3) [5A06A996] (AR v2)
Трек 12 точное извлечение (доверие 3) (AR v2)
Трек 13 точное извлечение (доверие 3) [8DE4F135] (AR v2)

Все треки извлечены точно

Конец отчёта


2005 Truly Madly Completely


01. I Want You 3:54
02. I Knew I Loved You 4:11
03. To The Moon And Back 5:42
04. Hold Me 4:53
05. Santa Monica 3:37
06. Crash And Burn 4:43
07. Break Me Shake Me 3:26
08. Truly Madly Deeply 4:39
09. The Animal Song 4:39
10. Affirmation 4:58
11. So Beautiful 4:59
12. Canifornia 6:00
13. I Don't Care 5:06
14. I'll Bet He Was Cool 4:42
15. Love Can Move You 4:47
16. Fire Inside The Man 4:11
17. This Side Of Me 4:12

EAC
Exact Audio Copy V1.0 beta 3 from 29. August 2011

Отчёт EAC об извлечении, выполненном 1. февраля 2015, 20:47

Savage Garden / Truly Madly Completely: The Best of Savage Garden

Дисковод: TSSTcorpCDDVDW SH-222AB Adapter: 0 ID: 0

Режим чтения : Достоверность
Использование точного потока : Да
Отключение кэша аудио : Нет
Использование указателей C2 : Нет

Коррекция смещения при чтении : 6
Способность читать области Lead-in и Lead-out : Нет
Заполнение пропущенных сэмплов тишиной : Да
Удаление блоков с тишиной в начале и конце : Нет
При вычислениях CRC использовались нулевые сэмплы : Да
Интерфейс : Встроенный Win32-интерфейс для Win NT/2000

Выходной формат : Пользовательский кодировщик
Выбранный битрейт : 512 kBit/s
Качество : Высокий
Добавление ID3-тега : Нет
Утилита сжатия : C:Program Files (x86)Exact Audio CopyFLACFLAC.EXE
Дополнительные параметры : -V -8 -T "Date=%year%" -T "Genre=%genre%" %source%

TOC извлечённого CD

Трек | Старт | Длительность | Начальный сектор | Конечный сектор
---------------------------------------------------------------------
1 | 0:00.00 | 3:53.67 | 0 | 17541
2 | 3:53.67 | 4:11.19 | 17542 | 36385
3 | 8:05.11 | 5:42.30 | 36386 | 62065
4 | 13:47.41 | 4:52.41 | 62066 | 84006
5 | 18:40.07 | 3:36.64 | 84007 | 100270
6 | 22:16.71 | 4:42.54 | 100271 | 121474
7 | 26:59.50 | 3:25.64 | 121475 | 136913
8 | 30:25.39 | 4:39.30 | 136914 | 157868
9 | 35:04.69 | 4:39.37 | 157869 | 178830
10 | 39:44.31 | 4:58.08 | 178831 | 201188
11 | 44:42.39 | 4:58.54 | 201189 | 223592
12 | 49:41.18 | 6:00.37 | 223593 | 250629
13 | 55:41.55 | 5:05.65 | 250630 | 273569
14 | 60:47.45 | 4:41.43 | 273570 | 294687
15 | 65:29.13 | 4:47.30 | 294688 | 316242
16 | 70:16.43 | 4:11.24 | 316243 | 335091
17 | 74:27.67 | 4:11.44 | 335092 | 353960

Характеристики диапазона извлечения и сообщения об ошибках

Выбранный диапазон

Имя файла C:UsersshuraviMusicSavage Garden2005 Truly Madly Completely The Best of Savage GardenSavage Garden - Truly Madly Completely- The Best of Savage Garden.wav

Пиковый уровень 100.0 %
Скорость извлечения 9.0 X
Качество диапазона 97.3 %
CRC теста B9BD51C2
CRC копии B9BD51C2
Копирование...OK

Ошибок не произошло

AccurateRip: сводка

Трек 1 точное извлечение (доверие 16) [CC328AAE] (AR v2)
Трек 2 точное извлечение (доверие 16) [4897DA43] (AR v2)
Трек 3 точное извлечение (доверие 16) [076C7FAF] (AR v2)
Трек 4 точное извлечение (доверие 16) [4B2F9C5A] (AR v2)
Трек 5 точное извлечение (доверие 16) [47EB2AAA] (AR v2)
Трек 6 точное извлечение (доверие 16) (AR v2)
Трек 7 точное извлечение (доверие 16) (AR v2)
Трек 8 точное извлечение (доверие 16) [2871AEFF] (AR v2)
Трек 9 точное извлечение (доверие 16) [C4FCDF44] (AR v2)
Трек 10 точное извлечение (доверие 16) [99E7B399] (AR v2)
Трек 11 точное извлечение (доверие 16) [6D05C235] (AR v2)
Трек 12 точное извлечение (доверие 16) [A64A6F0E] (AR v2)
Трек 13 точное извлечение (доверие 16) [0D2BEEB4] (AR v2)
Трек 14 точное извлечение (доверие 16) [A9BDB2CB] (AR v2)
Трек 15 точное извлечение (доверие 16) [63CF4A54] (AR v2)
Трек 16 точное извлечение (доверие 16) [9A7B5804] (AR v2)
Трек 17 точное извлечение (доверие 16) [FE488AD2] (AR v2)

Все треки извлечены точно

Конец отчёта


Доп. информация:
Википедия
Музыка / Lossless / Дискографии (Поп музыка)
СКАЧАТЬ БЕСПЛАТНО  [1.8 GB]


17
июл
2013

Savage Garden - Truly Madly Completely: The Best Of Savage Garden [2005, Рор, MP3]

Формат: MP3, tracks, 320kbps
Год выпуска: 2005
Страна: Австралия
Жанр: Рор
Продолжительность: 01:18:44
Описание: 01. I Want You 02. I Knew I Loved You 03. To The Moon And Back 04. Hold Me 05. Santa Monica 06. Crash & Burn 07. Break Me Shake Me 08. Truly Madly Deeply 09. The Animal Song 10. Affirmation 11. So Beautiful 12. California 13. I Don't Care 14. I'll Bet He Was Cool 15. Love Can Move You 16. Fire Inside The Man 17. This Side Of Me
Доп. информация: Savage Garden — австралийский дуэт, основанный в 1994 г. и пользовавшийся всемирной популярностью в 1997-2000 годах. Основателями являются ...

24
авг
2007

Savage Garden - The Best [2002,Popmusic,MP3]

Страна: CША
Год выпуска: 2002
Жанр: pop
Продолжительность: 2.18.56
Формат: MP3
Битрейт аудио: 192 кб/с Трэклист 01_To_The_Moon_And_Back 02_I_Want_You 03_I_Dont_Care 04_Promises 05_You_Can_Still_Be_Free 06_Truly_Madly_Deeply 07_I_Knew_I_Loved_You 08_Hold_Me 09_Crash_And_Burn 10_A_Thousand_Words 11_Break_Me_Shake_Me 12_Gunning_Down_Romance 13_Santa_Monica 14_Tears_Of_Pearls 15_The_Best_Thing 16_Chained_To_You 17_Affirmation 18_I_Dont_Know_You_Anymore 19_Santa_Monica_bittersweet_remix 20_Sexual_Healing 21_The_Animal_Song 22_Affirmation_stop_beats_mix 23_To_The_Moon_And_Back_club_mix 24_Tears_Of_P ...

10
янв
2008

Savage Garden (Greatest Hits) Lossless (2003)

Страна: Австралия
Год выпуска: 2003
Жанр: Pop Rock
Продолжительность: 1:05:44
Формат: FLAC (tracks)
Битрейт аудио: Lossless (около 900kbps)
Трэклист: I want you To the moon and back Truly Madly Deeply I'll Bet He Was Cool Fire Inside the Man Break Me Shake Me This Side of Me Universe Memories Are Designed to Fade All Around Me Santa Monica Tears of Pearls A Thousand Words Promises Carry on Dancing Mine
Примичание: Lossless выкладываю первый раз, если есть какие косяки сообщайте. На раздаче круглосуточно!

07
ноя
2012

Savage Garden - The Video Collection [1998, Pop, DVD5]

Формат: DVD5, DVD Video, MPEG2, AC3
Песня: The Video Collection
Жанр: Pop
Продолжительность: 00:21:32
Год выпуска: 1998
Видео: 720x480 (NTSC, 4:3), 29,970 fps, MPEG2 Video ~9,800 kbps, 0,946 bit/pixel Аудио #1: 48 kHz, PCM, 2 ch, 1536 kbps Аудио #2: 48 kHz, AC-3, 6 ch (Front: LCR, Side: LR, LFE), 448 Kbps Tracklist: 1. I Want You 2. To The Moon & Back 3. Truly Madly Deeply 4. Break Me Shake Me 5. Tears Of Pearls
Доп. информация: Представленный диск был издан в 1998 году на волне невероятного успеха дебютного альбома дуэта – “Savage Garden” (1997). В релизе представлены 5 композиций с этого а ...

09
мар
2008

Savage garden Truly, Madly, Deeply[1997, Pop, TVRip]

Исполнитель: Savage garden
Песня: Truly, Madly, Deeply
Страна: Автралия
Год выпуска: 1997
Продолжительность: 04-12
Жанр: Pop
Язык: English
Качество: TVRip
Формат: AVI
Видео кодек: XviD
Аудио кодек: MP3
Видео: Разрешение352х288, Кадров в секунду 25,00,Битрэйт 511Kbps, Фактор качества 0,21
Аудио: Колличество каналов 2, Частота дискретизации 44100Hz, Битрэйт 64Kbps

28
дек
2007

Savage Garden /Dareen Hayes - The Best [2007,Popmusic,MP3]

Страна: Россия
Год выпуска: 2007
Жанр: Поп музыка
Продолжительность: 06:30:16
Формат: MP3
Битрейт аудио: 192 Трэклист 1. 01 I want you (3:53) 2. 02 I knew I loved you (4:11) 3. 03 To the moon & back (5:42) 4. 04 Hold me (4:52) 5. 05 Santa Monica (3:36) 6. 06 Crash and burn (4:42) 7. 07 Break me shake me (3:25) 8. 08 Truly madly deeply (4:39) 9. 09 The animal song (4:39) 10. 10 Affirmation (4:58) 11. 11 So beautiful (4:58 ) 12. 12 California (6:00) 13. 13 I don't care (B-Side) (5:05) 14. 14 I'll bet he was cool (B-Side) (4:41) 15. 15 Love can move you (B-Side) (4:47) 16. 16 Fire inside the man ...

16
мая
2015

Savage Garden - Super Hits Collection [2015, Pop-Rock, MP3]

Формат: MP3, tracks, 320kbps
Год выпуска: 2015
Страна: Australia
Жанр: Pop-Rock
Продолжительность: 01:30:12
Описание: 01. To The Moon & Back 02. I Want You 03. Truly Madly Deeply 04. Tears Of Pearls 05. This Side Of Me 06. Carry On Dancing 07. Love Can Move You 08. Break Me Shake Me 09. A Thousand Words 10. Fire Inside The Ma 11. Santa Monica 12. I Knew I Loved You 13. Hold Me 14. Crash And Burn 15. The Animal Song 16. Affirmation 17. So Beautifu 18. California 19. I Don't Care 20. I'll Bet He Was Cool

08
ноя
2012

Savage Garden - Superstars And Cannonballs: Live And On Tour In Australia [2001, Pop-Rock, DVD9]

Формат: DVD9, DVD Video, MPEG2, AC3
Песня: Superstars And Cannonballs: Live And On Tour In Australia
Жанр: Pop-Rock
Продолжительность: 02:22:56
Год выпуска: 2001
Видео: 720х480 (NTSC, 16:9), 29.970 fps, MPEG-2, ~4 448 kbps, 0.429 bit/pixel
Аудио#1: 48.0 KHz, AC-3, 6 ch (Front: L C R, Rear: L R, LFE), 448 кbps
Аудио#2: 48.0 KHz, AC-3,2 ch, 320 Kbps
Доп. информация:
Треклист: Concert 01 - The Best Thing 02 - Break Me Shake Me 03 - To The Moon And Back 04 - The Lover After Me 05 - I Don't Know You Anymore 06 - Santa Monica 07 - Two Beds And A Coffee Machine 08 - You Can Still Be Free 09 - The An ...

30
сен
2010

Savage - Дискография [1984-2003, Pop, Disco, MP3]

Формат: MP3, tracks, 192kbps
Год выпуска: 1984-2003
Страна: USA
Жанр: Pop, Disco
Продолжительность: 08:02:14
Описание: Don't Cry Tonight (Single) (1984) 0001 Don't cry tonight 02 Only you (airplay edit) 03 A love again 04 Don't cry tonight (instrumental vers.) Tonight (1985) 0101 Radio 02 A love again 03 Fugitive 04 Tonight 05 A love again (mix) 06 Don't cry tonight 07 Computerised love 08 Only you 09 Turn around 10 Time 11 Magic carillon (instrumental vers.) 12 Don't cry tonight (extended vers.) 13 Don't cry tonight (instrumental vers.) Hits And More (1990) 0001 Ten years ago (dub intro) ...

07
апр
2014

Savage Blade - Дискография [2009 - 2014, Heavy Power Metal, MP3]

Формат: MP3, tracks, 320kbps
Год выпуска: 2009 - 2014
Страна: Канада
Жанр: Heavy Power Metal
Продолжительность: 01:31:28
Описание: 2009 - We Are The Hammer, 00 01 We Are The Hammer 02 Night Of The Blade 03 Merlin 04 Willow Run 05 (In) The Eye Of The Storm 06 Stallions Of The Highway 07 Silver Ghost 08 Crowfoot 09 Magic Of The Night 10 The Eagle Is Stranded 11 Opus Of Fire 2014 - Angel Museum, 00 01 Forging The Sword 02 Angel Museum 03 Torch The Saloon 04 Never Cry Wolf 05 Wasteland 06 The Way Of Metal 07 Waiting For The Wind 08 The Tablets Of Thoth

16
мар
2014

Savage Messiah - Дискография [2007 - 2014, Heavy Thrash Metal, MP3]

Формат: MP3, tracks, 320kbps
Год выпуска: 2007 - 2014
Страна: UK
Жанр: Heavy Thrash Metal
Продолжительность: 03:01:04
Описание: 2007 - Spitting Venom, 00 01 Spitting Venom 02 Frontline 03 Servant To Your Death 04 Heaven's Gate 05 W.D.U 06 Conspiracy In Silence 07 In For The Kill 08 In Cold Blood 2009 - Insurrection Rising, 00 01 Insurrection Rising 02 Corruption X 03 In Absence Of Liberty 04 The Serpent Tongue Of Divinity 05 Vigil Of The Navigator 06 Enemy Image (Dehumanization) 07 Silent Empire 08 The Nihilist Machine 09 He Who Laughs Last 2012 - Plague Of Conscience, 00 01 Plague Of Consci ...

29
ноя
2010

Fools Garden Дискография [1993-2009, Pop-rock, Rock, MP3]

Формат: MP3, tracks, 320kbps
Год выпуска: 1993-2009
Страна: Германия
Жанр: Pop-rock, Rock
Продолжительность: 07:53:02
Описание: 1993 - Once in a Blue Moon 00 1. Awakenings (4:07) 2. Man In A Cage (3:41) 3. Scared (1:21) 4. Careless Games (3:55) 5. Sandy (5:35) 6. One Way Out (5:17) 7. Fall For Her (4:06) 8. Cry Baby Cry (2:26) 9. Lena (4:46) 10. Tell Me Who I Am (3:08 ) 11. The Part Of The Fool (4:11) 12. You're Not Forgotten (2:35) 13. Spirit '91 (4:22) 14. Once In A Blue Moon (3:06) 1995 - Dish of the Day 00 1. Ordinary Man (3:30) 2. Meanwhile (4:41) 3. Lemon Tree (3:11) 4. Pieces (3:5 ...

12
апр
2012

Garden of Delight - Дискография [1991-2008, Gothic Rock, MP3]

Формат: MP3, tracks, 128-320kbps [VBR]
Год выпуска: 1991-2008
Страна: Germany
Жанр: Gothic Rock
Продолжительность: 15:04:10
Описание: 1991 - Enki's temple 00 1.Ancient God (6:38 ) 2.Inanna (5:17) 3.And The Wind Blows Down The Clouds (5:24) 4.The Watchtower (5:54) 5.Behind The False God (5:06) 6.Sumerian Haze (5:09) 7.ENKI's Temple And The Gates Of UR (7:08 ) 1992 - Epitaph 00 1.Shallow Ground (4:43) 2.Christendom (3:30) 3.Insight (4:10) 4.The White Goddess (6:48 ) 5.The Epic Of The Sumer Ziusudra (5:44) 6.Epitaph (2:09) 7.And Into Earth Shall We Return (6:06) 1993 - Sargonid s ...

05
фев
2017

Savage - The Best Of... [1983 - 2010, Italo-Disco, DVD5]

Формат: DVD5, DVD Video, MPEG2, AC3
Песня: The Best Of...
Жанр: Italo-Disco
Продолжительность: 01:07:14
Год выпуска: 1983 - 2010
Видео: 720х576 (PAL 16:9), 25,000 fps, MPEG-2, ~7969 kbps avg, 0.769 bit/pixel
Аудио: 48.0 КГц, Audio Coding 3, 2 ch, 192 kbps
Доп. информация: Итальянский певец, композитор и автор текстов. Как музыкант более известен под псевдонимом Savage, как продюсер — Robyx. Характерный представитель итало-диско 1980-х годов.
Треклист: 01. Only You 02. Don' t Cry Tonight 03. Radio 04. A Love Again 05. I' m Loosing You 06. Goodbye 07. Love is Death 08. Celebrate 09. Tonight 1 ...

03
июн
2018

Savage - Only You (Remix) [2017, Club, Dance, MP3]

Формат: MP3, tracks, 320kbps
Год выпуска: 2017
Страна: Италия
Жанр: Club, Dance
Продолжительность: 00:03:46
Описание: Наш канал «Up Music Remix» просто не смог пройти мимо данного шедевра 80-х, поэтому представляем вам отличный "Remix" бессмертной композиции... Видеоклип для ознакомленияТреклист1. Savage - Only You (Remix)Доп. информацияСсылка на канал Up Music Remix