06
июл
2014

Натали - Дискография [1994 - 2009, Pop, Dance Pop, Nu Disco, Electronic Pop, EuroDance , EuroTrance, Sexy Pop, FLAC]

Натали - Дискография

Формат: FLAC, (image + .cue), lossless
Год выпуска: 1994 - 2009
Страна: Russia
Жанр: Pop, Dance Pop, Nu Disco, Electronic Pop, EuroDance, EuroTrance, Sexy Pop
Продолжительность: 14:20:05
Описание:
1994 - Русалочка 00

Натали - Дискография
01.С тобой
02.Я улечу
03.Зеленый рай
04.Русалочка
05.Мираж моей любви
06.Погасшая звезда
07.Я твоя
08.Мальчик - танцор
09.Постой
10.День и ночь
1995 - Розовый рассвет 00

Натали - Дискография
01.Ты уже не мираж
02.Поцелуй украдкой
03.Розовый рассвет
04.Ты уже не мираж [Radio Version]
05.Поцелуй украдкой [Radio Version]
1996 - Снежная Роза 00

Натали - Дискография
01.Ты уже не мираж
02.Снежная роза
03.Мой самозванец
04.Лёд и пламя
05.Ночь без тебя
06.Ночной дождь
07.Розовый рассвет
08.Чёрная вуаль
09.Поцелуй украдкой
10.Свет далёких звёзд
1998 - Ветер с моря дул 00

Натали - Дискография
01.Ветер с моря дул...
02.Посвящение друзьям
03.Как жаль
04.Совсем забыть
05.Судьба такая
06.Четыре стены
07.Звезда по имени солнце
08.Птицы белые мои
09.Сон
10.Солнце моё
11.Ветер с моря дул [Karaoke Version]
1998 - Провинциальная девчонка 01

Натали - Дискография
01. Облака
02. Провинциальная девчонка
03. Не стерпелось, не слюбилось
04. Свет далеких звезд
05. Ты уже не мираж
06. Поцелуй украдкой
07. Как жаль
08. Розовый рассвет
09. Ветер с моря дул [Remix]
10. Зеленый рай
11. Посвящение друзьям
12. Четыре стены
13. Русалочка
14. Погасшая звезда
15. С тобой
16. Мой самозванец
1999 - Считалочка 00

Натали - Дискография
01.Улыбочка
02.Считалочка
03.Вишня [Расцвела под окошком]
04.Звезды падали с неба
05.Насмешница - судьба
06.Я уезжаю от тебя
07.4 стены
08.Лодочка
09.Облако [Пишите письма...]
10.Не стерпелось,не слюбилось
11.Провинциальная девчонка
12.Новогодние игрушки
13.Я жду весну
14.Считалочка [Karaoke Version]
2000 - Первая любовь 00

Натали - Дискография
01.Первая любовь
02.Черепашка
03.Он с моря дул
04.Вечер - бард
05.Весна
06.Радужный мир
07.Отбой
08.Я тебе возвращаю ключи
09.Я повторю
10.У костра
11.Сегоднячко
12.Табор уходит в небо
13.Черепашка [Karaoke Version]
14.Первая любовь [Karaoke Version]
2001 - Красавица - не красавица 00

Натали - Дискография
01.Красавица
02. Русалочка [2001]
03.Черепашка
04.Часто-часто
05. Я уезжаю от тебя [Remix]
06.Улыбочка [Remix]
07. Считалочка [Remix]
08. Лодочка
09.Вечер - бард
10.Мегамикс [2001]
11.Голубой вагон
2002 - The Best 01

Натали - Дискография
01. Конфетка
02. Ветер с моря дул
03. Красавица
04. Русалочка
05. Часто-часто
06. Я уезжаю от тебя
07. Черепашка
08. Первая любовь
09. Вечер-бард
10. Весна
11. Звезда по имени Солнце
12. Улыбочка
13. Считалочка
14. Облака
15. Не стерпелось, не слюбилось
16. Звёзды падали с неба
17. Вишня
18. Провинциальная девчонка
19. Как жаль
20. Зелёный рай
21. С тобой
2002 - Не влюбляйся 00

Натали - Дискография
01.Конфетка
02.Не влюбляйся
03.А ты забудь
04.Смелая
05.Река Мечта
06.Бесконечный вечный путь
07.Мир без тебя
08.Храм одиноких сердец
09.Не звони
10.Не игрушка
11.Мир без тебя [Karaoke Version]
12.Конфетка [Karaoke Version]
2003 - Гармония 01

Натали - Дискография
01.Гармония
02.Красавица [2003]
03.Ветер с моря дул
04.Облака
05.Не стерпелось, не слюбилось
06.Весна
07.Считалочка
08.Черепашка
09.Первая любовь
10.Часто-часто
11.Кофетка
12.Мир без тебя
13.Русалочка
14.Улыбочка
15.А ты забудь
16.Провинциальная девчонка
17.Звезды падали с неба
18.Ветер-бард
19.Я уезжаю от тебя
20.Зеленый рай
2004 - De Luxe Collection 01

Натали - Дискография
01. Ветер с моря дул...
02. Первая любовь
03. Считалочка
04. Не стерпелось,не слюбилось
05. Посвящение друзьям
06. Как жаль
08. Весна
09. Улыбочка
10.Провинциальная девчонка
11. Облака [Пишите письма]
12. Он с моря дул
13. Отбой
14.Черепашка
15. 4 стены
16. Я повторю
17. Радужный мир
18. У костра
19. Новогодние игрушки
20. Птицы белые мои
21. Табор уходит в небо
2004 - Все,что мне надо 00

Натали - Дискография
01.Вот так
02.Море цвета джинсов
03.Все,что мне надо
04.Просто так
05.Смешно
06.Кап-кап
07.Я дарю тебе
08.Вспоминай меня
09.Я опять одна
10.Свет звезды
11.Зайки
12.Ёлочки-иголочки
13.Гости
14.Вовочка
15.Море цвета джинсов [Karaoke Version]
2004 - Я люблю тебя

Натали - Дискография
01. Я люблю тебя
02.Вот так
03.Море цвета джинсов
04.Я дарю тебе
05.Просто так
06.Все,что мне надо
07.Ветер с моря дул
08.Не стерпелось,не слюбилось
09.Считалочка
10.Улыбочка
11.Первая любовь
12. Часто-часто
13.Звезды падали с неба
14.Как жаль
15.Облака [Пишите письма]
16.Мир без тебя
17.Русалочка
18.Свет звезды
19.Вспоминай меня
20.Ёлочки-иголочки
2009 - Русалочка 00

Натали - Дискография
01.С тобой
02.Я улечу
03.Зеленый рай
04.Русалочка
05.Мираж моей любви
06.Погасшая звезда
07.Я твоя
08.Мальчик - танцор
09.Постой
10.День и ночь
2009 - Семнадцать мгновений любви 01

Натали - Дискография
01. Не уноси мое счастье
02. Первый луч
03. Новогодняя ночь
04. То ли да, то ли нет
05. Люби меня
06. Я люблю тебя
07. Война и мир
08. Грустные истории
09. Для прощания
10. На секунду
11. Вот так
12. Ветер с моря дул [2009]
13. Музыка
14. Бриллиантовая
15. Там, где любовь
16. Включай любовь
17. Зима-блондинка [блонди]

Доп. информация:
История

Родилась Натали (наст. имя - Наталья Анатольевна Рудина (в девичестве - Миняева) в воскресный солнечный день 31 марта в городе Дзержинске Нижегородской области. После детского сада, в котором она уже в три года собралась замуж, пошла в школу. Оказавшись общительной, доброжелательной и с легким характером, она очень скоро становится неформальным лидером и пользуется любовью и уважением среди сверстников и преподавателей. Уже в начальных классах, Наташа увлекается музыкой, неплохо поет, самостоятельно учится играть на гитаре и поступает в музыкальную школу на класс фортепиано.

Успешно овладевает премудростями музыкального и вокального искусства, активно участвует в конкурсах и смотрах художественной самодеятельности, но спустя некоторое время, чувствует непреодолимое желание создавать что-то новое, что-то свое и она с большим удовольствием принимается сочинять песни на собственные стихи, которые исполняет на школьных праздниках и концертах и которые, к ее большой радости, пользуются немалым успехом, а сама становится постоянной и желанной участницей всех школьных увеселительных мероприятий, чем еще больше завоевывает авторитет и всеобщее признание.

В 1990 году яркие артистические данные Наташи были замечены и по достоинству оценены кинематографистами из Москвы, снимавшими документально-публицистический фильм, посвященный 60-и летию Дзержинска. Они приглашают ее на главную роль и не ошибаются в своем выборе - Наташа с лихвой оправдывает возлагаемые на нее надежды, сыграв несколько разноплановых ролей как настоящая профессиональная актриса.

На следующий, 1991 год увлечение музыкой приносит свои новые положительные результаты: Наташа становится солисткой группы «Шоколадный бар», она с удовольствием выступает на многих праздниках и вечеринках и записывает на студии звукозаписи первые песни собственного сочинения.

Десять лет учебы в школе пролетели совершенно незаметно, но какой-то определенности в планах выпускницы пока нет. Помимо музыки и пения Наташе еще в школе очень нравилось возиться с младшеклассниками, играть с ними в придуманные ею же игры, помогать делать уроки и еще она в неописуемом восторге от романтической профессии стюардессы, хотя сама до этого ни разу не летала на самолете. Но жизнь сама сделала выбор и в итоге земная профессия одержала верх над заоблачной и спустя некоторое время, после окончания педагогического училища, в класс одной из школ родного города вошла молоденькая учительница начальных классов - Наталья Анатольевна. Благодаря открытому характеру, она сразу становится уважаема среди коллег и очень любима своими учениками, которые с нескрываемой гордостью хвалились что у них самая красивая и самая добрая учительница.

Теперь свободного времени у новоиспеченной учительницы становится гораздо меньше, но не смотря на это, Наташа продолжает свою творческую жизнь и в 1992 году ее приглашают в более известную и популярную группу «Поп галактика». Выступая в составе профессиональных музыкантов, она приобретает большой практический опыт работы на сцене, который ей очень пригодится в дальнейшем, а каждое выступление превращается в настоящий праздник. Одновременно ведется работа над записью совместного с группой альбома, который выпускается на аудиокассете под названием «Звездный дождь» и пользуется не плохим спросом у молодежи. Наташа чувствует что наконец-то нашла себя, но новый прилив сил и энергии подсказывает что она способна на большее и не стоит останавливаться на достигнутом, а нужно двигаться вперед.

После года работы в школе она решается коренным образом изменить свою судьбу и не долго думая отправляется в Москву, чтобы попробовать воплотить в жизнь свою сокровенную мечту. Но в Москве ее естественно ни кто не ждал и все приходится начинать с нуля. После улаживания множества организационных вопросов, новых знакомств с нужными людьми и конечно же благодаря целеустремленности самой певицы, она добивается своего и через год, в 1994 году, выпускает свой первый CD-альбом с романтичным названием «Русалочка», в котором выступает как исполнитель и автор почти всех песен. Значимость этого события неоценима. Хотя этот альбом и был выпущен ограниченным тиражом и не стал таким известным и популярным, как хотелось бы, но его цели и задачи были достигнуты сполна: Наташа заявила о себе во всеуслышание, став отныне и навсегда певицей Натали.

Вслед за синглом 1995 года «Розовый рассвет», с всего лишь тремя новыми песнями, на следующий год появляется второй полноценный альбом «Снежная роза», тиражом намного превышающим «Русалочку» и пользующийся неплохим спросом, а на экранах - самый первый, очень красивый сказочный клип на его заглавную песню, с божественно очаровательной героиней, в которую не влюбиться было просто невозможно, что и произошло с большей частью мужского населения страны, многие из которых становятся первыми поклонниками певицы. Теперь Натали стала узнаваемой, любимой и желанной, а образ скромной и застенчивой девушки с этого момента и по сей день укрепился за ней и стал неотъемлемой частью в ее творчестве.

Настоящая популярность к Натали приходит в 1998 году вместе с суперхитом «Ветер с моря дул» и одноименным альбомом, широкая известность которого стала итогом ее упорной работы. Эта песня по итогам 1998 года вошла в пятёрку наиболее популярных в то время и становится визитной карточкой певицы. Чуть раньше были сняты два клипа на песни из будущего альбома «Звезда по имени Солнце» (1996) и «Ветер с моря дул» (1997), сенсационно нашумевшие каждый по-своему. Альбом был выпущен рекордным тиражом и стал рекордсменом по раскупаемости, а многочисленные концерты теперь стали неизменно сопровождаться аншлагами. Как бы подводя итог начала своей карьеры в этом же году выходит в свет сборник лучших песен «Провинциальная девчонка», с тремя новыми хитами, один из которых является автобиографичным.

В 1999 году успех закрепляется следующим альбомом «Считалочка», сразу признанный в фанатских кругах как самый удачный, с фотографией на обложке наиболее характеризующей образ Натали. Три песни: «Облака», «Не стерпелось, не слюбилось» и «Считалочка» незамедлили стать основой для очередных клипов певицы и стали желанными гостями практически на всех телеканалах страны.

Альбом «Первая любовь» ожидали уже с нетерпением. Его появление в начале сентября 2000 года стало настоящим событием для истинных ценителей творчества певицы. К моменту выхода в свет нового диска, сразу несколько песен были уже хорошо известны широкой публике и постоянно крутились в эфире - это «Черепашка» и «Первая любовь». На них и были сняты очередные клипы, а в последствии сделали и несколько необычный клип на ремикс «Черепашки», а сама песня стала еще одним народным хитом, без исполнения которого Натали не отпускали с выступлений.

Два последних года Натали активно дает концерты во Дворцах культуры, кинотеатрах и ночных клубах Москвы и подмосковья, гастролирует по стране и участвует в круизе по Средиземноморью и городам Германии. В эти же годы были выпущены три видеокассеты с записями выступлений, клипами и интервью с певицей, ее родными и друзьями. Между тем Натали не забывает об образовании, находит свободное время и становится студенткой Московского Государственного Университета Экономики и Статистики.

В 2001 году, во время небольшой творческой паузы Натали решает дать новую жизнь своим старым любимым хитам и порадовала сборником ремиксов «Красавица - не красавица» и снимает очередной шикарный клип на новую песню «Часто-часто».

2002 год стал наиболее ударным и плодотворным и ознаменовался появлением очередного сборника 20-ки лучших песен «The Best», мультипликационного клипа «Конфетка», клипа на очень мелодичную и лиричную песню «Мир без тебя» и под завершение - новым альбомом «Не влюбляйся», собравшим в себя песни как с мощной и ритмичной аранжировкой, так и очень медленной и пожалуй одной из самых чувственных песен из репертуара певицы - «Не игрушка». Проявив в очередной раз настоящий профессионализм и многогранность своего таланта, Натали показала что ей под силу песни любых жанров и направлений. В конце года в репертуаре Натали появляется песня «Гармония», очень популярная в 70-е годы.

В 2003 году в составе команды Натали и руководстве происходят кординальные перемены, сама становится самостоятельнее и смелее в подборе песен и выборе своих образов, что незамедлительно отразилось в сверхсенсационном клипе на новую песню «Море цвета джинсов», вызвавшим бурную и противоречивую реакцию из-за неожиданной смены имиджа исполнительницы.
Помимо выступлений в больших концертных залах, Натали ездит с гастролями по стране, выступает на праздниках города, стадионах, в ночных клубах и на молодежных дискотеках со своей обновкой года - танцевальной группой, состоящей из двух великанов братьев-близнецов.

В конце лета состоялись съемки уже второго в этом году нового клипа на одну из лучших песен будущего альбома «Всё, что мне надо», в котором Натали выступила опять в неожиданной для себя роли - начинающей модели Body Art.

В середине апреля 2004 года, в преддверии выхода нового альбома, на экранах ТВ появляется клип «Вот как», в котором Натали продемонстрировала свои артистические способности в трех непростых и прямо противоположных образах своих героинь: эротичной и вызывающей своими манерами особы, скромной и застенчивой послевоенной провинциальной девушки и волевого и строгого командира отряда спецназа. А в конце месяца выходит долгожданный альбом «Всё, что мне надо» с 14-ю песнями и тремя клипами. По подбору и разнообразию песен он стал одним из самых удачных, большинство песен в нем, как и в предыдущих альбомах, собственного сочинения и естественно о любви, но есть в нем и более серьезные песни на вечные темы, заставляющие задуматься о смысле жизни и бессмысленности любви к далеким и холодным Звездам.
Незадолго до нового года, в честь ознаменования десятилетия творческой деятельности, Натали решила сделать подарок почитателям своего творчества и порадовала сборником своих лучших хитов «Я люблю тебя» с одной новой песней, давшей название этому альбому.





Отчёты
1994 - Русалочка

Exact Audio Copy V0.99 prebeta 5 from 4. May 2009

Отчёт EAC об извлечении, выполненном 9. июня 2009, 18:06

Натали / Русалочка

Дисковод: ASUS DRW-1814BL Adapter: 1 ID: 0

Режим чтения : Достоверность
Использование точного потока : Да
Отключение кэша аудио : Да
Использование указателей C2 : Нет

Коррекция смещения при чтении : 6
Способность читать области Lead-in и Lead-out : Нет
Заполнение пропущенных сэмплов тишиной : Да
Удаление блоков с тишиной в начале и конце : Нет
При вычислениях CRC использовались нулевые сэмплы : Да
Интерфейс : Установленный внешний ASPI-интерфейс

Выходной формат : Внутренние WAV-операции
Формат сэмплов : 44.100 Гц; 16 бит; стерео

TOC извлечённого CD

Трек | Старт | Длительность | Начальный сектор | Конечный сектор
---------------------------------------------------------------------
1 | 0:00.00 | 2:59.72 | 0 | 13496
2 | 2:59.72 | 3:25.60 | 13497 | 28931
3 | 6:25.57 | 3:24.70 | 28932 | 44301
4 | 9:50.52 | 3:43.45 | 44302 | 61071
5 | 13:34.22 | 3:26.28 | 61072 | 76549
6 | 17:00.50 | 3:59.50 | 76550 | 94524
7 | 21:00.25 | 3:39.45 | 94525 | 110994
8 | 24:39.70 | 3:16.70 | 110995 | 125764
9 | 27:56.65 | 3:27.12 | 125765 | 141301
10 | 31:24.02 | 3:21.55 | 141302 | 156431

Характеристики диапазона извлечения и сообщения об ошибках

Выбранный диапазон

Имя файла E:НА-А-А-АШЕ!!!!!!!Натали1994.РусалочкаНатали - Русалочка.wav

Пиковый уровень 89.1 %
Качество диапазона 100.0 %
CRC теста D10DAB02
CRC копии D10DAB02
Копирование... OK

Ошибок не произошло

AccurateRip: сводка

Трек 1 нет в базе данных
Трек 2 нет в базе данных
Трек 3 нет в базе данных
Трек 4 нет в базе данных
Трек 5 нет в базе данных
Трек 6 нет в базе данных
Трек 7 нет в базе данных
Трек 8 нет в базе данных
Трек 9 нет в базе данных
Трек 10 нет в базе данных

Ни одного трека нет в базе AccurateRip

Конец отчёта
1995 - Розовый рассвет

Exact Audio Copy V0.99 prebeta 5 from 4. May 2009

Отчёт EAC об извлечении, выполненном 17. июня 2010, 1:24

Натали / Розовый рассвет (сингл)

Дисковод: ASUS DRW-1814BL Adapter: 1 ID: 0

Режим чтения : Достоверность
Использование точного потока : Да
Отключение кэша аудио : Да
Использование указателей C2 : Нет

Коррекция смещения при чтении : 6
Способность читать области Lead-in и Lead-out : Нет
Заполнение пропущенных сэмплов тишиной : Да
Удаление блоков с тишиной в начале и конце : Нет
При вычислениях CRC использовались нулевые сэмплы : Нет
Интерфейс : Встроенный Win32-интерфейс для Win NT/2000

Выходной формат : Внутренние WAV-операции
Формат сэмплов : 44.100 Гц; 16 бит; стерео

TOC извлечённого CD

Трек | Старт | Длительность | Начальный сектор | Конечный сектор
---------------------------------------------------------------------
1 | 0:00.00 | 3:59.72 | 0 | 17996
2 | 3:59.72 | 5:44.53 | 17997 | 43849
3 | 9:44.50 | 4:00.20 | 43850 | 61869
4 | 13:44.70 | 3:26.30 | 61870 | 77349
5 | 17:11.25 | 3:59.30 | 77350 | 95304

Характеристики диапазона извлечения и сообщения об ошибках

Выбранный диапазон

Имя файла E:Discography (lossless)Натали1995.Розовый рассвет (сингл)Натали - Розовый рассвет (сингл).wav

Пиковый уровень 94.1 %
Качество диапазона 100.0 %
CRC теста C9B5F9D6
CRC копии C9B5F9D6
Копирование... OK

Ошибок не произошло

AccurateRip: сводка

Трек 1 нет в базе данных
Трек 2 нет в базе данных
Трек 3 нет в базе данных
Трек 4 нет в базе данных
Трек 5 нет в базе данных

Ни одного трека нет в базе AccurateRip

Конец отчёта
1996 - Снежная Роза

Exact Audio Copy V0.99 prebeta 4 from 23. January 2008

Отчёт EAC об извлечении, выполненном 26. августа 2008, 21:23

Натали / Снежная Роза

Дисковод: ASUS DRW-1814BL Adapter: 3 ID: 0

Режим чтения : Достоверность
Использование точного потока : Да
Отключение кэша аудио : Да
Использование указателей C2 : Нет

Коррекция смещения при чтении : 6
Способность читать области Lead-in и Lead-out : Нет
Заполнение пропущенных сэмплов тишиной : Да
Удаление блоков с тишиной в начале и конце : Нет
При вычислениях CRC использовались нулевые сэмплы : Нет
Интерфейс : Встроенный Win32-интерфейс для Win NT/2000

Выходной формат : Внутренние WAV-операции
Формат сэмплов : 44.100 Гц; 16 бит; стерео

TOC извлечённого CD

Трек | Старт | Длительность | Начальный сектор | Конечный сектор
---------------------------------------------------------------------
1 | 0:00.00 | 4:01.25 | 0 | 18099
2 | 4:01.25 | 4:14.30 | 18100 | 37179
3 | 8:15.55 | 4:53.62 | 37180 | 59216
4 | 13:09.42 | 4:45.20 | 59217 | 80611
5 | 17:54.62 | 3:59.05 | 80612 | 98541
6 | 21:53.67 | 2:31.15 | 98542 | 109881
7 | 24:25.07 | 4:01.30 | 109882 | 127986
8 | 28:26.37 | 3:37.68 | 127987 | 144329
9 | 32:04.30 | 5:45.50 | 144330 | 170254
10 | 37:50.05 | 3:40.32 | 170255 | 186786

Характеристики диапазона извлечения и сообщения об ошибках

Выбранный диапазон

Имя файла E:Discography (lossless)НаталиНатали - Снежная РозаНатали - Снежная Роза.wav

Пиковый уровень 96.0 %
Качество диапазона 99.9 %
CRC копии B6ED4DEB
CRC копии B6ED4DEB
Копирование... OK

Ошибок не произошло

AccurateRip: сводка

Трек 1 нет в базе данных
Трек 2 нет в базе данных
Трек 3 нет в базе данных
Трек 4 нет в базе данных
Трек 5 нет в базе данных
Трек 6 нет в базе данных
Трек 7 нет в базе данных
Трек 8 нет в базе данных
Трек 9 нет в базе данных
Трек 10 нет в базе данных

Ни одного трека нет в базе AccurateRip

Конец отчёта
1998 - Ветер с моря дул

Exact Audio Copy V0.99 prebeta 4 from 23. January 2008

Отчёт EAC об извлечении, выполненном 25. августа 2008, 22:30

Натали / Ветер с моря дул

Дисковод: ASUS DRW-1814BL Adapter: 3 ID: 0

Режим чтения : Достоверность
Использование точного потока : Да
Отключение кэша аудио : Да
Использование указателей C2 : Нет

Коррекция смещения при чтении : 6
Способность читать области Lead-in и Lead-out : Нет
Заполнение пропущенных сэмплов тишиной : Да
Удаление блоков с тишиной в начале и конце : Нет
При вычислениях CRC использовались нулевые сэмплы : Нет
Интерфейс : Встроенный Win32-интерфейс для Win NT/2000

Выходной формат : Внутренние WAV-операции
Формат сэмплов : 44.100 Гц; 16 бит; стерео

TOC извлечённого CD

Трек | Старт | Длительность | Начальный сектор | Конечный сектор
---------------------------------------------------------------------
1 | 0:00.00 | 3:45.09 | 0 | 16883
2 | 3:45.09 | 3:37.63 | 16884 | 33221
3 | 7:22.72 | 3:40.45 | 33222 | 49766
4 | 11:03.42 | 4:21.28 | 49767 | 69369
5 | 15:24.70 | 3:57.03 | 69370 | 87147
6 | 19:21.73 | 3:03.34 | 87148 | 100906
7 | 22:25.32 | 4:15.52 | 100907 | 120083
8 | 26:41.09 | 4:49.14 | 120084 | 141772
9 | 31:30.23 | 5:09.33 | 141773 | 164980
10 | 36:39.56 | 4:17.57 | 164981 | 184312
11 | 40:57.38 | 3:43.48 | 184313 | 201085

Характеристики диапазона извлечения и сообщения об ошибках

Выбранный диапазон

Имя файла E:Discography (lossless)НаталиНатали - Ветер с моря дулНатали - Ветер с моря дул.wav

Пиковый уровень 97.7 %
Качество диапазона 100.0 %
CRC теста 114C52F7
CRC копии 114C52F7
Копирование... OK

Ошибок не произошло

AccurateRip: сводка

Трек 1 нет в базе данных
Трек 2 нет в базе данных
Трек 3 нет в базе данных
Трек 4 нет в базе данных
Трек 5 нет в базе данных
Трек 6 нет в базе данных
Трек 7 нет в базе данных
Трек 8 нет в базе данных
Трек 9 нет в базе данных
Трек 10 нет в базе данных
Трек 11 нет в базе данных

Ни одного трека нет в базе AccurateRip

Конец отчёта
1998 - Провинциальная девчонка

Exact Audio Copy V0.99 prebeta 4 from 23. January 2008

Отчёт EAC об извлечении, выполненном 5. октября 2008, 2:06

Натали / Провинциальная девчонка

Дисковод: ASUS DRW-1814BL Adapter: 3 ID: 0

Режим чтения : Достоверность
Использование точного потока : Да
Отключение кэша аудио : Да
Использование указателей C2 : Нет

Коррекция смещения при чтении : 6
Способность читать области Lead-in и Lead-out : Нет
Заполнение пропущенных сэмплов тишиной : Да
Удаление блоков с тишиной в начале и конце : Нет
При вычислениях CRC использовались нулевые сэмплы : Нет
Интерфейс : Встроенный Win32-интерфейс для Win NT/2000

Выходной формат : Внутренние WAV-операции
Формат сэмплов : 44.100 Гц; 16 бит; стерео

TOC извлечённого CD

Трек | Старт | Длительность | Начальный сектор | Конечный сектор
---------------------------------------------------------------------
1 | 0:00.00 | 3:19.69 | 0 | 14993
2 | 3:19.69 | 3:31.13 | 14994 | 30831
3 | 6:51.07 | 4:16.36 | 30832 | 50067
4 | 11:07.43 | 3:41.42 | 50068 | 66684
5 | 14:49.10 | 3:26.67 | 66685 | 82201
6 | 18:16.02 | 3:58.68 | 82202 | 100119
7 | 22:14.70 | 3:40.45 | 100120 | 116664
8 | 25:55.40 | 4:00.69 | 116665 | 134733
9 | 29:56.34 | 4:29.41 | 134734 | 154949
10 | 34:26.00 | 3:24.36 | 154950 | 170285
11 | 37:50.36 | 3:37.52 | 170286 | 186612
12 | 41:28.13 | 3:03.29 | 186613 | 200366
13 | 44:31.42 | 3:42.47 | 200367 | 217063
14 | 48:14.14 | 3:58.31 | 217064 | 234944
15 | 52:12.45 | 2:58.09 | 234945 | 248303
16 | 55:10.54 | 4:51.24 | 248304 | 270152

Характеристики диапазона извлечения и сообщения об ошибках

Выбранный диапазон

Имя файла E:НА-А-А-АШЕ!!!!!!!Натали1998.Провинциальная девчонкаНатали - Провинциальная девчонка.wav

Пиковый уровень 98.8 %
Качество диапазона 100.0 %
CRC теста DC85F09F
CRC копии DC85F09F
Копирование... OK

Ошибок не произошло

AccurateRip: сводка

Трек 1 нет в базе данных
Трек 2 нет в базе данных
Трек 3 нет в базе данных
Трек 4 нет в базе данных
Трек 5 нет в базе данных
Трек 6 нет в базе данных
Трек 7 нет в базе данных
Трек 8 нет в базе данных
Трек 9 нет в базе данных
Трек 10 нет в базе данных
Трек 11 нет в базе данных
Трек 12 нет в базе данных
Трек 13 нет в базе данных
Трек 14 нет в базе данных
Трек 15 нет в базе данных
Трек 16 нет в базе данных

Ни одного трека нет в базе AccurateRip

Конец отчёта
1999 - Считалочка

Exact Audio Copy V0.99 prebeta 4 from 23. January 2008

Отчёт EAC об извлечении, выполненном 25. августа 2008, 21:52

Натали / Считалочка

Дисковод: ASUS DRW-1814BL Adapter: 3 ID: 0

Режим чтения : Достоверность
Использование точного потока : Да
Отключение кэша аудио : Да
Использование указателей C2 : Нет

Коррекция смещения при чтении : 6
Способность читать области Lead-in и Lead-out : Нет
Заполнение пропущенных сэмплов тишиной : Да
Удаление блоков с тишиной в начале и конце : Нет
При вычислениях CRC использовались нулевые сэмплы : Нет
Интерфейс : Встроенный Win32-интерфейс для Win NT/2000

Выходной формат : Внутренние WAV-операции
Формат сэмплов : 44.100 Гц; 16 бит; стерео

TOC извлечённого CD

Трек | Старт | Длительность | Начальный сектор | Конечный сектор
---------------------------------------------------------------------
1 | 0:00.00 | 3:53.34 | 0 | 17508
2 | 3:53.34 | 3:28.56 | 17509 | 33164
3 | 7:22.15 | 3:39.74 | 33165 | 49663
4 | 11:02.14 | 3:25.71 | 49664 | 65109
5 | 14:28.10 | 3:30.43 | 65110 | 80902
6 | 17:58.53 | 4:01.42 | 80903 | 99019
7 | 22:00.20 | 3:27.73 | 99020 | 114617
8 | 25:28.18 | 3:10.36 | 114618 | 128903
9 | 28:38.54 | 3:19.49 | 128904 | 143877
10 | 31:58.28 | 4:16.11 | 143878 | 163088
11 | 36:14.39 | 3:31.08 | 163089 | 178921
12 | 39:45.47 | 3:46.13 | 178922 | 195884
13 | 43:31.60 | 4:07.50 | 195885 | 214459
14 | 47:39.35 | 3:26.54 | 214460 | 229963

Характеристики диапазона извлечения и сообщения об ошибках

Выбранный диапазон

Имя файла E:Discography (lossless)НаталиНатали - СчиталочкаНатали - Считалочка.wav

Пиковый уровень 98.8 %
Качество диапазона 100.0 %
CRC теста 9EB12BCD
CRC копии 9EB12BCD
Копирование... OK

Ошибок не произошло

AccurateRip: сводка

Трек 1 нет в базе данных
Трек 2 нет в базе данных
Трек 3 нет в базе данных
Трек 4 нет в базе данных
Трек 5 нет в базе данных
Трек 6 нет в базе данных
Трек 7 нет в базе данных
Трек 8 нет в базе данных
Трек 9 нет в базе данных
Трек 10 нет в базе данных
Трек 11 нет в базе данных
Трек 12 нет в базе данных
Трек 13 нет в базе данных
Трек 14 нет в базе данных

Ни одного трека нет в базе AccurateRip

Конец отчёта
2000 - Первая любовь

Exact Audio Copy V0.99 prebeta 4 from 23. January 2008

Отчёт EAC об извлечении, выполненном 25. августа 2008, 22:12

Натали / Первая любовь

Дисковод: ASUS DRW-1814BL Adapter: 3 ID: 0

Режим чтения : Достоверность
Использование точного потока : Да
Отключение кэша аудио : Да
Использование указателей C2 : Нет

Коррекция смещения при чтении : 6
Способность читать области Lead-in и Lead-out : Нет
Заполнение пропущенных сэмплов тишиной : Да
Удаление блоков с тишиной в начале и конце : Нет
При вычислениях CRC использовались нулевые сэмплы : Нет
Интерфейс : Встроенный Win32-интерфейс для Win NT/2000

Выходной формат : Внутренние WAV-операции
Формат сэмплов : 44.100 Гц; 16 бит; стерео

TOC извлечённого CD

Трек | Старт | Длительность | Начальный сектор | Конечный сектор
---------------------------------------------------------------------
1 | 0:00.00 | 4:00.73 | 0 | 18072
2 | 4:00.73 | 3:50.32 | 18073 | 35354
3 | 7:51.30 | 3:20.13 | 35355 | 50367
4 | 11:11.43 | 4:11.47 | 50368 | 69239
5 | 15:23.15 | 3:25.16 | 69240 | 84630
6 | 18:48.31 | 3:35.62 | 84631 | 100817
7 | 22:24.18 | 3:19.40 | 100818 | 115782
8 | 25:43.58 | 3:42.58 | 115783 | 132490
9 | 29:26.41 | 3:24.21 | 132491 | 147811
10 | 32:50.62 | 3:55.30 | 147812 | 165466
11 | 36:46.17 | 3:56.62 | 165467 | 183228
12 | 40:43.04 | 3:55.29 | 183229 | 200882
13 | 44:38.33 | 3:50.28 | 200883 | 218160
14 | 48:28.61 | 3:57.24 | 218161 | 235959
15 | 54:58.10 | 7:25.61 | 247360 | 280795

Характеристики диапазона извлечения и сообщения об ошибках

Выбранный диапазон

Имя файла E:Discography (lossless)НаталиНатали - Первая любовьНатали - Первая любовь.wav

Пиковый уровень 100.0 %
Качество диапазона 100.0 %
CRC теста C38DC6FE
CRC копии C38DC6FE
Копирование... OK

Ошибок не произошло

AccurateRip: сводка

Трек 1 нет в базе данных
Трек 2 нет в базе данных
Трек 3 нет в базе данных
Трек 4 нет в базе данных
Трек 5 нет в базе данных
Трек 6 нет в базе данных
Трек 7 нет в базе данных
Трек 8 нет в базе данных
Трек 9 нет в базе данных
Трек 10 нет в базе данных
Трек 11 нет в базе данных
Трек 12 нет в базе данных
Трек 13 нет в базе данных
Трек 14 нет в базе данных

Ни одного трека нет в базе AccurateRip

Конец отчёта
2001 - Красавица - не красавица

Exact Audio Copy V0.99 prebeta 4 from 23. January 2008

Отчёт EAC об извлечении, выполненном 25. августа 2008, 21:31

Натали / Красавица - не красавица ...

Дисковод: ASUS DRW-1814BL Adapter: 3 ID: 0

Режим чтения : Достоверность
Использование точного потока : Да
Отключение кэша аудио : Да
Использование указателей C2 : Нет

Коррекция смещения при чтении : 6
Способность читать области Lead-in и Lead-out : Нет
Заполнение пропущенных сэмплов тишиной : Да
Удаление блоков с тишиной в начале и конце : Нет
При вычислениях CRC использовались нулевые сэмплы : Нет
Интерфейс : Встроенный Win32-интерфейс для Win NT/2000

Выходной формат : Внутренние WAV-операции
Формат сэмплов : 44.100 Гц; 16 бит; стерео

TOC извлечённого CD

Трек | Старт | Длительность | Начальный сектор | Конечный сектор
---------------------------------------------------------------------
1 | 0:00.00 | 3:34.68 | 0 | 16117
2 | 3:34.68 | 3:51.73 | 16118 | 33515
3 | 7:26.66 | 3:39.31 | 33516 | 49971
4 | 11:06.22 | 3:34.16 | 49972 | 66037
5 | 14:40.38 | 4:01.69 | 66038 | 84181
6 | 18:42.32 | 4:39.31 | 84182 | 105137
7 | 23:21.63 | 3:46.28 | 105138 | 122115
8 | 27:08.16 | 3:47.46 | 122116 | 139186
9 | 30:55.62 | 3:52.23 | 139187 | 156609
10 | 34:48.10 | 11:55.59 | 156610 | 210293
11 | 46:43.69 | 3:17.01 | 210294 | 225069
12 | 52:32.70 | 12:34.61 | 236470 | 293080

Характеристики диапазона извлечения и сообщения об ошибках

Выбранный диапазон

Имя файла E:Discography (lossless)НаталиНатали - Красавица - не красавицаНатали - Красавица - не красавица ....wav

Пиковый уровень 100.0 %
Качество диапазона 100.0 %
CRC теста ADC0199E
CRC копии ADC0199E
Копирование... OK

Ошибок не произошло

AccurateRip: сводка

Трек 1 нет в базе данных
Трек 2 нет в базе данных
Трек 3 нет в базе данных
Трек 4 нет в базе данных
Трек 5 нет в базе данных
Трек 6 нет в базе данных
Трек 7 нет в базе данных
Трек 8 нет в базе данных
Трек 9 нет в базе данных
Трек 10 нет в базе данных
Трек 11 нет в базе данных

Ни одного трека нет в базе AccurateRip

Конец отчёта
2002 - The Best

Exact Audio Copy V0.99 prebeta 5 from 4. May 2009

Отчёт EAC об извлечении, выполненном 27. августа 2009, 22:37

Натали / The Best

Дисковод: ASUS DRW-1814BL Adapter: 1 ID: 0

Режим чтения : Достоверность
Использование точного потока : Да
Отключение кэша аудио : Да
Использование указателей C2 : Нет

Коррекция смещения при чтении : 6
Способность читать области Lead-in и Lead-out : Нет
Заполнение пропущенных сэмплов тишиной : Да
Удаление блоков с тишиной в начале и конце : Нет
При вычислениях CRC использовались нулевые сэмплы : Да
Интерфейс : Установленный внешний ASPI-интерфейс

Выходной формат : Внутренние WAV-операции
Формат сэмплов : 44.100 Гц; 16 бит; стерео

TOC извлечённого CD

Трек | Старт | Длительность | Начальный сектор | Конечный сектор
---------------------------------------------------------------------
1 | 0:00.00 | 3:44.72 | 0 | 16871
2 | 3:44.72 | 3:44.39 | 16872 | 33710
3 | 7:29.36 | 3:35.68 | 33711 | 49903
4 | 11:05.29 | 3:53.11 | 49904 | 67389
5 | 14:58.40 | 3:35.23 | 67390 | 83537
6 | 18:33.63 | 4:02.73 | 83538 | 101760
7 | 22:36.61 | 3:49.61 | 101761 | 118996
8 | 26:26.47 | 4:00.15 | 118997 | 137011
9 | 30:26.62 | 4:10.74 | 137012 | 155835
10 | 34:37.61 | 3:24.30 | 155836 | 171165
11 | 38:02.16 | 4:16.52 | 171166 | 190417
12 | 42:18.68 | 3:52.55 | 190418 | 207872
13 | 46:11.48 | 3:28.13 | 207873 | 223485
14 | 49:39.61 | 3:19.21 | 223486 | 238431
15 | 52:59.07 | 4:15.51 | 238432 | 257607
16 | 57:14.58 | 3:25.58 | 257608 | 273040
17 | 60:40.41 | 3:39.44 | 273041 | 289509
18 | 64:20.10 | 3:30.52 | 289510 | 305311
19 | 67:50.62 | 3:39.60 | 305312 | 321796
20 | 71:30.47 | 3:23.57 | 321797 | 337078
21 | 74:54.29 | 2:55.38 | 337079 | 350241

Характеристики диапазона извлечения и сообщения об ошибках

Выбранный диапазон

Имя файла E:Discography (lossless)Натали2002.The BestНатали - The Best.wav

Пиковый уровень 99.8 %
Качество диапазона 100.0 %
CRC теста 45A83B52
CRC копии 45A83B52
Копирование... OK

Ошибок не произошло

AccurateRip: сводка

Трек 1 нет в базе данных
Трек 2 нет в базе данных
Трек 3 нет в базе данных
Трек 4 нет в базе данных
Трек 5 нет в базе данных
Трек 6 нет в базе данных
Трек 7 нет в базе данных
Трек 8 нет в базе данных
Трек 9 нет в базе данных
Трек 10 нет в базе данных
Трек 11 нет в базе данных
Трек 12 нет в базе данных
Трек 13 нет в базе данных
Трек 14 нет в базе данных
Трек 15 нет в базе данных
Трек 16 нет в базе данных
Трек 17 нет в базе данных
Трек 18 нет в базе данных
Трек 19 нет в базе данных
Трек 20 нет в базе данных
Трек 21 нет в базе данных

Ни одного трека нет в базе AccurateRip

Конец отчёта
2002 - Не влюбляйся

Exact Audio Copy V0.99 prebeta 4 from 23. January 2008

Отчёт EAC об извлечении, выполненном 26. августа 2008, 2:25

Натали / Не влюбляйся

Дисковод: ASUS DRW-1814BL Adapter: 3 ID: 0

Режим чтения : Достоверность
Использование точного потока : Да
Отключение кэша аудио : Да
Использование указателей C2 : Нет

Коррекция смещения при чтении : 6
Способность читать области Lead-in и Lead-out : Нет
Заполнение пропущенных сэмплов тишиной : Да
Удаление блоков с тишиной в начале и конце : Нет
При вычислениях CRC использовались нулевые сэмплы : Нет
Интерфейс : Встроенный Win32-интерфейс для Win NT/2000

Выходной формат : Внутренние WAV-операции
Формат сэмплов : 44.100 Гц; 16 бит; стерео

TOC извлечённого CD

Трек | Старт | Длительность | Начальный сектор | Конечный сектор
---------------------------------------------------------------------
1 | 0:00.00 | 3:44.61 | 0 | 16860
2 | 3:44.61 | 4:19.68 | 16861 | 36353
3 | 8:04.54 | 3:48.21 | 36354 | 53474
4 | 11:53.00 | 3:23.14 | 53475 | 68713
5 | 15:16.14 | 4:15.26 | 68714 | 87864
6 | 19:31.40 | 3:55.58 | 87865 | 105547
7 | 23:27.23 | 3:50.17 | 105548 | 122814
8 | 27:17.40 | 3:46.38 | 122815 | 139802
9 | 31:04.03 | 3:28.15 | 139803 | 155417
10 | 34:32.18 | 4:29.00 | 155418 | 175592
11 | 39:01.18 | 3:50.22 | 175593 | 192864
12 | 42:51.40 | 3:42.17 | 192865 | 209531
13 | 49:05.57 | 22:51.74 | 220932 | 323830

Характеристики диапазона извлечения и сообщения об ошибках

Выбранный диапазон

Имя файла E:Discography (lossless)НаталиНатали - Не влюбляйсяНатали - Не влюбляйся.wav

Пиковый уровень 98.9 %
Качество диапазона 100.0 %
CRC теста 46F831AB
CRC копии 46F831AB
Копирование... OK

Ошибок не произошло

AccurateRip: сводка

Трек 1 нет в базе данных
Трек 2 нет в базе данных
Трек 3 нет в базе данных
Трек 4 нет в базе данных
Трек 5 нет в базе данных
Трек 6 нет в базе данных
Трек 7 нет в базе данных
Трек 8 нет в базе данных
Трек 9 нет в базе данных
Трек 10 нет в базе данных
Трек 11 нет в базе данных
Трек 12 нет в базе данных

Ни одного трека нет в базе AccurateRip

Конец отчёта
2003 - Гармония

Exact Audio Copy V0.99 prebeta 5 from 4. May 2009

Отчёт EAC об извлечении, выполненном 7. декабря 2009, 16:51

Натали / Гармония

Дисковод: ASUS DRW-1814BL Adapter: 1 ID: 0

Режим чтения : Достоверность
Использование точного потока : Да
Отключение кэша аудио : Да
Использование указателей C2 : Нет

Коррекция смещения при чтении : 6
Способность читать области Lead-in и Lead-out : Нет
Заполнение пропущенных сэмплов тишиной : Да
Удаление блоков с тишиной в начале и конце : Нет
При вычислениях CRC использовались нулевые сэмплы : Да
Интерфейс : Установленный внешний ASPI-интерфейс

Выходной формат : Внутренние WAV-операции
Формат сэмплов : 44.100 Гц; 16 бит; стерео

TOC извлечённого CD

Трек | Старт | Длительность | Начальный сектор | Конечный сектор
---------------------------------------------------------------------
1 | 0:00.00 | 3:45.18 | 0 | 16892
2 | 3:45.18 | 4:28.66 | 16893 | 37058
3 | 8:14.09 | 3:42.25 | 37059 | 53733
4 | 11:56.34 | 3:17.21 | 53734 | 68529
5 | 15:13.55 | 4:13.59 | 68530 | 87563
6 | 19:27.39 | 3:22.43 | 87564 | 102756
7 | 22:50.07 | 3:26.15 | 102757 | 118221
8 | 26:16.22 | 3:47.63 | 118222 | 135309
9 | 30:04.10 | 3:58.28 | 135310 | 153187
10 | 34:02.38 | 3:33.16 | 153188 | 169178
11 | 37:35.54 | 3:42.62 | 169179 | 185890
12 | 41:18.41 | 3:48.18 | 185891 | 203008
13 | 45:06.59 | 3:50.73 | 203009 | 220331
14 | 48:57.57 | 3:50.52 | 220332 | 237633
15 | 52:48.34 | 3:46.23 | 237634 | 254606
16 | 56:34.57 | 3:28.51 | 254607 | 270257
17 | 60:03.33 | 3:23.53 | 270258 | 285535
18 | 63:27.11 | 4:09.02 | 285536 | 304212
19 | 67:36.13 | 4:00.69 | 304213 | 322281
20 | 71:37.07 | 3:21.60 | 322282 | 337416

Характеристики диапазона извлечения и сообщения об ошибках

Выбранный диапазон

Имя файла E:Discography (lossless)Натали2003.ГармонияНатали - Гармония.wav

Пиковый уровень 99.6 %
Качество диапазона 100.0 %
CRC теста C1A052E4
CRC копии C1A052E4
Копирование... OK

Ошибок не произошло

AccurateRip: сводка

Трек 1 нет в базе данных
Трек 2 нет в базе данных
Трек 3 нет в базе данных
Трек 4 нет в базе данных
Трек 5 нет в базе данных
Трек 6 нет в базе данных
Трек 7 нет в базе данных
Трек 8 нет в базе данных
Трек 9 нет в базе данных
Трек 10 нет в базе данных
Трек 11 нет в базе данных
Трек 12 нет в базе данных
Трек 13 нет в базе данных
Трек 14 нет в базе данных
Трек 15 нет в базе данных
Трек 16 нет в базе данных
Трек 17 нет в базе данных
Трек 18 нет в базе данных
Трек 19 нет в базе данных
Трек 20 нет в базе данных

Ни одного трека нет в базе AccurateRip

Конец отчёта
2004 - De Luxe Collection

Exact Audio Copy V0.99 prebeta 5 from 4. May 2009

Отчёт EAC об извлечении, выполненном 3. декабря 2010, 22:59

Натали / De Luxe Collection

Дисковод: PIONEER DVD-RW DVR-111D Adapter: 5 ID: 3

Режим чтения : Достоверность
Использование точного потока : Да
Отключение кэша аудио : Да
Использование указателей C2 : Нет

Коррекция смещения при чтении : 48
Способность читать области Lead-in и Lead-out : Нет
Заполнение пропущенных сэмплов тишиной : Да
Удаление блоков с тишиной в начале и конце : Нет
При вычислениях CRC использовались нулевые сэмплы : Да
Интерфейс : Встроенный Win32-интерфейс для Win NT/2000

Выходной формат : Внутренние WAV-операции
Формат сэмплов : 44.100 Гц; 16 бит; стерео

TOC извлечённого CD

Трек | Старт | Длительность | Начальный сектор | Конечный сектор
---------------------------------------------------------------------
1 | 0:00.00 | 3:45.33 | 0 | 16907
2 | 3:45.33 | 4:01.20 | 16908 | 35002
3 | 7:46.53 | 3:29.02 | 35003 | 50679
4 | 11:15.55 | 4:16.29 | 50680 | 69908
5 | 15:32.09 | 3:38.14 | 69909 | 86272
6 | 19:10.23 | 3:40.64 | 86273 | 102836
7 | 22:51.12 | 3:10.60 | 102837 | 117146
8 | 26:01.72 | 3:25.43 | 117147 | 132564
9 | 29:27.40 | 3:53.60 | 132565 | 150099
10 | 33:21.25 | 3:31.33 | 150100 | 165957
11 | 36:52.58 | 3:19.63 | 165958 | 180945
12 | 40:12.46 | 3:20.34 | 180946 | 195979
13 | 43:33.05 | 3:19.69 | 195980 | 210973
14 | 46:52.74 | 3:50.55 | 210974 | 228278
15 | 50:43.54 | 3:28.24 | 228279 | 243902
16 | 54:12.03 | 3:24.38 | 243903 | 259240
17 | 57:36.41 | 3:36.10 | 259241 | 275450
18 | 61:12.51 | 3:55.48 | 275451 | 293123
19 | 65:08.24 | 3:46.36 | 293124 | 310109
20 | 68:54.60 | 4:49.37 | 310110 | 331821
21 | 73:44.22 | 3:53.61 | 331822 | 349357

Характеристики диапазона извлечения и сообщения об ошибках

Выбранный диапазон

Имя файла S:НаталиНатали - De Luxe Collection.wav

Пиковый уровень 98.8 %
Качество диапазона 100.0 %
CRC теста A9464FDC
CRC копии A9464FDC
Копирование... OK

Ошибок не произошло

Конец отчёта
2004 - Все,что мне надо

Exact Audio Copy V0.99 prebeta 4 from 23. January 2008

Отчёт EAC об извлечении, выполненном 26. августа 2008, 0:15

Натали / Все,что мне надо

Дисковод: ASUS DRW-1814BL Adapter: 3 ID: 0

Режим чтения : Достоверность
Использование точного потока : Да
Отключение кэша аудио : Да
Использование указателей C2 : Нет

Коррекция смещения при чтении : 6
Способность читать области Lead-in и Lead-out : Нет
Заполнение пропущенных сэмплов тишиной : Да
Удаление блоков с тишиной в начале и конце : Нет
При вычислениях CRC использовались нулевые сэмплы : Нет
Интерфейс : Встроенный Win32-интерфейс для Win NT/2000

Выходной формат : Внутренние WAV-операции
Формат сэмплов : 44.100 Гц; 16 бит; стерео

TOC извлечённого CD

Трек | Старт | Длительность | Начальный сектор | Конечный сектор
---------------------------------------------------------------------
1 | 0:00.00 | 4:26.32 | 0 | 19981
2 | 4:26.32 | 3:35.15 | 19982 | 36121
3 | 8:01.47 | 3:30.07 | 36122 | 51878
4 | 11:31.54 | 4:03.30 | 51879 | 70133
5 | 15:35.09 | 3:30.39 | 70134 | 85922
6 | 19:05.48 | 3:07.50 | 85923 | 99997
7 | 22:13.23 | 3:23.20 | 99998 | 115242
8 | 25:36.43 | 3:23.60 | 115243 | 130527
9 | 29:00.28 | 3:41.41 | 130528 | 147143
10 | 32:41.69 | 3:29.30 | 147144 | 162848
11 | 36:11.24 | 3:12.06 | 162849 | 177254
12 | 39:23.30 | 3:22.01 | 177255 | 192405
13 | 42:45.31 | 3:35.05 | 192406 | 208535
14 | 46:20.36 | 3:02.00 | 208536 | 222185
15 | 49:22.36 | 3:34.56 | 222186 | 238291
16 | 55:29.17 | 9:24.60 | 249692 | 292051

Характеристики диапазона извлечения и сообщения об ошибках

Выбранный диапазон

Имя файла E:Discography (lossless)НаталиНатали - Все,что мне надоНатали - Все,что мне надо.wav

Пиковый уровень 100.0 %
Качество диапазона 100.0 %
CRC теста 9449BE6E
CRC копии 9449BE6E
Копирование... OK

Ошибок не произошло

AccurateRip: сводка

Трек 1 нет в базе данных
Трек 2 нет в базе данных
Трек 3 нет в базе данных
Трек 4 нет в базе данных
Трек 5 нет в базе данных
Трек 6 нет в базе данных
Трек 7 нет в базе данных
Трек 8 нет в базе данных
Трек 9 нет в базе данных
Трек 10 нет в базе данных
Трек 11 нет в базе данных
Трек 12 нет в базе данных
Трек 13 нет в базе данных
Трек 14 нет в базе данных
Трек 15 нет в базе данных

Ни одного трека нет в базе AccurateRip

Конец отчёта
2004 - Я люблю тебя

Exact Audio Copy V0.99 prebeta 4 from 23. January 2008

Отчёт EAC об извлечении, выполненном 25. августа 2008, 23:20

Натали / Я люблю тебя (Новое и лучшее)

Дисковод: ASUS DRW-1814BL Adapter: 3 ID: 0

Режим чтения : Достоверность
Использование точного потока : Да
Отключение кэша аудио : Да
Использование указателей C2 : Нет

Коррекция смещения при чтении : 6
Способность читать области Lead-in и Lead-out : Нет
Заполнение пропущенных сэмплов тишиной : Да
Удаление блоков с тишиной в начале и конце : Нет
При вычислениях CRC использовались нулевые сэмплы : Нет
Интерфейс : Встроенный Win32-интерфейс для Win NT/2000

Выходной формат : Внутренние WAV-операции
Формат сэмплов : 44.100 Гц; 16 бит; стерео

TOC извлечённого CD

Трек | Старт | Длительность | Начальный сектор | Конечный сектор
---------------------------------------------------------------------
1 | 0:00.00 | 4:03.67 | 0 | 18291
2 | 4:03.67 | 4:28.32 | 18292 | 38423
3 | 8:32.24 | 3:37.15 | 38424 | 54713
4 | 12:09.39 | 3:25.20 | 54714 | 70108
5 | 15:34.59 | 4:05.30 | 70109 | 88513
6 | 19:40.14 | 3:32.07 | 88514 | 104420
7 | 23:12.21 | 3:45.52 | 104421 | 121347
8 | 26:57.73 | 4:16.69 | 121348 | 140616
9 | 31:14.67 | 3:30.13 | 140617 | 156379
10 | 34:45.05 | 3:54.55 | 156380 | 173984
11 | 38:39.60 | 4:02.15 | 173985 | 192149
12 | 42:42.00 | 3:37.23 | 192150 | 208447
13 | 46:19.23 | 3:27.58 | 208448 | 224030
14 | 49:47.06 | 3:41.60 | 224031 | 240665
15 | 53:28.66 | 3:21.21 | 240666 | 255761
16 | 56:50.12 | 3:52.17 | 255762 | 273178
17 | 60:42.29 | 3:53.73 | 273179 | 290726
18 | 64:36.27 | 3:31.30 | 290727 | 306581
19 | 68:07.57 | 3:25.60 | 306582 | 322016
20 | 71:33.42 | 3:22.01 | 322017 | 337167

Характеристики диапазона извлечения и сообщения об ошибках

Выбранный диапазон

Имя файла E:Discography (lossless)НаталиНатали - Я люблю тебя (Новое и лучшее)Натали - Я люблю тебя (Новое и лучшее).wav

Пиковый уровень 99.0 %
Качество диапазона 100.0 %
CRC теста A81A3DC6
CRC копии A81A3DC6
Копирование... OK

Ошибок не произошло

AccurateRip: сводка

Трек 1 нет в базе данных
Трек 2 нет в базе данных
Трек 3 нет в базе данных
Трек 4 нет в базе данных
Трек 5 нет в базе данных
Трек 6 нет в базе данных
Трек 7 нет в базе данных
Трек 8 нет в базе данных
Трек 9 нет в базе данных
Трек 10 нет в базе данных
Трек 11 нет в базе данных
Трек 12 нет в базе данных
Трек 13 нет в базе данных
Трек 14 нет в базе данных
Трек 15 нет в базе данных
Трек 16 нет в базе данных
Трек 17 нет в базе данных
Трек 18 нет в базе данных
Трек 19 нет в базе данных
Трек 20 нет в базе данных

Ни одного трека нет в базе AccurateRip

Конец отчёта
2009 - Русалочка

Exact Audio Copy V0.99 prebeta 4 from 23. January 2008

Отчёт EAC об извлечении, выполненном 13. октября 2008, 21:01

Натали / Русалочка

Дисковод: HL-DT-STDVDRAM GSA-4167B Adapter: 1 ID: 1

Режим чтения : Достоверность
Использование точного потока : Да
Отключение кэша аудио : Да
Использование указателей C2 : Нет

Коррекция смещения при чтении : 667
Способность читать области Lead-in и Lead-out : Нет
Заполнение пропущенных сэмплов тишиной : Да
Удаление блоков с тишиной в начале и конце : Нет
При вычислениях CRC использовались нулевые сэмплы : Да
Интерфейс : Встроенный Win32-интерфейс для Win NT/2000

Выходной формат : Внутренние WAV-операции
Формат сэмплов : 44.100 Гц; 16 бит; стерео

TOC извлечённого CD

Трек | Старт | Длительность | Начальный сектор | Конечный сектор
---------------------------------------------------------------------
1 | 0:00.30 | 2:58.51 | 30 | 13430
2 | 2:59.06 | 3:25.47 | 13431 | 28852
3 | 6:24.53 | 3:24.26 | 28853 | 44178
4 | 9:49.04 | 3:46.53 | 44179 | 61181
5 | 13:35.57 | 3:25.45 | 61182 | 76601
6 | 17:01.27 | 4:01.45 | 76602 | 94721
7 | 21:02.72 | 3:40.52 | 94722 | 111273
8 | 24:43.49 | 3:17.44 | 111274 | 126092
9 | 28:01.18 | 3:28.44 | 126093 | 141736
10 | 31:29.62 | 3:25.12 | 141737 | 157123

Характеристики диапазона извлечения и сообщения об ошибках

Выбранный диапазон

Имя файла C:Documents and SettingsVladimirРабочий столНатали - РусалочкаUnknown Artist - Русалочка.wav

Пиковый уровень 87.7 %
Качество диапазона 99.9 %
CRC копии F6D0A49E
Копирование... OK

Ошибок не произошло

AccurateRip: сводка

Трек 1 нет в базе данных
Трек 2 нет в базе данных
Трек 3 нет в базе данных
Трек 4 нет в базе данных
Трек 5 нет в базе данных
Трек 6 нет в базе данных
Трек 7 нет в базе данных
Трек 8 нет в базе данных
Трек 9 нет в базе данных
Трек 10 нет в базе данных

Ни одного трека нет в базе AccurateRip

Конец отчёта
2009 - Семнадцать мгновений любви

Exact Audio Copy V0.99 prebeta 5 from 4. May 2009

Отчёт EAC об извлечении, выполненном 18. декабря 2009, 20:57

Натали / Семнадцать мгновений любви

Дисковод: ASUS DRW-1814BL Adapter: 1 ID: 0
Музыка / Lossless / Дискографии (Поп музыка)
СКАЧАТЬ БЕСПЛАТНО  [5.8 GB]


08
сен
2012

Ди-Бронкс & Натали - Дискография [1996-2002, Eurodance, MP3]

Формат: MP3, tracks, 256kbps
Год выпуска: 1996-2002
Страна: Беларусь
Жанр: Eurodance
Продолжительность: 03:35:12
Описание: Albums: Зона всемирной вечеринки 1996 00 01 - Intro [01:46] 02 - Энергия любви [05:01] 03 - Почувствуй ритм [04:09] 04 - Живешь только дважды [04:26] 05 - Поколение Свободы [04:51] 06 - Твоя Звезда [03:38] 07 - Midtro [04:56] 08 - Улицы Бронкса [04:24] 09 - Два Сердца [04:15] 10 - Fight 2 Right [04:08] 11 - Твоя Звезда Mix [03:38] 12 - Энергия Любви Mix [04:47] 13 - Find The Feelings [04:19] 14 - Outro [01:56] Земля мечты 1997 00 01 - Пролог [03:08] 02 - Изо Всех Сил '97 [ ...

15
окт
2011

Натали - Видеоклипы [1996-2006, Pop, DVD5]

Формат: DVD5, DVD Video, MPEG2, AC3
Песня: Видеоклипы
Жанр: Pop
Продолжительность: 01:00:07
Год выпуска: 1996-2006
Видео: 704x576 (PAL 4:3), 25 fps, MPEG-2, ~7863 kbps avg, 0.776 bit/pixel
Аудио: 48 kHz, AC-3, 2 ch, 192 kbps avg
Доп. информация:
Треклист: 01. Снежная роза 02. Звезда по имени Солнце 03. Ветер с моря дул 04. Облака 05. Не стерпелось, не слюбилось 06. Считалочка 07. Черепашка 08. Первая любовь 09. Черепашка (remix) 10. Часто-часто 11. Конфетка 12. Мир без тебя 13. Море цвета джинсов 14. Все, что мне надо 15. Вот как 16. Ветер с моря дул 2006

13
сен
2008

Натали - видеоклипы[2006, поп]

Формат: DVDRip, AVI, DivX, MP3
Исполнитель: Натали
Песня: видеоклипы
Жанр: поп
Продолжительность: 63мин
Год выпуска: 2006
Видео: 560x352 (1.59:1), 25 fps, DivX Codec 5.x or 6.x ~1682 kbps avg, 0.34 bit/pixel
Аудио: 44.100 kHz, MPEG Layer 3, 2 ch, ~256.00 kbps avg
Клипы: 01. Ветер с моря дул 02. Ветер с моря дул - remix 03. Вот как 04. Звезда по имени солнце 05. Конфетка 06. Любовь 07. Мир 08. Море цвета джинсов 09. Не стерпелось 10. Облака 11. Снежная роза 12. Считалочка 13. Часто 14. Черепашка 15. Черепашка - remix 16. Что надо Популярность приходит к Натали в 1998 году, вме ...

03
мар
2009

Натали- Первый луч [2009, Popmusic,MP3]

Формат: MP3, tracks, 320kbps
Год выпуска: 2009
Страна: Россия
Жанр: Pop
Продолжительность: 01:02:10
Трэклист: 01. Первый луч 02. Включай любовь 03. Я люблю тебя 04. Война и мир 05. Бриллиантовая 06. Блонди 07. Река мечты(feat.О.Кушанишвили) 08. Гармония 09. Музыка 10. Новогодняя ночь 11. Там где любовь 12. Кукла(feat.Иванушки) 13. Ветер перемен 14. Такого как Путин 15. Девушки бывают разные 16. Ветер с моря(ремикс)
Доп. информация: Очередной "пиратский" сборник певицы.
Видео: **http://rutube.ru/tracks/1420018.html?v=0a78e8759cae8a269730dff58e9cc5f3**

03
янв
2018

Натали - Фильм-концерт [1999, Поп, VHSRip]

Формат: VHSRip, AVI, XviD, MP3
Песня: Фильм-концерт
Жанр: Поп
Продолжительность: 00:58:59
Год выпуска: 1999
Видео: 640x480 (1.33:1), 24.870 fps, XviD build 67 ~939 kbps avg, 0.12 bit/pixel
Аудио: 48 kHz, MPEG Layer 3, 2 ch, ~128.00 kbps avg
Доп. информация: Данный фильм-концерт представляет из себя фрагменты концерта Натали в ГЦКЗ Россия в 1999 году и вставок из интервью родственников, учителей, друзей.

12
окт
2011

Натали - Первая любовь [2001, Рор, DVD5]

Формат: DVD5, DVD Video, MPEG2, AC3
Песня: Первая любовь
Жанр: Рор
Продолжительность: 01:06:19
Год выпуска: 2001
Видео: 720х576 (PAL 4:3), 25 fps, MPEG-2, ~6006 kbps avg, 0.579 bit/pixel
Аудио: 48 kHz, AC-3 , 6 ch (Front: L C R, Side: L R, LFE), 384.00 kbps avg
Доп. информация: Популярность к Натали пришла в 1998 году вместе с песней «Ветер с моря дул» и одноименным альбомом. Эта песня по итогам 1998 года вошла в пятёрку наиболее популярных в то время и стала визитной карточкой певицы. Альбом был выпущен рекордным тиражом. В 1999 году вышел в свет новый альбом «Считалочка». На три песни из а ...

28
ноя
2014

Натали - Платье на бретелях NEW [2014, Pop, WEBRip 1080p]

Формат: WEBRip, MP4, H.264, AAC
Песня: Платье на бретелях NEW
Жанр: Pop
Продолжительность: 00:04:18
Год выпуска: 2014
Видео: 1920x1080р (16:9), 25,000fps, AVC (x264) High@L4.0, ~ 1814 kbps avg, 0.035bit/pixel
Аудио: 44,1KHz, AAC-LC, 2ch, ~ 254 Kbps avg
Доп. информация: MediaInfoОбщее Полное имя : B:Натали - Платье на бретелях NEW.mp4 Формат : MPEG-4 Профиль формата : Base Media / Version 2 Идентификатор кодека : mp42 Размер файла : 63,8 Мбайт Продолжительность : 4 м. 18 с. Режим общего битрейта : Переменный Общий поток : 2072 Кбит/сек Видео Идентификатор : 1 Формат : AVC Формат/Информация ...

18
окт
2009

Степан Гига - Улица Натали [2001, Поп, MP3]

Формат: MP3, tracks, 192kbps
Год выпуска: 2001
Страна: Украина
Жанр: Pop
Продолжительность: 01:09:27
Описание: 1. Вулиця Наталі 2. Королева 3. Біла Вуаль 4. Достигає Вишня 5. Любов Стороною Іде 6. Любов То Сон 7. Любов, Любов 8. Мальвіна і Пєро 9. Міжгір'я 10. Мій Оберіг 11. Остання Ніч 12. Пробач 13. Слава Забава 14. Ти Не Повірила 15. У Райському Саду
Доп. информация: В 2002 году за этот альбом Степан Гига получил Золотой диск.

07
дек
2007

Dи-Бронкс Натали - 3 Альбома [1996-2002,Popmusic,MP3]

Страна: БЕЛОРУССИЯ
Жанр: Поп Музыка
Продолжительность: 2.41.20
Формат: MP3
Битрейт аудио: 256-320kb/s
Трэклист: Dи-Бронкс & Натали - Зона Всемирной Вечеринки 1996 01. Intro (Ключ на Старт) 02. Энергия Любви (Album Version) 03. Почувствуй Ритм 04. Живешь Только Дважды 05. Поколение Свободы 06. Твоя Звезда 07. Midtro Полёт World Of X-T-C 08. Улицы Бронкса 09. Два Сердца 10. Fight 2 Right 11. Твоя Звезда (Up-Down Mix) 12. Энергия Любви (Dance 2 Trance Remix) 13. Find The Feelings 14. Outro Dи-Бронкс & Натали - Земля Мечты 1997 01. Пролог 02. Изо Всех Сил 03. Земля Мечты 04. Я Хочу Быть С Тобой ...

22
янв
2017

Натали - Сборник лучших клипов (1996 - 2013) [2013, Pop, HDTVRip-AVC]

Формат: HDTVRip-AVC, MKV, H.264, AC3
Песня: Сборник лучших клипов
Жанр: Pop
Продолжительность: 00:34:31
Год выпуска: 2013
Видео: 1280x720 (16:9) 25.000 fps, MPEG4 AVC (x264) Main@L3.1, 6 676 Kbps avg, 0.289 bit/pixel
Аудио: 48 kHz, AC3 Dolby Digital, 2 ch (L, R) ~192 kbps avg
Доп. информация: Треклист 1. Ветер с моря дул (1998) 2. Считалочка (1999) 3. Снежная роза (1996) 4. Звезда по имени Солнце (1998) 5. Мир без тебя (2002) 6. Первая любовь (2000) 7. Не стерпелось, не слюбилось (1998) 8. Облака (1998) 9. О, Боже, какой мужчина (2013)MI General Unique ID : 434063845550269874386403468880574011 ...

23
фев
2017

Юрий Кривицкий и Натали Черняк - Бабочка красивая [2009, Шансон, MP3]

Формат: MP3, tracks, 320kbps
Год выпуска: 2009
Страна: Россия
Жанр: Шансон
Продолжительность: 00:41:47
Описание: 01. Калифорния 02. Снег 03. Бедное сердце 04. Бабочка красивая 05. Изя Шмеерсон 06. Бес тебя попутал 07. Между нами 08. Золотые купола (Касинский) 09. Чисто поезд 10. Дождь (Трофим) 11. Дорога
Доп. информация: Спасибо
Ник: jorik

29
дек
2013

Николай Басков и Натали - Николай [2013, Pop, WEBRip 1080p]

Формат: WEBRip, MP4, H.264, AAC
Песня: Николай
Жанр: Pop
Продолжительность: 00:05:20
Год выпуска: 2013
Видео: 1920x1080р (16:9), 25,000 fps, AVC High@L4.0, ~ 4131 kbps avg, 0.080 bit/pixel
Аудио: 44.1KHz, AAC-LC, 2ch, ~ 126 Kbps avg
Доп. информация: MediaInfoОбщее Полное имя : D:Николай Басков и Натали - Николай.mp4 Формат : MPEG-4 Профиль формата : Base Media Идентификатор кодека : isom Размер файла : 163 Мбайт Продолжительность : 5 м. 20 с. Общий поток : 4261 Кбит/сек Программа кодирования : Lavf54.63.104 Видео Идентификатор : 1 Формат : AVC Формат/Информация : Advanced Video Codec Профи ...

17
июл
2009

The Used - Дискография [2002 - 2009, Mall-Emo]

Формат: MP3, tracks
Год выпуска: 2002 - 2009
Общая продолжительность: 02:46:47
Страна:
Жанр: Mall-Emo [br][br][br][br][br][br][br][br][br][br][br][br][br][br][br][br][br][br][br][br][br][br][br][br]
Дискография: The Used (2002) Битрейт / Bitrate: 320 kbps Трэклист / Tracklist: 1. Maybe memories 2. The taste of ink 3. Bulimic 4. Say days ago 5. Poetic tragedy 6. Buried myself alive 7. A box full of sharp objects 8. Blue and yellow 9. Greener with the scenery 10. Noise and kisses 11. On my own 12. Pieces mended In Love & Death (2004) Битрейт / Bitrate: 320 kbps Трэклист / Tracklist ...

17
апр
2012

The The - Дискография [1981 - 2002, Post-Punk, Alternative, MP3]

Формат: MP3, tracks, 192 - 320kbps
Год выпуска: 1981 - 2002
Страна: United Kingdom
Жанр: Post-Punk, Alternative
Продолжительность: 10:05:20
Описание: The The (Matt Johnson) Альбомы 1981 - Burning Blue Soul 00 01. "Red Cinders in the Sand" - 5:42 02. "Song Without an Ending" - 4:35 03. "Time (Again) for the Golden Sunset" - 3:51 04. "Icing Up" - 7:36 05. "(Like a) Sun Rising Through My Garden" - 5:01 06. "Out of Control" - 2:01 07. "Bugle Boy" - 2:27 08. "Delirious" - 3:33 09. "The River Flows East in Spring" - 3:33 10. "Another Boy Drowning" - 5:53 1983 - Soul Mining 00 01. "I've Been Waiting ...

08
ноя
2011

Down - Дискография [1995-2010, Heavy metal, Sludge metal, Stoner metal, MP3]

Формат: MP3, tracks, 320kbps
Год выпуска: 1995-2010
Страна: США
Жанр: Heavy metal, Sludge metal, Stoner metal
Продолжительность: 05:10:08
Описание: Down - NOLA 1995 00 1. Temptation's Wings 4:24 2. Lifer 4:36 3. Pillars of Eternity 3:57 4. Rehab 4:03 5. Hail the Leaf 3:28 6. Underneath Everything 4:46 7. Eyes of the South 5:13 8. Jail 5:17 9. Losing All 4:21 10. Stone the Crow 4:42 11. Pray for the Locust 1:07 12. Swan Song 3:35 13. Bury Me in Smoke 7:04 Down II - A Bustle in Your Hedgerow 2001 01 1. Lysergik Funeral Procession 3:10 2. There's Something on My Side 5:21 3. The Man that Follows ...