19
мар
2015

Joe Dassin - Integrale Albums (15CD) [2000, Chanson, Rhythm Blues, Pop, Folk, FLAC]

Joe Dassin - Integrale Albums (15CD)

Формат: FLAC, (image + .cue), lossless
Год выпуска: 2000
Страна: France
Жанр: Chanson, Rhythm & Blues, Pop, Folk
Продолжительность: 08:19:05
Описание:
1966 Joe Dassin A New York 00
Joe Dassin - Integrale Albums
01. Excuse Me, Lady
02. Sometime Lovin`
03. Guantanamera
04. Je Change Un Peu De Vent
05. Celle Que J`Oublie
06. Comme La Lune
07. Petite Mama
08. Joli Minou
09. Dans La Brume Du Matin
10. Vive Moi
11. Katy Cruel
12. Ca M`Avance A Quoi?

eac
Exact Audio Copy V0.99 prebeta 4 from 23. January 2008

Отчёт EAC об извлечении, выполненном 10. сентября 2009, 2:00

Joe Dassin / Joe Dassin A New York

Дисковод: HL-DT-STDVD-RW GWA-4040N Adapter: 1 ID: 0

Режим чтения : Достоверность
Использование точного потока : Да
Отключение кэша аудио : Да
Использование указателей C2 : Нет

Коррекция смещения при чтении : 48
Способность читать области Lead-in и Lead-out : Нет
Заполнение пропущенных сэмплов тишиной : Да
Удаление блоков с тишиной в начале и конце : Нет
При вычислениях CRC использовались нулевые сэмплы : Да
Интерфейс : Установленный внешний ASPI-интерфейс

Выходной формат : Пользовательский кодировщик
Выбранный битрейт : 768 kBit/s
Качество : Высокий
Добавление ID3-тэга : Да
Утилита сжатия : C:Program FilesExact Audio CopyFLACFLAC.EXE
Дополнительные параметры : -6 -V -T "ARTIST=%a" -T "TITLE=%t" -T "ALBUM=%g" -T "DATE=%y" -T "TRACKNUMBER=%n" -T "GENRE=%m" -T "COMMENT=%e" %s -o %d

TOC извлечённого CD

Трек | Старт | Длительность | Начальный сектор | Конечный сектор
---------------------------------------------------------------------
1 | 0:00.32 | 2:30.45 | 32 | 11326
2 | 2:31.02 | 2:45.18 | 11327 | 23719
3 | 5:16.20 | 2:54.72 | 23720 | 36841
4 | 8:11.17 | 2:22.55 | 36842 | 47546
5 | 10:33.72 | 2:34.40 | 47547 | 59136
6 | 13:08.37 | 3:39.30 | 59137 | 75591
7 | 16:47.67 | 2:37.43 | 75592 | 87409
8 | 19:25.35 | 2:12.60 | 87410 | 97369
9 | 21:38.20 | 3:24.05 | 97370 | 112674
10 | 25:02.25 | 2:35.60 | 112675 | 124359
11 | 27:38.10 | 1:57.40 | 124360 | 133174
12 | 29:35.50 | 2:35.40 | 133175 | 144839

Характеристики диапазона извлечения и сообщения об ошибках

Выбранный диапазон

Имя файла C:DownloadsJoe Dassin - Integrale Albums - Limited Edition 15CDCD 1 - Joe Dassin - Joe Dassin A New York - 1966Joe Dassin - Joe Dassin A New York.wav

Пиковый уровень 100.0 %
Качество диапазона 100.0 %
CRC теста E63417EA
CRC копии E63417EA
Копирование... OK

Ошибок не произошло

AccurateRip: сводка

Трек 1 точное извлечение (доверие 1) [27D44F1E]
Трек 2 точное извлечение (доверие 1) [52408C7F]
Трек 3 точное извлечение (доверие 1) [EE26051E]
Трек 4 точное извлечение (доверие 1) [86919BF6]
Трек 5 точное извлечение (доверие 1) [C29E9039]
Трек 6 точное извлечение (доверие 1) [F70F8F38]
Трек 7 точное извлечение (доверие 1) [CBEF535C]
Трек 8 точное извлечение (доверие 1) [C11EDE97]
Трек 9 точное извлечение (доверие 1) [56E7C723]
Трек 10 точное извлечение (доверие 1) [4C08144E]
Трек 11 точное извлечение (доверие 1) [60AD1097]
Трек 12 точное извлечение (доверие 1) [A25C594D]

Все треки извлечены точно

Конец отчёта
1967 Les Deux Mondes De Joe Dassin 00
Joe Dassin - Integrale Albums
01. Les Dalton
02. Pauvre Doudou
03. Tout Bebe A Besoin D`Une Maman
04. The Last Thing Of My Mind
05. St. James Infirmary Blues
06. L`Ombre D`Un Amour
07. Paper Heart
08. Marie-Jeanne
09. Hello Hello!
10. My Funny Valentine
11. Viens Voir Le Loup

eac
Exact Audio Copy V0.99 prebeta 4 from 23. January 2008

Отчёт EAC об извлечении, выполненном 10. сентября 2009, 1:26

Joe Dassin / Les Deux Mondes De Joe Dassin

Дисковод: HL-DT-STDVD-RW GWA-4040N Adapter: 1 ID: 0

Режим чтения : Достоверность
Использование точного потока : Да
Отключение кэша аудио : Да
Использование указателей C2 : Нет

Коррекция смещения при чтении : 48
Способность читать области Lead-in и Lead-out : Нет
Заполнение пропущенных сэмплов тишиной : Да
Удаление блоков с тишиной в начале и конце : Нет
При вычислениях CRC использовались нулевые сэмплы : Да
Интерфейс : Установленный внешний ASPI-интерфейс

Выходной формат : Пользовательский кодировщик
Выбранный битрейт : 768 kBit/s
Качество : Высокий
Добавление ID3-тэга : Да
Утилита сжатия : C:Program FilesExact Audio CopyFLACFLAC.EXE
Дополнительные параметры : -6 -V -T "ARTIST=%a" -T "TITLE=%t" -T "ALBUM=%g" -T "DATE=%y" -T "TRACKNUMBER=%n" -T "GENRE=%m" -T "COMMENT=%e" %s -o %d

TOC извлечённого CD

Трек | Старт | Длительность | Начальный сектор | Конечный сектор
---------------------------------------------------------------------
1 | 0:00.32 | 2:41.55 | 32 | 12161
2 | 2:42.12 | 2:46.33 | 12162 | 24644
3 | 5:28.45 | 3:10.62 | 24645 | 38956
4 | 8:39.32 | 2:58.15 | 38957 | 52321
5 | 11:37.47 | 3:13.05 | 52322 | 66801
6 | 14:50.52 | 2:55.28 | 66802 | 79954
7 | 17:46.05 | 2:17.15 | 79955 | 90244
8 | 20:03.20 | 4:14.12 | 90245 | 109306
9 | 24:17.32 | 2:23.23 | 109307 | 120054
10 | 26:40.55 | 4:19.20 | 120055 | 139499
11 | 31:00.00 | 2:56.10 | 139500 | 152709

Характеристики диапазона извлечения и сообщения об ошибках

Выбранный диапазон

Имя файла C:DownloadsJoe Dassin - Integrale Albums - Limited Edition 15CDCD 2 - Joe Dassin - Les Deux Mondes De Joe Dassin - 1967Joe Dassin - Les Deux Mondes De Joe Dassin.wav

Пиковый уровень 99.3 %
Качество диапазона 100.0 %
CRC теста 1C98569F
CRC копии 1C98569F
Копирование... OK

Ошибок не произошло

AccurateRip: сводка

Трек 1 нет в базе данных
Трек 2 нет в базе данных
Трек 3 нет в базе данных
Трек 4 нет в базе данных
Трек 5 нет в базе данных
Трек 6 нет в базе данных
Трек 7 нет в базе данных
Трек 8 нет в базе данных
Трек 9 нет в базе данных
Трек 10 нет в базе данных
Трек 11 нет в базе данных

Ни одного трека нет в базе AccurateRip

Конец отчёта
1969 Les Champs-Élysées 00
Joe Dassin - Integrale Albums
01. Le Chemin De Papa
02. Le Petit Pain Au Chocolat
03. Les Champs-Elysees
04. Siffler Sur La Colline
05. Mon Village Du Bout Du Monde
06. Me Que Me Que
07. Ma Bonne Etoile
08. Un Peu Comme Toi
09. La Bande A Bonnot
10. La Violette Africaine
11. Le Temps Des Oeufs Au Plat
12. Sunday Times

eac
Exact Audio Copy V0.99 prebeta 4 from 23. January 2008

Отчёт EAC об извлечении, выполненном 10. сентября 2009, 2:41

Joe Dassin / Les Champs-Elysees

Дисковод: HL-DT-STDVD-RW GWA-4040N Adapter: 1 ID: 0

Режим чтения : Достоверность
Использование точного потока : Да
Отключение кэша аудио : Да
Использование указателей C2 : Нет

Коррекция смещения при чтении : 48
Способность читать области Lead-in и Lead-out : Нет
Заполнение пропущенных сэмплов тишиной : Да
Удаление блоков с тишиной в начале и конце : Нет
При вычислениях CRC использовались нулевые сэмплы : Да
Интерфейс : Установленный внешний ASPI-интерфейс

Выходной формат : Пользовательский кодировщик
Выбранный битрейт : 768 kBit/s
Качество : Высокий
Добавление ID3-тэга : Да
Утилита сжатия : C:Program FilesExact Audio CopyFLACFLAC.EXE
Дополнительные параметры : -6 -V -T "ARTIST=%a" -T "TITLE=%t" -T "ALBUM=%g" -T "DATE=%y" -T "TRACKNUMBER=%n" -T "GENRE=%m" -T "COMMENT=%e" %s -o %d

TOC извлечённого CD

Трек | Старт | Длительность | Начальный сектор | Конечный сектор
---------------------------------------------------------------------
1 | 0:00.32 | 2:30.68 | 32 | 11349
2 | 2:31.25 | 3:26.05 | 11350 | 26804
3 | 5:57.30 | 2:39.47 | 26805 | 38776
4 | 8:37.02 | 2:39.33 | 38777 | 50734
5 | 11:16.35 | 3:20.72 | 50735 | 65806
6 | 14:37.32 | 2:38.58 | 65807 | 77714
7 | 17:16.15 | 2:39.57 | 77715 | 89696
8 | 19:55.72 | 3:00.08 | 89697 | 103204
9 | 22:56.05 | 2:51.57 | 103205 | 116086
10 | 25:47.62 | 3:27.70 | 116087 | 131681
11 | 29:15.57 | 2:53.43 | 131682 | 144699
12 | 32:09.25 | 2:22.12 | 144700 | 155361

Характеристики диапазона извлечения и сообщения об ошибках

Выбранный диапазон

Имя файла C:DownloadsJoe Dassin - Integrale Albums - Limited Edition 15CDCD 3 - Joe Dassin - Les Champs-Elysees - 1969Joe Dassin - Les Champs-Elysees.wav

Пиковый уровень 97.0 %
Качество диапазона 100.0 %
CRC теста F2A04BC1
CRC копии F2A04BC1
Копирование... OK

Ошибок не произошло

AccurateRip: сводка

Трек 1 точное извлечение (доверие 3) [52CD4801]
Трек 2 точное извлечение (доверие 3) [42D284BE]
Трек 3 точное извлечение (доверие 3) [E7D369D0]
Трек 4 точное извлечение (доверие 3) [50118693]
Трек 5 точное извлечение (доверие 3) [ECBDBBDD]
Трек 6 точное извлечение (доверие 3) [4C58099F]
Трек 7 точное извлечение (доверие 3) [88689830]
Трек 8 точное извлечение (доверие 3) [3B0DE5E7]
Трек 9 точное извлечение (доверие 3) [D8FD69CD]
Трек 10 точное извлечение (доверие 3)
Трек 11 точное извлечение (доверие 3) [699FE27C]
Трек 12 точное извлечение (доверие 3) [0F643B66]

Все треки извлечены точно

Конец отчёта
1970 La Fleur Aux Dents 00
Joe Dassin - Integrale Albums
01. La Fleur Aux Dents
02. L`Equipe A Jo Jo
03. C`Est Bon L`Amour
04. Le Portugais
05. Le Grand Parking
06. Un Garcon Nomme Suzy
07. Au Bout Des Rails
08. La Luzerne
09. Un Petit Air De Musique
10. Un Cadeau De Papa
11. Je La Connais Si Bien
12. L`Amerique

eac
Exact Audio Copy V0.99 prebeta 4 from 23. January 2008

Отчёт EAC об извлечении, выполненном 10. сентября 2009, 3:14

Joe Dassin / La Fleur Aux Dents

Дисковод: HL-DT-STDVD-RW GWA-4040N Adapter: 1 ID: 0

Режим чтения : Достоверность
Использование точного потока : Да
Отключение кэша аудио : Да
Использование указателей C2 : Нет

Коррекция смещения при чтении : 48
Способность читать области Lead-in и Lead-out : Нет
Заполнение пропущенных сэмплов тишиной : Да
Удаление блоков с тишиной в начале и конце : Нет
При вычислениях CRC использовались нулевые сэмплы : Да
Интерфейс : Установленный внешний ASPI-интерфейс

Выходной формат : Пользовательский кодировщик
Выбранный битрейт : 768 kBit/s
Качество : Высокий
Добавление ID3-тэга : Да
Утилита сжатия : C:Program FilesExact Audio CopyFLACFLAC.EXE
Дополнительные параметры : -6 -V -T "ARTIST=%a" -T "TITLE=%t" -T "ALBUM=%g" -T "DATE=%y" -T "TRACKNUMBER=%n" -T "GENRE=%m" -T "COMMENT=%e" %s -o %d

TOC извлечённого CD

Трек | Старт | Длительность | Начальный сектор | Конечный сектор
---------------------------------------------------------------------
1 | 0:00.32 | 2:14.25 | 32 | 10106
2 | 2:14.57 | 3:12.58 | 10107 | 24564
3 | 5:27.40 | 2:37.45 | 24565 | 36384
4 | 8:05.10 | 2:47.60 | 36385 | 48969
5 | 10:52.70 | 2:17.20 | 48970 | 59264
6 | 13:10.15 | 3:14.72 | 59265 | 73886
7 | 16:25.12 | 2:53.23 | 73887 | 86884
8 | 19:18.35 | 2:33.70 | 86885 | 98429
9 | 21:52.30 | 3:04.17 | 98430 | 112246
10 | 24:56.47 | 2:25.55 | 112247 | 123176
11 | 27:22.27 | 3:10.50 | 123177 | 137476
12 | 30:33.02 | 2:17.68 | 137477 | 147819

Характеристики диапазона извлечения и сообщения об ошибках

Выбранный диапазон

Имя файла C:DownloadsJoe Dassin - Integrale Albums - Limited Edition 15CDCD 4 - Joe Dassin - La Fleur Aux Dents - 1970Joe Dassin - La Fleur Aux Dents.wav

Пиковый уровень 91.7 %
Качество диапазона 100.0 %
CRC теста CE5E175F
CRC копии CE5E175F
Копирование... OK

Ошибок не произошло

AccurateRip: сводка

Трек 1 точное извлечение (доверие 1) [07995435]
Трек 2 точное извлечение (доверие 1) [C2316376]
Трек 3 точное извлечение (доверие 1) [3307D011]
Трек 4 точное извлечение (доверие 1) [4BEC13EF]
Трек 5 точное извлечение (доверие 1) [D5811A8E]
Трек 6 точное извлечение (доверие 1) [6E185EFA]
Трек 7 точное извлечение (доверие 1) [3ABDA4AB]
Трек 8 точное извлечение (доверие 1) [787E5EF7]
Трек 9 точное извлечение (доверие 1) [57480055]
Трек 10 точное извлечение (доверие 1) [49AEE011]
Трек 11 точное извлечение (доверие 1) [19A131E0]
Трек 12 точное извлечение (доверие 1) [5097234A]

Все треки извлечены точно

Конец отчёта
1971 Elle Etait Oh... 00
Joe Dassin - Integrale Albums
01. La Ligne De Vie
02. La Mal-Aimee Du Courrier Du Coeur
03. Bye Bye Louis
04. Allez Roulez!
05. Sylvie
06. Les Joies De La Cuisine
07. Elle Etait Oh...
08. Le Chanteur Des Rues
09. A La Sante D`Hier
10. Pauvre Pierrot
11. Si Tu Peux Lire En Moi
12. Le General A Dit

eac
Exact Audio Copy V0.99 prebeta 4 from 23. January 2008

Отчёт EAC об извлечении, выполненном 10. сентября 2009, 18:04

Joe Dassin / Elle Etait Oh...

Дисковод: HL-DT-STDVD-RW GWA-4040N Adapter: 1 ID: 0

Режим чтения : Достоверность
Использование точного потока : Да
Отключение кэша аудио : Да
Использование указателей C2 : Нет

Коррекция смещения при чтении : 48
Способность читать области Lead-in и Lead-out : Нет
Заполнение пропущенных сэмплов тишиной : Да
Удаление блоков с тишиной в начале и конце : Нет
При вычислениях CRC использовались нулевые сэмплы : Да
Интерфейс : Установленный внешний ASPI-интерфейс

Выходной формат : Пользовательский кодировщик
Выбранный битрейт : 768 kBit/s
Качество : Высокий
Добавление ID3-тэга : Да
Утилита сжатия : C:Program FilesExact Audio CopyFLACFLAC.EXE
Дополнительные параметры : -6 -V -T "ARTIST=%a" -T "TITLE=%t" -T "ALBUM=%g" -T "DATE=%y" -T "TRACKNUMBER=%n" -T "GENRE=%m" -T "COMMENT=%e" %s -o %d

TOC извлечённого CD

Трек | Старт | Длительность | Начальный сектор | Конечный сектор
---------------------------------------------------------------------
1 | 0:00.32 | 3:09.38 | 32 | 14244
2 | 3:09.70 | 2:49.12 | 14245 | 26931
3 | 5:59.07 | 3:34.13 | 26932 | 42994
4 | 9:33.20 | 2:58.00 | 42995 | 56344
5 | 12:31.20 | 3:08.10 | 56345 | 70454
6 | 15:39.30 | 2:53.00 | 70455 | 83429
7 | 18:32.30 | 4:13.17 | 83430 | 102421
8 | 22:45.47 | 2:49.68 | 102422 | 115164
9 | 25:35.40 | 3:07.37 | 115165 | 129226
10 | 28:43.02 | 2:42.13 | 129227 | 141389
11 | 31:25.15 | 3:12.67 | 141390 | 155856
12 | 34:38.07 | 3:07.58 | 155857 | 169939

Характеристики диапазона извлечения и сообщения об ошибках

Выбранный диапазон

Имя файла C:DownloadsJoe Dassin - Integrale Albums - Limited Edition 15CDCD 5 - Joe Dassin - Elle Etait Oh... - 1971Joe Dassin - Elle Etait Oh....wav

Пиковый уровень 98.5 %
Качество диапазона 99.9 %
CRC теста E584D3FC
CRC копии E584D3FC
Копирование... OK

Ошибок не произошло

AccurateRip: сводка

Трек 1 точное извлечение (доверие 1) [9CF1C325]
Трек 2 точное извлечение (доверие 1) [AB6FC78B]
Трек 3 точное извлечение (доверие 1) [71D8628D]
Трек 4 точное извлечение (доверие 1) [46C7200E]
Трек 5 точное извлечение (доверие 1) [EEE308B7]
Трек 6 точное извлечение (доверие 1) [87A89E8C]
Трек 7 точное извлечение (доверие 1) [AD2CA120]
Трек 8 точное извлечение (доверие 1) [7C528DB4]
Трек 9 точное извлечение (доверие 1) [EC4E3583]
Трек 10 точное извлечение (доверие 1) [948D49A6]
Трек 11 точное извлечение (доверие 1) [9BA450B3]
Трек 12 точное извлечение (доверие 1) [9BB54B3C]

Все треки извлечены точно

Конец отчёта
1972 Joe 00
Joe Dassin - Integrale Albums
01. Le Moustique
02. Salut Les Amoureux
03. Ma Nana
04. Vaya-Na-Cumana
05. C`est Ma Tournee
06. S`Aimer Sous La Pluie
07. La Complainte De L`Heure De Pointe
08. Un Peu De Paradis
09. Louisiana
10. Julie, Julie
11. Le Roi Du Blues
12. Taka Takata ( La Femme du Torero )

eac
Exact Audio Copy V0.99 prebeta 4 from 23. January 2008

Отчёт EAC об извлечении, выполненном 11. сентября 2009, 10:41

Joe Dassin / Joe

Дисковод: HL-DT-STDVD-RW GWA-4040N Adapter: 1 ID: 0

Режим чтения : Достоверность
Использование точного потока : Да
Отключение кэша аудио : Да
Использование указателей C2 : Нет

Коррекция смещения при чтении : 48
Способность читать области Lead-in и Lead-out : Нет
Заполнение пропущенных сэмплов тишиной : Да
Удаление блоков с тишиной в начале и конце : Нет
При вычислениях CRC использовались нулевые сэмплы : Да
Интерфейс : Установленный внешний ASPI-интерфейс

Выходной формат : Пользовательский кодировщик
Выбранный битрейт : 768 kBit/s
Качество : Высокий
Добавление ID3-тэга : Да
Утилита сжатия : C:Program FilesExact Audio CopyFLACFLAC.EXE
Дополнительные параметры : -6 -V -T "ARTIST=%a" -T "TITLE=%t" -T "ALBUM=%g" -T "DATE=%y" -T "TRACKNUMBER=%n" -T "GENRE=%m" -T "COMMENT=%e" %s -o %d

TOC извлечённого CD

Трек | Старт | Длительность | Начальный сектор | Конечный сектор
---------------------------------------------------------------------
1 | 0:00.32 | 2:20.33 | 32 | 10564
2 | 2:20.65 | 4:04.35 | 10565 | 28899
3 | 6:25.25 | 2:26.07 | 28900 | 39856
4 | 8:51.32 | 3:04.40 | 39857 | 53696
5 | 11:55.72 | 3:10.65 | 53697 | 68011
6 | 15:06.62 | 3:02.08 | 68012 | 81669
7 | 18:08.70 | 1:51.72 | 81670 | 90066
8 | 20:00.67 | 2:21.33 | 90067 | 100674
9 | 22:22.25 | 2:46.62 | 100675 | 113186
10 | 25:09.12 | 2:14.63 | 113187 | 123299
11 | 27:24.00 | 3:07.10 | 123300 | 137334
12 | 30:31.10 | 2:36.05 | 137335 | 149039

Характеристики диапазона извлечения и сообщения об ошибках

Выбранный диапазон

Имя файла C:DownloadsJoe Dassin - Integrale Albums - Limited Edition 15CDCD 6 - Joe Dassin - Joe - 1972Joe Dassin - Joe.wav

Пиковый уровень 99.6 %
Качество диапазона 99.9 %
CRC теста 16025C80
CRC копии 16025C80
Копирование... OK

Ошибок не произошло

AccurateRip: сводка

Трек 1 нет в базе данных
Трек 2 нет в базе данных
Трек 3 нет в базе данных
Трек 4 нет в базе данных
Трек 5 нет в базе данных
Трек 6 нет в базе данных
Трек 7 нет в базе данных
Трек 8 нет в базе данных
Трек 9 нет в базе данных
Трек 10 нет в базе данных
Трек 11 нет в базе данных
Трек 12 нет в базе данных

Ни одного трека нет в базе AccurateRip

Конец отчёта
1973 13 Chansons Nouvelles 00
Joe Dassin - Integrale Albums
01. A Chacun Sa Chanson
02. On S`En Va
03. Dede Le Kid
04. Pourquoi Pas Moi
05. Allons Danser Valerie
06. Les Plus Belles Annees De Ma Vie
07. La Derniere Page
08. Qu`Est-Ce Que J`Ai Pu Faire Hier Soir?
09. Quand On A Seize Ans
10. Oh La La!
11. Ton Cote Du Lit
12. Quand On A Du Feu
13. Fais-Moi De L`Electricite

eac
Exact Audio Copy V0.99 prebeta 4 from 23. January 2008

Отчёт EAC об извлечении, выполненном 10. сентября 2009, 21:56

Joe Dassin / 13 Chansons Nouvelles

Дисковод: HL-DT-STDVD-RW GWA-4040N Adapter: 1 ID: 0

Режим чтения : Достоверность
Использование точного потока : Да
Отключение кэша аудио : Да
Использование указателей C2 : Нет

Коррекция смещения при чтении : 48
Способность читать области Lead-in и Lead-out : Нет
Заполнение пропущенных сэмплов тишиной : Да
Удаление блоков с тишиной в начале и конце : Нет
При вычислениях CRC использовались нулевые сэмплы : Да
Интерфейс : Установленный внешний ASPI-интерфейс

Выходной формат : Пользовательский кодировщик
Выбранный битрейт : 768 kBit/s
Качество : Высокий
Добавление ID3-тэга : Да
Утилита сжатия : C:Program FilesExact Audio CopyFLACFLAC.EXE
Дополнительные параметры : -6 -V -T "ARTIST=%a" -T "TITLE=%t" -T "ALBUM=%g" -T "DATE=%y" -T "TRACKNUMBER=%n" -T "GENRE=%m" -T "COMMENT=%e" %s -o %d

TOC извлечённого CD

Трек | Старт | Длительность | Начальный сектор | Конечный сектор
---------------------------------------------------------------------
1 | 0:00.32 | 3:12.68 | 32 | 14499
2 | 3:13.25 | 2:52.27 | 14500 | 27426
3 | 6:05.52 | 2:40.18 | 27427 | 39444
4 | 8:45.70 | 3:47.10 | 39445 | 56479
5 | 12:33.05 | 2:46.30 | 56480 | 68959
6 | 15:19.35 | 4:41.10 | 68960 | 90044
7 | 20:00.45 | 2:22.30 | 90045 | 100724
8 | 22:23.00 | 2:28.72 | 100725 | 111896
9 | 24:51.72 | 2:30.63 | 111897 | 123209
10 | 27:22.60 | 2:53.40 | 123210 | 136224
11 | 30:16.25 | 3:25.62 | 136225 | 151661
12 | 33:42.12 | 2:42.43 | 151662 | 163854
13 | 36:24.55 | 2:25.57 | 163855 | 174786

Характеристики диапазона извлечения и сообщения об ошибках

Выбранный диапазон

Имя файла C:DownloadsJoe Dassin - Integrale Albums - Limited Edition 15CDCD 7 - Joe Dassin - 13 Chansons Nouvelles, 1973Joe Dassin - 13 Chansons Nouvelles.wav

Пиковый уровень 99.3 %
Качество диапазона 100.0 %
CRC теста 4E8FB6E3
CRC копии 4E8FB6E3
Копирование... OK

Ошибок не произошло

AccurateRip: сводка

Трек 1 нет в базе данных
Трек 2 нет в базе данных
Трек 3 нет в базе данных
Трек 4 нет в базе данных
Трек 5 нет в базе данных
Трек 6 нет в базе данных
Трек 7 нет в базе данных
Трек 8 нет в базе данных
Трек 9 нет в базе данных
Трек 10 нет в базе данных
Трек 11 нет в базе данных
Трек 12 нет в базе данных
Трек 13 нет в базе данных

Ни одного трека нет в базе AccurateRip

Конец отчёта
1974 Si Tu T'appelles Mélancolie 00
Joe Dassin - Integrale Albums
01. Vade Retro
02. Si Tu T`Appelles Melancolie
03. Messieurs Les Jures
04. Six Jours A La Campagne
05. L`Amour Etc...
06. Entre Deux Adieux
07. Le Service Militaire
08. Annie De L`Annee Derniere
09. Marie-Madeleine
10. Ce N`Est Rien Que Du Vent
11. Je Te Crois
12. Ma Derniere Chanson Pour Toi

eac
Exact Audio Copy V0.99 prebeta 4 from 23. January 2008

Отчёт EAC об извлечении, выполненном 10. сентября 2009, 23:10

Joe Dassin / Si Tu T`Appelles Melancolie

Дисковод: HL-DT-STDVD-RW GWA-4040N Adapter: 1 ID: 0

Режим чтения : Достоверность
Использование точного потока : Да
Отключение кэша аудио : Да
Использование указателей C2 : Нет

Коррекция смещения при чтении : 48
Способность читать области Lead-in и Lead-out : Нет
Заполнение пропущенных сэмплов тишиной : Да
Удаление блоков с тишиной в начале и конце : Нет
При вычислениях CRC использовались нулевые сэмплы : Да
Интерфейс : Установленный внешний ASPI-интерфейс

Выходной формат : Пользовательский кодировщик
Выбранный битрейт : 768 kBit/s
Качество : Высокий
Добавление ID3-тэга : Да
Утилита сжатия : C:Program FilesExact Audio CopyFLACFLAC.EXE
Дополнительные параметры : -6 -V -T "ARTIST=%a" -T "TITLE=%t" -T "ALBUM=%g" -T "DATE=%y" -T "TRACKNUMBER=%n" -T "GENRE=%m" -T "COMMENT=%e" %s -o %d

TOC извлечённого CD

Трек | Старт | Длительность | Начальный сектор | Конечный сектор
---------------------------------------------------------------------
1 | 0:00.32 | 3:03.25 | 32 | 13781
2 | 3:03.57 | 3:18.00 | 13782 | 28631
3 | 6:21.57 | 3:00.68 | 28632 | 42199
4 | 9:22.50 | 2:54.30 | 42200 | 55279
5 | 12:17.05 | 2:37.42 | 55280 | 67096
6 | 14:54.47 | 3:12.28 | 67097 | 81524
7 | 18:07.00 | 2:26.10 | 81525 | 92484
8 | 20:33.10 | 2:47.05 | 92485 | 105014
9 | 23:20.15 | 3:33.32 | 105015 | 121021
10 | 26:53.47 | 4:17.08 | 121022 | 140304
11 | 31:10.55 | 2:14.12 | 140305 | 150366
12 | 33:24.67 | 2:42.15 | 150367 | 162531

Характеристики диапазона извлечения и сообщения об ошибках

Выбранный диапазон

Имя файла C:DownloadsJoe Dassin - Integrale Albums - Limited Edition 15CDCD 8 - Joe Dassin - Si Tu T`Appelles Melancolie - 1974Joe Dassin - Si Tu T`Appelles Melancolie.wav

Пиковый уровень 99.1 %
Качество диапазона 100.0 %
CRC теста 929D288B
CRC копии 929D288B
Копирование... OK

Ошибок не произошло

AccurateRip: сводка

Трек 1 нет в базе данных
Трек 2 нет в базе данных
Трек 3 нет в базе данных
Трек 4 нет в базе данных
Трек 5 нет в базе данных
Трек 6 нет в базе данных
Трек 7 нет в базе данных
Трек 8 нет в базе данных
Трек 9 нет в базе данных
Трек 10 нет в базе данных
Трек 11 нет в базе данных
Трек 12 нет в базе данных

Ни одного трека нет в базе AccurateRip

Конец отчёта
1975 Joe Dassin 00
Joe Dassin - Integrale Albums
01. Et Si Tu N`Existais Pae
02. Il Faut Naitre A Monaco
03. Chanson Triste
04. Le Costume Blanc
05. L`Albatros
06. Alors Qu`Est-Ce Que C`Est? ( Harmour Love )
07. Ca Va Pas Changer Le Monde
08. Salut
09. Carolina ( Sad Sweet Dreamer )
10. C`Est La Nuit ( Dance With Me )
11. Ma Musique ( Sailing )
12. Piano Mecanique

eac
Exact Audio Copy V0.99 prebeta 4 from 23. January 2008

Отчёт EAC об извлечении, выполненном 10. сентября 2009, 23:44

Joe Dassin / Joe Dassin

Дисковод: HL-DT-STDVD-RW GWA-4040N Adapter: 1 ID: 0

Режим чтения : Достоверность
Использование точного потока : Да
Отключение кэша аудио : Да
Использование указателей C2 : Нет

Коррекция смещения при чтении : 48
Способность читать области Lead-in и Lead-out : Нет
Заполнение пропущенных сэмплов тишиной : Да
Удаление блоков с тишиной в начале и конце : Нет
При вычислениях CRC использовались нулевые сэмплы : Да
Интерфейс : Установленный внешний ASPI-интерфейс

Выходной формат : Пользовательский кодировщик
Выбранный битрейт : 768 kBit/s
Качество : Высокий
Добавление ID3-тэга : Да
Утилита сжатия : C:Program FilesExact Audio CopyFLACFLAC.EXE
Дополнительные параметры : -6 -V -T "ARTIST=%a" -T "TITLE=%t" -T "ALBUM=%g" -T "DATE=%y" -T "TRACKNUMBER=%n" -T "GENRE=%m" -T "COMMENT=%e" %s -o %d

TOC извлечённого CD

Трек | Старт | Длительность | Начальный сектор | Конечный сектор
---------------------------------------------------------------------
1 | 0:00.32 | 3:31.43 | 32 | 15899
2 | 3:32.00 | 1:54.15 | 15900 | 24464
3 | 5:26.15 | 3:28.35 | 24465 | 40099
4 | 8:54.50 | 3:14.22 | 40100 | 54671
5 | 12:08.72 | 3:13.05 | 54672 | 69151
6 | 15:22.02 | 2:47.15 | 69152 | 81691
7 | 18:09.17 | 3:06.50 | 81692 | 95691
8 | 21:15.67 | 3:24.03 | 95692 | 110994
9 | 24:39.70 | 3:20.30 | 110995 | 126024
10 | 28:00.25 | 2:53.72 | 126025 | 139071
11 | 30:54.22 | 2:58.65 | 139072 | 152486
12 | 33:53.12 | 2:39.30 | 152487 | 164441

Характеристики диапазона извлечения и сообщения об ошибках

Выбранный диапазон

Имя файла C:DownloadsJoe Dassin - Integrale Albums - Limited Edition 15CDCD 9 - Joe Dassin - Joe Dassin, 1975Joe Dassin - Joe Dassin.wav

Пиковый уровень 98.5 %
Качество диапазона 100.0 %
CRC теста 868C18FA
CRC копии 868C18FA
Копирование... OK

Ошибок не произошло

AccurateRip: сводка

Трек 1 точное извлечение (доверие 1) [09AC54A5]
Трек 2 точное извлечение (доверие 1) [F8A697FD]
Трек 3 точное извлечение (доверие 1)
Трек 4 точное извлечение (доверие 1)
Трек 5 точное извлечение (доверие 1) [612ABE0C]
Трек 6 точное извлечение (доверие 1) [EF2E935A]
Трек 7 точное извлечение (доверие 1) [C894C30A]
Трек 8 точное извлечение (доверие 1) [2DDDEE59]
Трек 9 точное извлечение (доверие 1) [149B1BCB]
Трек 10 точное извлечение (доверие 1) [163E738D]
Трек 11 точное извлечение (доверие 1) [2C1BCD79]
Трек 12 точное извлечение (доверие 1) [268FECB5]

Все треки извлечены точно

Конец отчёта
1976 Le Jardin Du Luxembourg 00
Joe Dassin - Integrale Albums
1. Le Jardin Du Luxembourg
2. Il Etait Une Fois Nous Deux
3. A To!
4. Le Cafe Des 3 Colombes (`T klein cafe aan de haven)
5. Comme Disait Valentine
6. Laisse-Moi Dormir (Sleep All Mornin`)
7. Que Sont Devenues Mes Amours?

eac
Exact Audio Copy V0.99 prebeta 4 from 23. January 2008

Отчёт EAC об извлечении, выполненном 11. сентября 2009, 0:33

Joe Dassin / Le Jardin Du Luxembourg

Дисковод: HL-DT-STDVD-RW GWA-4040N Adapter: 1 ID: 0

Режим чтения : Достоверность
Использование точного потока : Да
Отключение кэша аудио : Да
Использование указателей C2 : Нет

Коррекция смещения при чтении : 48
Способность читать области Lead-in и Lead-out : Нет
Заполнение пропущенных сэмплов тишиной : Да
Удаление блоков с тишиной в начале и конце : Нет
При вычислениях CRC использовались нулевые сэмплы : Да
Интерфейс : Установленный внешний ASPI-интерфейс

Выходной формат : Пользовательский кодировщик
Выбранный битрейт : 768 kBit/s
Качество : Высокий
Добавление ID3-тэга : Да
Утилита сжатия : C:Program FilesExact Audio CopyFLACFLAC.EXE
Дополнительные параметры : -6 -V -T "ARTIST=%a" -T "TITLE=%t" -T "ALBUM=%g" -T "DATE=%y" -T "TRACKNUMBER=%n" -T "GENRE=%m" -T "COMMENT=%e" %s -o %d

TOC извлечённого CD

Трек | Старт | Длительность | Начальный сектор | Конечный сектор
---------------------------------------------------------------------
1 | 0:00.32 | 12:04.70 | 32 | 54401
2 | 12:05.27 | 3:58.53 | 54402 | 72304
3 | 16:04.05 | 2:52.17 | 72305 | 85221
4 | 18:56.22 | 4:02.60 | 85222 | 103431
5 | 22:59.07 | 3:07.63 | 103432 | 117519
6 | 26:06.70 | 2:53.02 | 117520 | 130496
7 | 28:59.72 | 3:41.38 | 130497 | 147109

Характеристики диапазона извлечения и сообщения об ошибках

Выбранный диапазон

Имя файла C:DownloadsJoe Dassin - Integrale Albums - Limited Edition 15CDCD 10 - Joe Dassin - Le Jardin Du Luxembourg, 1976Joe Dassin - Le Jardin Du Luxembourg.wav

Пиковый уровень 97.8 %
Качество диапазона 100.0 %
CRC теста F4333177
CRC копии F4333177
Копирование... OK

Ошибок не произошло

AccurateRip: сводка

Трек 1 точность не определена (достоверность 1) [C4CBD835], AccurateRip вернул [9582828A]
Трек 2 точность не определена (достоверность 1) [77592427], AccurateRip вернул [2A45FAF1]
Трек 3 точность не определена (достоверность 1) [E0958AD1], AccurateRip вернул [7D3C0113]
Трек 4 точность не определена (достоверность 1) [BC479CDC], AccurateRip вернул
Трек 5 точность не определена (достоверность 1) [C86925B0], AccurateRip вернул [BBF32647]
Трек 6 точность не определена (достоверность 1) [0EF62F9C], AccurateRip вернул [A628FD85]
Трек 7 точность не определена (достоверность 1) [39549DAC], AccurateRip вернул [8F145FE2]

Ни один трек не прошёл проверки на точность
В вашей базе может быть иной вариант штамповки диска

Конец отчёта
1978 Les Femmes De Ma Vie 00
Joe Dassin - Integrale Albums
01. La Femme Ideale (Angelina) Amelia
02. La Premiere Femme De Ma Vie
03. Noisette Et Cassidy
04. La Demoiselle De Deshonneur
05. Dans Les Yeux D`Emilie
06. Quand On Sera Deux
07. Maria (Maria)
08. Mon Copain Julie (Southern Nights)
09. Marie-Ange (Fallen Angel)
10. J`Ai Craque
11. Petit Ballon
12. La Rue Marie-Laurence

eac
Exact Audio Copy V0.99 prebeta 4 from 23. January 2008

Отчёт EAC об извлечении, выполненном 11. сентября 2009, 1:09

Joe Dassin / Les Femmes De Ma Vie

Дисковод: HL-DT-STDVD-RW GWA-4040N Adapter: 1 ID: 0

Режим чтения : Достоверность
Использование точного потока : Да
Отключение кэша аудио : Да
Использование указателей C2 : Нет

Коррекция смещения при чтении : 48
Способность читать области Lead-in и Lead-out : Нет
Заполнение пропущенных сэмплов тишиной : Да
Удаление блоков с тишиной в начале и конце : Нет
При вычислениях CRC использовались нулевые сэмплы : Да
Интерфейс : Установленный внешний ASPI-интерфейс

Выходной формат : Пользовательский кодировщик
Выбранный битрейт : 768 kBit/s
Качество : Высокий
Добавление ID3-тэга : Да
Утилита сжатия : C:Program FilesExact Audio CopyFLACFLAC.EXE
Дополнительные параметры : -6 -V -T "ARTIST=%a" -T "TITLE=%t" -T "ALBUM=%g" -T "DATE=%y" -T "TRACKNUMBER=%n" -T "GENRE=%m" -T "COMMENT=%e" %s -o %d

TOC извлечённого CD

Трек | Старт | Длительность | Начальный сектор | Конечный сектор
---------------------------------------------------------------------
1 | 0:00.32 | 3:23.23 | 32 | 15279
2 | 3:23.55 | 2:23.55 | 15280 | 26059
3 | 5:47.35 | 2:54.15 | 26060 | 39124
4 | 8:41.50 | 2:50.10 | 39125 | 51884
5 | 11:31.60 | 3:46.22 | 51885 | 68856
6 | 15:18.07 | 3:06.25 | 68857 | 82831
7 | 18:24.32 | 4:07.58 | 82832 | 101414
8 | 22:32.15 | 3:06.42 | 101415 | 115406
9 | 25:38.57 | 3:21.60 | 115407 | 130541
10 | 29:00.42 | 2:30.55 | 130542 | 141846
11 | 31:31.22 | 3:05.58 | 141847 | 155779
12 | 34:37.05 | 2:40.22 | 155780 | 167801

Характеристики диапазона извлечения и сообщения об ошибках

Выбранный диапазон

Имя файла C:DownloadsJoe Dassin - Integrale Albums - Limited Edition 15CDCD 11 - Joe Dassin - Les Femmes De Ma Vie, 1978Joe Dassin - Les Femmes De Ma Vie.wav

Пиковый уровень 98.8 %
Качество диапазона 100.0 %
CRC теста A3E832AF
CRC копии A3E832AF
Копирование... OK

Ошибок не произошло

AccurateRip: сводка

Трек 1 точное извлечение (доверие 2) [3128E324]
Трек 2 точное извлечение (доверие 2) [817E3F05]
Трек 3 точное извлечение (доверие 2) [4A2CE78A]
Трек 4 точное извлечение (доверие 2) [8C431016]
Трек 5 точное извлечение (доверие 2) [6A8A9977]
Трек 6 точное извлечение (доверие 2) [9C5BC607]
Трек 7 точное извлечение (доверие 2) [FD752532]
Трек 8 точное извлечение (доверие 2) [7F2263F4]
Трек 9 точное извлечение (доверие 2) [6E6B5BD2]
Трек 10 точное извлечение (доверие 2) [C18F4F31]
Трек 11 точное извлечение (доверие 2) [107D4B4E]
Трек 12 точное извлечение (доверие 2) [45D11BCD]

Все треки извлечены точно

Конец отчёта
1978 15 Ans Déjà... 00
Joe Dassin - Integrale Albums
01. Un Lord Anglais
02. Toi, Le Refrain De Ma Vie (Tell Me To My Face)
03. La Beaute Du Diable (A Mellow Melody)
04. Happy Birthday (Balletto)
05. La Fan
06. La Vie Se Chante, La Vie Se Pleure (Down By The Water)
07. Darlin` (en anglais)
08. Pour Le Plaisir De Partir
09. Cote Banjo, Cote Violon
10. Qu`Est-Ce Que Tu Fais De Moi?

eac
Exact Audio Copy V0.99 prebeta 4 from 23. January 2008

Отчёт EAC об извлечении, выполненном 11. сентября 2009, 11:20

Joe Dassin / 15 Ans Deja

Дисковод: HL-DT-STDVD-RW GWA-4040N Adapter: 1 ID: 0

Режим чтения : Достоверность
Использование точного потока : Да
Отключение кэша аудио : Да
Использование указателей C2 : Нет

Коррекция смещения при чтении : 48
Способность читать области Lead-in и Lead-out : Нет
Заполнение пропущенных сэмплов тишиной : Да
Удаление блоков с тишиной в начале и конце : Нет
При вычислениях CRC использовались нулевые сэмплы : Да
Интерфейс : Установленный внешний ASPI-интерфейс

Выходной формат : Пользовательский кодировщик
Выбранный битрейт : 768 kBit/s
Качество : Высокий
Добавление ID3-тэга : Да
Утилита сжатия : C:Program FilesExact Audio CopyFLACFLAC.EXE
Дополнительные параметры : -6 -V -T "ARTIST=%a" -T "TITLE=%t" -T "ALBUM=%g" -T "DATE=%y" -T "TRACKNUMBER=%n" -T "GENRE=%m" -T "COMMENT=%e" %s -o %d

TOC извлечённого CD

Трек | Старт | Длительность | Начальный сектор | Конечный сектор
---------------------------------------------------------------------
1 | 0:00.32 | 2:56.00 | 32 | 13231
2 | 2:56.32 | 5:16.25 | 13232 | 36956
3 | 8:12.57 | 2:26.68 | 36957 | 47974
4 | 10:39.50 | 4:54.02 | 47975 | 70026
5 | 15:33.52 | 2:47.28 | 70027 | 82579
6 | 18:21.05 | 4:18.12 | 82580 | 101941
7 | 22:39.17 | 3:17.08 | 101942 | 116724
8 | 25:56.25 | 2:57.35 | 116725 | 130034
9 | 28:53.60 | 3:09.05 | 130035 | 144214
10 | 32:02.65 | 3:28.12 | 144215 | 159826

Характеристики диапазона извлечения и сообщения об ошибках

Выбранный диапазон

Имя файла C:DownloadsJoe Dassin - Integrale Albums - Limited Edition 15CDCD 12 - Joe Dassin - 15 Ans Deja, 1978Joe Dassin - 15 Ans Deja.wav

Пиковый уровень 98.4 %
Качество диапазона 100.0 %
CRC теста 109B8666
CRC копии 109B8666
Копирование... OK

Ошибок не произошло

AccurateRip: сводка

Трек 1 нет в базе данных
Трек 2 нет в базе данных
Трек 3 нет в базе данных
Трек 4 нет в базе данных
Трек 5 нет в базе данных
Трек 6 нет в базе данных
Трек 7 нет в базе данных
Трек 8 нет в базе данных
Трек 9 нет в базе данных
Трек 10 нет в базе данных

Ни одного трека нет в базе AccurateRip

Конец отчёта
1979 Blue Country 00
Joe Dassin - Integrale Albums
01. Blue Country (Home Made Ice Cream)
02. Faut Pas Faire De La Peine A John (You don`t Mess Around with Jim)
03. Un Baby, Bebe (My King Of Woman)
04. On Se Connait Par Coeur (Promises)
05. Polk Salad Annie
06. La Fille Du Sherif (High Sheriff)
07. La Saison Du Blues (The Chang )
08. Joe Macho (Lustful Earl And The Married Woman)
09. Si Je Dis "Je T`Aime" (I`ve Got A Thing About You Baby)
10. Le Marche Aux Puces

eac
Exact Audio Copy V0.99 prebeta 4 from 23. January 2008

Отчёт EAC об извлечении, выполненном 11. сентября 2009, 17:58

Joe Dassin / Blue Country

Дисковод: HL-DT-STDVD-RW GWA-4040N Adapter: 1 ID: 0

Режим чтения : Достоверность
Использование точного потока : Да
Отключение кэша аудио : Да
Использование указателей C2 : Нет

Коррекция смещения при чтении : 48
Способность читать области Lead-in и Lead-out : Нет
Заполнение пропущенных сэмплов тишиной : Да
Удаление блоков с тишиной в начале и конце : Нет
При вычислениях CRC использовались нулевые сэмплы : Да
Интерфейс : Установленный внешний ASPI-интерфейс

Выходной формат : Пользовательский кодировщик
Выбранный битрейт : 768 kBit/s
Качество : Высокий
Добавление ID3-тэга : Да
Утилита сжатия : C:Program FilesExact Audio CopyFLACFLAC.EXE
Дополнительные параметры : -6 -V -T "ARTIST=%a" -T "TITLE=%t" -T "ALBUM=%g" -T "DATE=%y" -T "TRACKNUMBER=%n" -T "GENRE=%m" -T "COMMENT=%e" %s -o %d

TOC извлечённого CD

Трек | Старт | Длительность | Начальный сектор | Конечный сектор
---------------------------------------------------------------------
1 | 0:00.32 | 3:22.63 | 32 | 15244
2 | 3:23.20 | 3:08.20 | 15245 | 29364
3 | 6:31.40 | 2:52.42 | 29365 | 42306
4 | 9:24.07 | 3:35.20 | 42307 | 58451
5 | 12:59.27 | 4:17.50 | 58452 | 77776
6 | 17:17.02 | 3:38.65 | 77777 | 94191
7 | 20:55.67 | 3:36.15 | 94192 | 110406
8 | 24:32.07 | 3:25.53 | 110407 | 125834
9 | 27:57.60 | 2:35.25 | 125835 | 137484
10 | 30:33.10 | 4:24.27 | 137485 | 157311

Характеристики диапазона извлечения и сообщения об ошибках

Выбранный диапазон

Имя файла C:DownloadsJoe Dassin - Integrale Albums - Limited Edition 15CDCD 13 - Joe Dassin - Blue Country, 1979Joe Dassin - Blue Country.wav

Пиковый уровень 98.8 %
Качество диапазона 100.0 %
CRC теста 859A5C39
CRC копии 859A5C39
Копирование... OK

Ошибок не произошло

AccurateRip: сводка

Трек 1 нет в базе данных
Трек 2 нет в базе данных
Трек 3 нет в базе данных
Трек 4 нет в базе данных
Трек 5 нет в базе данных
Трек 6 нет в базе данных
Трек 7 нет в базе данных
Трек 8 нет в базе данных
Трек 9 нет в базе данных
Трек 10 нет в базе данных

Ни одного трека нет в базе AccurateRip

Конец отчёта
1982 Little Italy 00
Joe Dassin - Integrale Albums
01. Ouverture: Le Hold-Up (Introduzione: Rapina)
02. Joe: Regarde-Toi (La Corte)
03. Marcella: Et L`Amour (E I`Amore)
04. Joe: Quand La Chance Passe (Casino)
05. Marcella: La Mer (Mare)
06. Marcella: Tant Pis Pour Moi (Giusto o no)
07. Joe: Je Viens Comme Un Voleur (II posto giusto)
08. Duo: La Fete (La festa)
09. Joe: Sandy (Sandy)
10. Duo: Apres La Fete (Jesus)
11. Joe: C`Est Fini (Fine qui)
12. Joe: A Mon Fils Sebastian)
13. Duo: Martine (Martina)

eac
Exact Audio Copy V0.99 prebeta 4 from 23. January 2008

Отчёт EAC об извлечении, выполненном 11. сентября 2009, 18:42

Joe Dassin / Little Italy

Дисковод: HL-DT-STDVD-RW GWA-4040N Adapter: 1 ID: 0

Режим чтения : Достоверность
Использование точного потока : Да
Отключение кэша аудио : Да
Использование указателей C2 : Нет

Коррекция смещения при чтении : 48
Способность читать области Lead-in и Lead-out : Нет
Заполнение пропущенных сэмплов тишиной : Да
Удаление блоков с тишиной в начале и конце : Нет
При вычислениях CRC использовались нулевые сэмплы : Да
Интерфейс : Установленный внешний ASPI-интерфейс

Выходной формат : Пользовательский кодировщик
Выбранный битрейт : 768 kBit/s
Качество : Высокий
Добавление ID3-тэга : Да
Утилита сжатия : C:Program FilesExact Audio CopyFLACFLAC.EXE
Дополнительные параметры : -6 -V -T "ARTIST=%a" -T "TITLE=%t" -T "ALBUM=%g" -T "DATE=%y" -T "TRACKNUMBER=%n" -T "GENRE=%m" -T "COMMENT=%e" %s -o %d

TOC извлечённого CD

Трек | Старт | Длительность | Начальный сектор | Конечный сектор
---------------------------------------------------------------------
1 | 0:00.32 | 1:21.55 | 32 | 6161
2 | 1:22.12 | 2:27.00 | 6162 | 17186
3 | 3:49.12 | 3:34.35 | 17187 | 33271
4 | 7:23.47 | 3:04.18 | 33272 | 47089
5 | 10:27.65 | 3:47.45 | 47090 | 64159
6 | 14:15.35 | 3:04.62 | 64160 | 78021
7 | 17:20.22 | 3:00.18 | 78022 | 91539
8 | 20:20.40 | 2:48.27 | 91540 | 104166
9 | 23:08.67 | 3:24.00 | 104167 | 119466
10 | 26:32.67 | 4:39.65 | 119467 | 140456
11 | 31:12.57 | 3:42.38 | 140457 | 157144
12 | 34:55.20 | 3:28.67 | 157145 | 172811
13 | 38:24.12 | 4:34.28 | 172812 | 193389

Характеристики диапазона извлечения и сообщения об ошибках

Выбранный диапазон

Имя файла C:DownloadsJoe Dassin - Integrale Albums - Limited Edition 15CDCD 14 - Joe Dassin - Little Italy, 1982Unknown Artist - Little Italy.wav

Пиковый уровень 96.4 %
Качество диапазона 99.9 %
CRC теста 54E865A4
CRC копии 54E865A4
Копирование... OK

Ошибок не произошло

AccurateRip: сводка

Трек 1 нет в базе данных
Трек 2 нет в базе данных
Трек 3 нет в базе данных
Трек 4 нет в базе данных
Трек 5 нет в базе данных
Трек 6 нет в базе данных
Трек 7 нет в базе данных
Трек 8 нет в базе данных
Трек 9 нет в базе данных
Трек 10 нет в базе данных
Трек 11 нет в базе данных
Трек 12 нет в базе данных
Трек 13 нет в базе данных

Ни одного трека нет в базе AccurateRip

Конец отчёта
1975 L`Ete Indien (CD Single Bonus) 00
Joe Dassin - Integrale Albums
1. L`Ete Indien (Africa)
2. Moi J`Ai Dit Non

eac
Exact Audio Copy V0.99 prebeta 4 from 23. January 2008

Отчёт EAC об извлечении, выполненном 11. сентября 2009, 18:55

Joe Dassin / L`Ete Indien ( Single )

Дисковод: HL-DT-STDVD-RW GWA-4040N Adapter: 1 ID: 0

Режим чтения : Достоверность
Использование точного потока : Да
Отключение кэша аудио : Да
Использование указателей C2 : Нет

Коррекция смещения при чтении : 48
Способность читать области Lead-in и Lead-out : Нет
Заполнение пропущенных сэмплов тишиной : Да
Удаление блоков с тишиной в начале и конце : Нет
При вычислениях CRC использовались нулевые сэмплы : Да
Интерфейс : Установленный внешний ASPI-интерфейс

Выходной формат : Пользовательский кодировщик
Выбранный битрейт : 768 kBit/s
Качество : Высокий
Добавление ID3-тэга : Да
Утилита сжатия : C:Program FilesExact Audio CopyFLACFLAC.EXE
Дополнительные параметры : -6 -V -T "ARTIST=%a" -T "TITLE=%t" -T "ALBUM=%g" -T "DATE=%y" -T "TRACKNUMBER=%n" -T "GENRE=%m" -T "COMMENT=%e" %s -o %d

TOC извлечённого CD

Трек | Старт | Длительность | Начальный сектор | Конечный сектор
---------------------------------------------------------------------
1 | 0:00.00 | 4:33.22 | 0 | 20496
2 | 4:33.22 | 2:26.50 | 20497 | 31496

Характеристики диапазона извлечения и сообщения об ошибках

Выбранный диапазон

Имя файла C:DownloadsJoe Dassin - Integrale Albums - Limited Edition 15CDCD 15 - Joe Dassin - L`Ete Indien, 1975 ( CD Single Bonus )Joe Dassin - L`Ete Indien ( Single ).wav

Пиковый уровень 98.0 %
Качество диапазона 100.0 %
CRC теста 0462F54F
CRC копии 0462F54F
Копирование... OK

Ошибок не произошло

AccurateRip: сводка

Трек 1 нет в базе данных
Трек 2 нет в базе данных

Ни одного трека нет в базе AccurateRip

Конец отчёта

Доп. информация:
ДопInfo

Sony Music Entertainment

Limited Edition No. 2679
Catalog No.: VER 4981352
Barcode: 5 099749 813526

Made in France

Музыка / Lossless / Дискографии (Поп музыка)
СКАЧАТЬ БЕСПЛАТНО  [3.0 GB]


28
фев
2012

Joe Dassin - L'integrale [2005, Chanson, MP3]

Формат: MP3, tracks, 320kbps
Год выпуска: 2005
Страна: France
Жанр: Chanson
Продолжительность: 12:37:16
Описание: 01 - Bip Bip 01 01. Il a plu 02. Dis-moi, dis-lui 03. Ca n'est pas une fille pour to 04. Je vais mon chemin 05. Isabelle, prends mon chapeau 06. Mache ta chique 07. Les jours s'en vont pareils 08. Bip bip 09. Je n'ai que mes mains 10. Pas sentimental 11. Guantanamera 12. Je change un peu de vent 13. Ca m'avance а quoi 14. Combien de temps pour t'oublier 15. Comme la lune 16. Le tricheur 17. Katy cruel 18. Celle que j'oublie 19. Dans la brыme du matin 20. Excuse m ...

22
мая
2013

Joe Dassin - Dassin Symphonique [2010, Pop, MP3]

Формат: MP3, tracks, 320kbps
Год выпуска: 2010
Страна: France
Жанр: Pop
Продолжительность: 00:58:14
Описание: 01. Ma Musique 02. Et Si Tu N'Existais Pas 03. Salut Les Amoureux 04. Happy Birthday 05. Il Était Une Fois Nous Deux 06. À Toi 07. Dans Les Yeux D'Émilie 08. L'Été Indien 09. Si Tu t'Appelles Mélancolie 10. Ça Va Pas Changer Le Monde 11. La Demoiselle De Déshonneur 12. Salut 13. À Mon Fils (Sébastian) 14. Le Jardin Du Luxembourg 15. Sa Musique

22
мар
2008

Joe Dassin [mp3, 128]

Страна: France
Жанр: Chanson
Продолжительность: 2:05:28
Формат: MP3
Битрейт аудио: 128 кбит/сек
Трэклист: » Joe Dassin - A Toi » Joe Dassin - At situ nexistais pa » Joe Dassin - Bip-bip » Joe Dassin - Blue Country (Home Made Ice Cream) » Joe Dassin - Ca Va Pas Changer le Monde » Joe Dassin - Combien de temps pour t`oublie » Joe Dassin - Comme la Lune » Joe Dassin - C`est la nuit » Joe Dassin - Dans la Brume du Matin » Joe Dassin - Dans les yeux d`Emilie » Joe Dassin - Emmanuel » Joe Dassin - Et Si Tun Existais Pas » Joe Dassin - Guantanamera » Joe Dassin - Happy Birthday (Balleto) ...

28
мая
2007

Joe Dassin [mpeg audio, 128]

Страна: Франция
Жанр: Chanson
Продолжительность: 15 мин
Формат: MPEG Audio
Битрейт аудио: 128-192 кбит/сек
Трэклист: 1. A Toi 2. Le Cafe Des 3 Colombes 3. Le petit pain au chocolat 4. L'ete indien

12
мар
2013

Taj Mahal - The Complete Columbia Albums Collection (15CD Box Set) [2013, Blues, Blues Rock, Folk, Funk, Soul, Rhythm & Blues, FLAC]

Формат: FLAC, (image+ .cue), lossless
Год выпуска: 2013
Страна: USA
Жанр: Blues, Blues Rock, Folk, Funk, Soul, Rhythm & Blues
Продолжительность: 11:24:57
Описание: 1992 - Rising Sons featuring Taj Mahal And Ry Cooder (Recorded 1965/66) 01
Трeклист: 01. Statesboro Blues 02:25 02. If The River Was Whiskey (Divin' Duck Blues) 02:42 03. By And By (Poor Me) 03:33 04. Candy Man 02:05 05. 2:10 Train 04:11 06. Let The Good Times Roll 02:44 07. .44 Blues 03:24 08. 11th Street Overcrossing 02:13 09. Corrin, Corrina 02:57 10. Tulsa County 02:43 11. Walkin' Down The Line 02:15 12. The Girl W ...

07
фев
2009

Collection 2000 Joe Dassin [2000,Franch Shanson, WAV,1411 kbp/s]

Формат: WAV, tracks, 1411 kbp/s
Год выпуска: 2000
Страна: Франция
Жанр: Franch Shanson
Продолжительность: 1:11:02
РаскрытьОписание: Tracklist 01. Salut (3:17) 02. A Toi (2:47) 03. Les Champs-Elysees (2:37) 04. La Fleur Aux Dents (2:10) 05. Siffler Sur La Colline (2:37) 06. Le Moustique (2:19) 07. Taka Takata (2:35) 08. Is Faut Naitre A Monaco (1:52) 09. Guantanamera (2:53) 10. L'ete Indien (4:30) 11. Quand On A Du Feu (2:39) 12. L'Equipe a Jojo (3:10) 13. Si Tu T'Appelles Melancolie (3:13) 14. Marie-Jeanne (4:11) 15. Ca Va Pas Changer Le Monde (3:02) 16. Ce N'Est Rien Que Du Vent (4:15) 17. Qu ...

02
ноя
2014

Joe Dassin - A New York [1966, Pop, Retro, MP3]

Формат: MP3, tracks, 320kbps
Год выпуска: 1966
Страна: France
Жанр: Pop, Retro
Продолжительность: 00:32:12
Описание: 1. Excuse Me, Lady 2. Sometime Lovin 3. Guantanamera 4. Je Change Un Peu De Vent 5. Celle Que J`Oublie 6. Comme La Lune 7. Petite Mama 8. Joli Minou 9. Dans La Brume Du Matin 10. Vive Moi 11. Katy Cruel 12. Ca M`Avance A Quoi

08
мар
2013

Joe Dassin - Поет Джо Дассен [1979, Pop,Retro, MP3]

Формат: MP3, tracks, 320kbps
Год выпуска: 1979
Страна: France
Жанр: Pop, Retro
Продолжительность: 00:42:00
Описание: Треклист 01. Если бы тебя не было. Et Si Tu N'existais Pas (S.Cutugno-Losito-P.Delanoe-C.Lemesle-V.Pallavicini) 02. Альбатрос. L'Albatros (S.Cutugno-L.Tonet-P.Delanoe-C.Lemesle-V.Pallavicini) 03. Моя музыка. Ma Musique (G.Sutherland-P.Delanoe-C.Lemesle) 04. Это не изменит мир. Ca Va Pas Changer Le Monde (P.Massara-J.Dassin-P.Delanoe-C.Lemesle-V.Pallavicini) 05. Привет. Salut (S.Cutugno-Losito-P.Delanoe-C.Lemesle-V.Pallavicini) 06. Елисейские поля. Les Champs-Elysees (M.W ...

20
июл
2010

Joe Dassin - Ses Plus Grands Succes [2000, Pop, DVD5]

Формат: DVD5, DVD Video, MPEG2, AC3
Жанр: Pop
Продолжительность: 01:42:41
Год выпуска: 2000
Видео: 720x576 (PAL 4:3), at 25.000 fps~4722 Kbps
Аудио: Dolby AC3, 2 ch 192 Kbps~ 48.0 kHz Треклист 01. Le Chemin De Papa 02. La Fleur aux Dents 03. La Complainte de L'Heure de Pointe 04. Salut Les Amoureux 05. Les Plus Belles Annees de ma Vie 06. Si Tu T'Appelles Melancolie 07. Annie de l'annee derniere 08. L'Amour, etc... 09. Il Faut Naitre a Monaco 10. Salut 11. L'Amerique 12. Ca va pas Changer Le Monde 13. Et si tu N'Existais Pas 14. Il Etait Une Fois Nous Deux 15. Le Petit Pain au Chocolat 16. ...

05
янв
2014

Joe Dassin - a l`Olympia [1979, Chanson, Rock-n-Roll, DVBRip]

Формат: DVBRip, MPG, MPEG-2, MP2
Песня: a l`Olympia
Жанр: Chanson, Rock-n-Roll
Продолжительность: 00:50:04
Год выпуска: 1979
Видео: 544*576 (PAL 4:3) 25,000 кадр/сек, MPEG Video Version 2, ~1746 Кбит/сек, 0.223 Бит/Пиксели
Аудио: 48 КГц, MPEG Audio Layer 2, 2 канала(ов), 192 кбит/сек
Дополнительная информация: Телеканар "Россия К" предлагает Вашему вниманию выступление одного из самых популярных французских певцов Джо Дассена, в концертном зале "Олимпия" (Париж). В программу концерта вошли такие шлягеры, как "Бабье лето", "Если бы тебя не было", "Елисейские поля", "Америка". В концерте при ...

23
мар
2008

Joe Dassin - Les plus grands succes [1979, Концерт, DVDRip]

Исполнитель: Joe Dassin
Песня: Les plus grands succes
Страна: Франция
Год выпуска: 1979
Продолжительность: 01:13:34
Жанр: Концерт
Язык: Французский
Описание: Концертные выступления 1971-1979 г.
Список композиций: 01. LE CHEMIN DE PAPA 02. LA FLEUR AUX DENTS 03. LA COMPLAINTE DE L'HEURE DE POINTE 04. SALUT LES AMOUREUX 05. LES PLUS BELLES ANNEES DE MA VIE 06. SI TU T'APPELLES MELANCOLIE 07. ANNIE DE L'ANNEE DERNIERE 08. L'AMOUR ETC... 09. IL FAUT NAITRE A MONACO 10. SALUT 11. L'AMERIQUE 12. CA VA PAS CHANGER LE MONDE 13. ET SI TU N"EXISTAIS PAS 14. IL ETAIT UNE FOIS NOUS DEUX 15. LE PETIT PAIN ...

08
янв
2015

Joe Dassin - a l`Olympia [1979, Chanson, Rock-n-Roll, IPTVRip]

Формат: IPTVRip, AVI, XviD, AC3
Песня: a l`Olympia
Жанр: Chanson, Rock-n-Roll
Продолжительность: 00:57:33
Год выпуска: 1979
Видео: 720x528 (1.36:1), 25 fps, XviD build 66 ~1986 kbps avg, 0.21 bit/pixel
Аудио: 48 kHz, AC3 Dolby Digital, 2/0 (L,R) ch, ~192 kbps
Дополнительная информация: Концерт одного из самых популярных французских певцов Джо Дассена в концертном зале "Олимпия" (Париж). В программу концерта вошли такие шлягеры, как "Встреча в кафе", "Если бы тебя не было", "Две родины", "Америка". Треклист01. Встреча в кафе 02. Улыбка 03. Если б не было тебя 04. За тебя 05. Кафе трех гол ...

06
мар
2010

Joe Dassin / Джо Дассен - Grand Collection [2001, Pop, MP3]

Формат: MP3, tracks, 128-192kbps [VBR]
Год выпуска: 2001
Страна: Франция
Жанр: Pop
Продолжительность: 01:11:04
Описание: 01. Salut 02. L'ete indien 03. Les Champs-Elysees 04. Et si tu n'existais pas 05. Il faut naitre a Monaco 06. A Toi 07. Ca va pas changer le Monde 08. L'equipe a Jojo 09. Salut les Amoreux 10. L'amerique 11. Siffler sur la colline 12. Le cafe des 3 Colombes 13. Le dernier slow 14. Comme la lune 15. C'est la vie lily 16. Le chemin de papa 17. Dans la brume du matin 18. Il etait une fois nous deux 19. Guantanamera 20. The Guitar don't lie 21. Taka Takata 22. Si tu t'appeles me ...

03
ноя
2014

Joe Dassin - Les Deux Mondes De [2014, Pop, Retro, MP3]

Формат: MP3, tracks, 320kbps
Год выпуска: 2014
Страна: France
Жанр: Pop, Retro
Продолжительность: 00:33:57
Описание: 1. Les Dalton 2. Pauvre Doudou 3. Tout Bebe A Besoin D`Une Maman 4. The Last Thing Of My Mind 5. St. James Infirmary Blues 6. L`Ombre D`Un Amour 7. Paper Heart 8. Marie-Jeanne 9. Hello Hello! 10. My Funny Valentine 11. Viens Voir Le Loup

10
июн
2013

Joe Dassin - Gold vol.1&2 [1994, Pop, FLAC]

Формат: FLAC, (image + .cue), lossless
Год выпуска: 1994
Страна: France
Жанр: Pop
Продолжительность: 01:34:28
Описание: Треклист CD - 1 48:13 01. L'Ete indien 02. L'Amerique 03. Les Dalton 04. Siffler sur la colline 05. My Funny Valentine 06. Polk salad Annie 07. Si tu penses a moi (No Woman No Cry) 08. Guantanamera 09. Cecilia 10. Katy Cruel 11. C'est bon l'amour 12. Bip bip 13. Salut les amoureux 14. Carolina (Sad Sweet Dreamer) 15. L'amour etc... CD - 2 46:15 01. Les Champs Elysees 02. Si tu t'appelles melancolie 03. Si je dis, je t'aime 04. Faut pas faire de la peine a John 05. Toi le ...