02

2012

Yes - Time And A Word [1970, Progressive Rock, FLAC]

Yes - Time And A Word

: FLAC, (image + .cue), lossless
: 1970
: UK
: Progressive Rock
: 03:59:41
:
Time And A Word (1st Press Atlantic 18P2-2882 Japan 1989) 0
Yes - Time And A Word
1. No Opportunity Necessary, No Experience Needed
2. Then
3. Everydays
4. Sweet Dreams
5. The Prophet
6. Clear Days
7. Astral Traveller
8. Time And A Word

EAC
EAC extraction logfile from 9. March 2008, 14:20 for CD
Yes / Time and a Word

Used drive : SlimtypeDVDRW SOSW-833S Adapter: 1 ID: 0
Read mode : Secure with NO C2, accurate stream, disable cache
Read offset correction : 6
Overread into Lead-In and Lead-Out : No

Used output format : C:ProgramFLACflac.exe (User Defined Encoder)
192 kBit/s
Additional command line options : -V -8 -T "artist=%a" -T "title=%t" -T "album=%g" -T "date=%y" -T "tracknumber=%n" -T "genre=%m" %s

Other options :
Fill up missing offset samples with silence : Yes
Delete leading and trailing silent blocks : No
Native Win32 interface for Win NT & 2000

Track 1
Filename D:U-torrentMUSIKYes - Time And A Word (1970) [FLAC] {Japan 1st press 18P2-2882}1 - No Opportunity Necessary, No Experience Needed.wav

Pre-gap length 0:00:02.00

Peak level 98.5 %
Track quality 100.0 %
Test CRC 8D33CBBC
Copy CRC 8D33CBBC
Copy OK

Track 2
Filename D:U-torrentMUSIKYes - Time And A Word (1970) [FLAC] {Japan 1st press 18P2-2882}2 - Then.wav

Pre-gap length 0:00:02.33

Peak level 100.0 %
Track quality 100.0 %
Test CRC 92C9B318
Copy CRC 92C9B318
Copy OK

Track 3
Filename D:U-torrentMUSIKYes - Time And A Word (1970) [FLAC] {Japan 1st press 18P2-2882}3 - Everydays.wav

Pre-gap length 0:00:02.33

Peak level 100.0 %
Track quality 100.0 %
Test CRC DB9678D8
Copy CRC DB9678D8
Copy OK

Track 4
Filename D:U-torrentMUSIKYes - Time And A Word (1970) [FLAC] {Japan 1st press 18P2-2882}4 - Sweet Dreams.wav

Pre-gap length 0:00:02.33

Peak level 98.6 %
Track quality 100.0 %
Test CRC 2BDCFF7B
Copy CRC 2BDCFF7B
Copy OK

Track 5
Filename D:U-torrentMUSIKYes - Time And A Word (1970) [FLAC] {Japan 1st press 18P2-2882}5 - Prophet.wav

Pre-gap length 0:00:02.33

Peak level 93.3 %
Track quality 100.0 %
Test CRC F646AF50
Copy CRC F646AF50
Copy OK

Track 6
Filename D:U-torrentMUSIKYes - Time And A Word (1970) [FLAC] {Japan 1st press 18P2-2882}6 - Clear Days.wav

Pre-gap length 0:00:02.33

Peak level 98.2 %
Track quality 100.0 %
Test CRC B0820094
Copy CRC B0820094
Copy OK

Track 7
Filename D:U-torrentMUSIKYes - Time And A Word (1970) [FLAC] {Japan 1st press 18P2-2882}7 - Astral Traveller.wav

Pre-gap length 0:00:02.33

Peak level 100.0 %
Track quality 100.0 %
Test CRC 7C28AAE4
Copy CRC 7C28AAE4
Copy OK

Track 8
Filename D:U-torrentMUSIKYes - Time And A Word (1970) [FLAC] {Japan 1st press 18P2-2882}8 - Time and a Word.wav

Pre-gap length 0:00:02.33

Peak level 96.2 %
Track quality 100.0 %
Test CRC 4D352341
Copy CRC 4D352341
Copy OK

No errors occured

End of status report

Time And A Word (1st Press Atlantic 8273-2 USA 1989) 0
Yes - Time And A Word
1. No Opportunity Necessary, No Experience Needed
2. Then
3. Everydays
4. Sweet Dreams
5. The Prophet
6. Clear Days
7. Astral Traveller
8. Time And A Word

EAC
Exact Audio Copy V0.99 prebeta 4 from 23. January 2008

EAC extraction logfile from 20. November 2009, 15:24

Yes / Yes . 1970 . Time and a Word (8273-2 US)

Used drive : PIONEER DVD-RW DVR-105 Adapter: 0 ID: 1

Read mode : Secure
Utilize accurate stream : Yes
Defeat audio cache : Yes
Make use of C2 pointers : No

Read offset correction : 48
Overread into Lead-In and Lead-Out : No
Fill up missing offset samples with silence : Yes
Delete leading and trailing silent blocks : No
Null samples used in CRC calculations : Yes
Used interface : Installed external ASPI interface

Used output format : User Defined Encoder
Selected bitrate : 768 kBit/s
Quality : High
Add ID3 tag : No
Command line compressor : C:Program FilesExact Audio CopyFlacflac.exe
Additional command line options : -8 -V -T "ARTIST=%a" -T "TITLE=%t" -T "ALBUM=%g" -T "DATE=%y" -T "TRACKNUMBER=%n" -T "GENRE=%m" -T "COMMENT=%e" %s -o %d

TOC of the extracted CD

Track | Start | Length | Start sector | End sector
---------------------------------------------------------
1 | 0:00.32 | 4:50.45 | 32 | 21826
2 | 4:51.02 | 5:46.50 | 21827 | 47826
3 | 10:37.52 | 6:09.73 | 47827 | 75574
4 | 16:47.50 | 3:52.17 | 75575 | 92991
5 | 20:39.67 | 6:37.05 | 92992 | 122771
6 | 27:16.72 | 2:07.43 | 122772 | 132339
7 | 29:24.40 | 5:55.30 | 132340 | 158994
8 | 35:19.70 | 4:30.37 | 158995 | 179281

Range status and errors

Selected range

Filename C:Yes . 1970 . Time and a Word (8273-2 US)Yes . 1970 . Time and a Word (8273-2 US).wav

Peak level 100.0 %
Range quality 99.9 %
Test CRC 54C67077
Copy CRC 54C67077
Copy OK

No errors occurred

AccurateRip summary

Track 1 accurately ripped (confidence 16) [F53A1720]
Track 2 accurately ripped (confidence 17) [05F41A5E]
Track 3 accurately ripped (confidence 15) [FA2E17DE]
Track 4 accurately ripped (confidence 16)
Track 5 accurately ripped (confidence 16) [116D5241]
Track 6 accurately ripped (confidence 16) [A4EB91E5]
Track 7 accurately ripped (confidence 16) [7DA699D0]
Track 8 accurately ripped (confidence 15) [A562526B]

All tracks accurately ripped

End of status report

Time And A Word ( Remastered by Joe Gastwirt Atlantic 7567-82681-2 1994) 0
Yes - Time And A Word
1. No Opportunity Necessary, No Experience Needed
2. Then
3. Everydays
4. Sweet Dreams
5. The Prophet
6. Clear Days
7. Astral Traveller
8. Time And A Word

EAC
Exact Audio Copy V0.99 prebeta 5 from 4. May 2009

EAC extraction logfile from 23. March 2011, 14:50

Yes / Time And A Word

Used drive : TSSTcorpCDDVDW SH-S203B Adapter: 2 ID: 0

Read mode : Secure
Utilize accurate stream : Yes
Defeat audio cache : Yes
Make use of C2 pointers : No

Read offset correction : 6
Overread into Lead-In and Lead-Out : No
Fill up missing offset samples with silence : Yes
Delete leading and trailing silent blocks : No
Null samples used in CRC calculations : Yes
Used interface : Native Win32 interface for Win NT & 2000

Used output format : Internal WAV Routines
Sample format : 44.100 Hz; 16 Bit; Stereo

TOC of the extracted CD

Track | Start | Length | Start sector | End sector
---------------------------------------------------------
1 | 0:00.00 | 4:53.00 | 0 | 21974
2 | 4:53.00 | 5:50.37 | 21975 | 48261
3 | 10:43.37 | 6:12.50 | 48262 | 76211
4 | 16:56.12 | 3:51.63 | 76212 | 93599
5 | 20:48.00 | 6:39.07 | 93600 | 123531
6 | 27:27.07 | 2:09.23 | 123532 | 133229
7 | 29:36.30 | 5:57.15 | 133230 | 160019
8 | 35:33.45 | 4:31.65 | 160020 | 180409

Range status and errors

Selected range

Filename C:IncomingYes 1969-1970 (1994 Joe Gastwirt Remasters)1970-Time And A Word [1994, Atlantic 7567-82681-2, Germany]Yes - Time And A Word [1994, Atlantic 7567-82681-2, Germany].wav

Peak level 100.0 %
Range quality 99.9 %
Test CRC C261E548
Copy CRC C261E548
Copy OK

No errors occurred

AccurateRip summary

Track 1 accurately ripped (confidence 34) [F3055B9A]
Track 2 accurately ripped (confidence 34) [33EF10A8]
Track 3 accurately ripped (confidence 34) [3A7F94F3]
Track 4 accurately ripped (confidence 34) [81A44706]
Track 5 accurately ripped (confidence 34) [9498E9CC]
Track 6 accurately ripped (confidence 33) [8D2B97BB]
Track 7 accurately ripped (confidence 34) [6AC78673]
Track 8 accurately ripped (confidence 34) [7B199ECD]

All tracks accurately ripped

End of status report

Time And A Word (Remastered Rhino Elektra Rhino 8122-73787-2 Germany 2003) 01
Yes - Time And A Word
01. No Opportunity Necessary, No Experience Needed
02. Then
03. Everydays
04. Sweet Dreams
05. The Prophet
06. Clear Days
07. Astral Traveller
08. Time And A Word


Bonus Tracks

09. Dear Father
10. No Opportunity Necessary, No Experience Needed (Original Mix)
11. Sweet Dreams (Original Mix)
12. The Prophet (Single Version)

EAC
Plik sprawozdania ze zgrywania programem EAC z 14. Marca 2006, 21:07 dla pyty
Yes / Time And A Word

Uyty napd: _NEC DVD_RW ND-3500AG Adapter: 1 ID: 0
Tryb odczytu: Pewny BEZ C2, z dokadnym strumieniem, wyczone buforowanie
Korekta pooenia dla odczytu: 48
Nadczytywanie w obszarach LeadIn i LeadOut : Nie

Uyty format wyjciowy: Wewntrzne procedury WAV
44.100 Hz; 16 bitw; stereo

Inne opcje:
Dopenienie cisz brakujcych przesunitych prbek : Tak
Usuwanie pocztkowych i kocowych blokw ciszy : Nie
Zainstalowane zewntrzne sterowniki ASPI

Nagranie 1
cieka pliku F: mp3Yes - Time And A Word (1970) [APE]Yes - Time And A Word - 01 No Opportunity Necessary, No Experience Needed.wav

Poziom wysterowania 97.2 %
Jako nagrania 99.9 %
Kopiowana CRC 9AEE143A
Kopia bezbdna

Nagranie 2
cieka pliku F: mp3Yes - Time And A Word (1970) [APE]Yes - Time And A Word - 02 Then.wav

Poziom wysterowania 97.2 %
Jako nagrania 100.0 %
Kopiowana CRC E4CE1173
Kopia bezbdna

Nagranie 3
cieka pliku F: mp3Yes - Time And A Word (1970) [APE]Yes - Time And A Word - 03 Everydays.wav

Poziom wysterowania 97.2 %
Jako nagrania 100.0 %
Kopiowana CRC 0D8E9021
Kopia bezbdna

Nagranie 4
cieka pliku F: mp3Yes - Time And A Word (1970) [APE]Yes - Time And A Word - 04 Sweet Dreams.wav

Poziom wysterowania 97.2 %
Jako nagrania 100.0 %
Kopiowana CRC 7AFC5ACC
Kopia bezbdna

Nagranie 5
cieka pliku F: mp3Yes - Time And A Word (1970) [APE]Yes - Time And A Word - 05 The Prophet.wav

Poziom wysterowania 97.2 %
Jako nagrania 100.0 %
Kopiowana CRC 84A3A156
Kopia bezbdna

Nagranie 6
cieka pliku F: mp3Yes - Time And A Word (1970) [APE]Yes - Time And A Word - 06 Clear Days.wav

Poziom wysterowania 75.3 %
Jako nagrania 100.0 %
Kopiowana CRC C12C1155
Kopia bezbdna

Nagranie 7
cieka pliku F: mp3Yes - Time And A Word (1970) [APE]Yes - Time And A Word - 07 Astral Traveler.wav

Poziom wysterowania 97.2 %
Jako nagrania 100.0 %
Kopiowana CRC A110CC43
Kopia bezbdna

Nagranie 8
cieka pliku F: mp3Yes - Time And A Word (1970) [APE]Yes - Time And A Word - 08 Time And A Word.wav

Poziom wysterowania 97.2 %
Jako nagrania 100.0 %
Kopiowana CRC B9C5F5C3
Kopia bezbdna

Nagranie 9
cieka pliku F: mp3Yes - Time And A Word (1970) [APE]Yes - Time And A Word - 09 Dear Father.wav

Poziom wysterowania 97.2 %
Jako nagrania 100.0 %
Kopiowana CRC 1757818F
Kopia bezbdna

Nagranie 10
cieka pliku F: mp3Yes - Time And A Word (1970) [APE]Yes - Time And A Word - 10 No Opportunity Necessary, No Experience Needed (Original Mix).wav

Poziom wysterowania 97.2 %
Jako nagrania 100.0 %
Kopiowana CRC 2A9F957A
Kopia bezbdna

Nagranie 11
cieka pliku F: mp3Yes - Time And A Word (1970) [APE]Yes - Time And A Word - 11 Sweet Dreams (Original Mix).wav

Poziom wysterowania 97.2 %
Jako nagrania 100.0 %
Kopiowana CRC 50969AA6
Kopia bezbdna

Nagranie 12
cieka pliku F: mp3Yes - Time And A Word (1970) [APE]Yes - Time And A Word - 12 The Prophet (Single Version).wav

Poziom wysterowania 97.2 %
Jako nagrania 100.0 %
Kopiowana CRC 51C854BD
Kopia bezbdna

Nie byo bdw

Koniec raportu

Time And A Word (SHM-CD Expanded and Remastered Warner Music WPCR WPCR 13513 Japan 2009) 01
Yes - Time And A Word
01. No Opportunity Necessary, No Experience Needed
02. Then
03. Everydays
04. Sweet Dreams
05. The Prophet
06. Clear Days
07. Astral Traveller
08. Time And A Word


Bonus Tracks

09. Dear Father
10. No Opportunity Necessary, No Experience Needed (Original Mix)
11. Sweet Dreams (Original Mix)
12. The Prophet (Single Version)

EAC
Exact Audio Copy V0.99 prebeta 4 from 23. January 2008

EAC extraction logfile from 22. September 2009, 15:31

Yes / Time And A Word

Used drive : _NEC DVD_RW ND-2500A Adapter: 0 ID: 0

Read mode : Secure
Utilize accurate stream : Yes
Defeat audio cache : Yes
Make use of C2 pointers : No

Read offset correction : 48
Overread into Lead-In and Lead-Out : No
Fill up missing offset samples with silence : Yes
Delete leading and trailing silent blocks : No
Null samples used in CRC calculations : Yes
Used interface : Native Win32 interface for Win NT & 2000

Used output format : User Defined Encoder
Selected bitrate : 768 kBit/s
Quality : High
Add ID3 tag : No
Command line compressor : C:Program FilesExact Audio CopyFLACFLAC.EXE
Additional command line options : -8 -V -T "ARTIST=%a" -T "TITLE=%t" -T "ALBUM=%g" -T "DATE=%y" -T "TRACKNUMBER=%n" -T "GENRE=%m" -T "COMMENT=%e" %s -o %d

TOC of the extracted CD

Track | Start | Length | Start sector | End sector
---------------------------------------------------------
1 | 0:00.00 | 4:53.06 | 0 | 21980
2 | 4:53.06 | 5:49.73 | 21981 | 48228
3 | 10:43.04 | 6:12.20 | 48229 | 76148
4 | 16:55.24 | 3:51.55 | 76149 | 93528
5 | 20:47.04 | 6:38.60 | 93529 | 123438
6 | 27:25.64 | 2:09.10 | 123439 | 133123
7 | 29:34.74 | 5:57.01 | 133124 | 159899
8 | 35:32.00 | 4:39.44 | 159900 | 180868
9 | 40:11.44 | 4:15.01 | 180869 | 199994
10 | 44:26.45 | 4:45.73 | 199995 | 221442
11 | 49:12.43 | 4:20.69 | 221443 | 241011
12 | 53:33.37 | 6:35.44 | 241012 | 270680

Range status and errors

Selected range

Filename D:Yes SHM-CDTime And A WordYes - Time And A Word.wav

Peak level 100.0 %
Range quality 99.9 %
Copy CRC BC7302EA
Copy OK

No errors occurred

AccurateRip summary

Track 1 not present in database
Track 2 not present in database
Track 3 not present in database
Track 4 not present in database
Track 5 not present in database
Track 6 not present in database
Track 7 not present in database
Track 8 not present in database
Track 9 not present in database
Track 10 not present in database
Track 11 not present in database
Track 12 not present in database

None of the tracks are present in the AccurateRip database

End of status report
/ Lossless /
 [1.5 GB]


16

2011

2002 - A Word In The Wind [2009, New Age, MP3]

: MP3, tracks, 320kbps
: 2009
:
: New Age
: 00:49:29
: 1. 1054 A.D. 2. A Word in the Wind. 3. Spirit Moves. 4. Ancient Circle. 5. Promise of the Ocean. 6. Free to Fly. 7. Rain Dance. 8. The Singing Stone. 9. Dreaming Cloud. 10. Mirage. 11. Trismegistus. 12. Seven Rays.

25

2010

Every Word A Prophecy - Past, Present, And Futuristic Realizations [EP] [ 2010, Deathcore, MP3]

: MP3, tracks, 320kbps
: 2010
: USA (Chattanooga, Tennessee)
: Deathcore
: 00:17:48
: 1. Blinders: A Girl With No Self Control 2. Extraterrestrialists: A Warning Of The Invasion 3. Convulsions: An Expression Of Hate For An Abusive Stepfather 4. Slothfulness: A Selfish And Lazy Human
. :

20

2011

Emerson, Lake Palmer - A Time and A Place [2010, Progressive Rock, Symphonic Prog, FLAC]

: FLAC, (image + .cue), lossless
: 2010
: UK
: Progressive Rock, Symphonic Prog
: 04:44:56
: CD1 - The Early' 70s 01 1. The Barbarian (Isle of Wight Festival, Isle Of Wight, UK on August 29, 1970) 2. Take A Pebble (Beat Club, Bremen, Germany on November 26, 1970) 3. Ballad Of Blue (Lyceum Ballroom, London, UK on December 9, 1970) 4. High Level Fugue (Lyceum Ballroom, London, UK on December 9, 1970) 5. Hoedown (Mar Y Sol Festival, Veja Baja, San Juan, Puerto Rico on April 2, 1972) 6. Still You Turn Me On (The Civic Center, Tulsa, OK on March ...

04

2010

Proof - Time A Tell [2010, Midwest Rap, MP3]

Proof - Time A Tell
: MP3, tracks, 320kbps
: 2010
: USA
: Midwest Rap
: 01:15:57
: 01. Time A Tell Intro 1 02. Time A Tell Intro 2 (Feat. Anna Doll) 03. Friends Aint Really Friends 04. You Heard Of Us (Feat. Killa Kaun & 1st Born) 05. Whole New Beginning (Feat. Supa MC) 06. Shady 07. Yo Chick (Feat. Big Dogg) 08. Priceless 09. I Think Of You 10. Sincerely Proof 11. Block Boyz (Feat. C4) 12. Jus Fooling! 13. Iron Fist (Feat. Supa MC) 14. Pill Pop 15. Time A Tell (Feat. Ty Farris, Yung Famous & The Young Truth) 16. Verbal Spar (Feat ...

23

2016

Xiphea - Once Upon A Time [2016, Symphonic Metal, Female Vocal, MP3]

: MP3, tracks, 320kbps
: 2016
: Germany
: Symphonic Metal, Female Vocal
: 00:42:56
: 01. We Are the Wind 02. Cinderella 03. The Shrine of Ama 04. Mirror on the Wall 05. Dancing with the Wolves 06. The Little Mermaid 07. Power of the Dwarfs 08. Briar Rose 09. Gracious Fate 10. Star Talers

04

2009

Various Artists - A Time For Loving [1994, Classic Rock]

: FLAC, (image + .cue), lossless
: 1994
: Newsound Ltd.
: Classic Rock
: 1:10:02
: (01) Dr Hook A Little Bit More (02) Gllagher & Lyle I Want To Stay With You (03) Rita Coolidge We're All Alone (04) Kenny Rogers Lady (05) Crystal Gale Talking In Your Sleep (06) Minnie Ripperton Loving You (07) Sutherland Brotheras & Quiver Arms Of Mary (08 Johnny Nash Tears On My Pillow (09) [David Essex Hold Me Close (10) Ken Boothe Everything I Own (11) David Soul Going In With My Eyes Open (12) Harold Melvin Keep On Lovin' You (13) Colin Blunstone I ...

24

2014

Voicians - A Matter Of Time [2014, Industrial Rock,Electronic, MP3]

: MP3, tracks, 320kbps
: 2014
: Germany
: Industrial Rock, Electronic
: 01:12:23
: 01. Uncharted 02. Telepathetic 03. This Pain Feels Real 04. Stay 05. Follow The Stream 06. Brainstorm 07. The World Today 08. Endure 09. A.Part 10. Prayer 11. A Journey Without Return 12. The Construct 13. Transfer 14. What Goes Around Comes Around 15. Stomping Grounds 16. Fighters 17. Ultimate Riot 18. A Matter Of Time

04

2012

Heretic - A Time Of Crisis [2012, Power Metal, Thrash Metal, FLAC]

: FLAC, (tracks+ .cue), lossless
: 2012
: USA
: Power Metal, Thrash Metal
: 00:46:09
:
e: 01. The Divine Inquisition (Instrumental) 01:01 02. Tomorrow's Plague 05:18 03. Betrayed 04:37 04. Remains 05:21 05. A Time Of Crisis 04:32 06. For Your Faith 04:38 07. Raise Your Fist 04:21 08. Heretic 02:29 09. Child Of War 03:23 10. Police State 03:33 11. The End Of The World 04:14 12. Let Me Begin Again (Instrumental) 02:36
. : Julian Mendez - Vocals Brian Korban - Guitars Glenn Rogers - Guitars Angelo Es ...

12

2017

Time Shadow - A World Beyond [2017, Melodic Heavy Metal , Melodic Power Metal, MP3]

: MP3, tracks, 320kbps
: 2017
: Ukraine
: Melodic Heavy Metal, Melodic Power Metal
: 00:43:10
: 01. Reign Of Metal 02. Attack 03. Lord Of The Dreams 04. Shadow 05. Ashes 06. A New Day 07. Immortal Warrior 08. Fly Higher 09. Ascending

26

2015

Stash - A Matter Of Time [2015, Melodic Heavy Metal, MP3]

: MP3, tracks, 320kbps
: 2015
: Netherlands
: Melodic Heavy Metal
: 01:06:26
: 1. Intro 00:17 2. By the Light of Fire 03:20 3. The Mountain 04:25 4. Waiting for the Night 03:54 5. Hold on the Line 04:37 6. A Matter of Time 04:26 7. Prelude ( instrumental ) 00:37 8. Born to Run 04:22 9. Blackout 04:39 10. There's Another World 02:57 11. Don't Let It End 04:35 12. Piece of the Action 04:16 13. Outro 00:31 14. By the Light of Fire (Demo) (bonus) 03:14 15. Hold on the Line (Demo) (bonus) 04:23 16. A Matter of Time (Demo) (bonus) 04:27 17. Born ...

03

2014

Drakkar - Once Upon A Time... In Hell! [2014, Heavy Metal, Power Metal, MP3]

: MP3, tracks, 320kbps
: 2014
: Belgium
: Heavy Metal, Power Metal
: 00:54:14
: 01. Enter the Darkness 02. Once Upon a Time in Hell 03. Lost 04. The Angels of Stone 05. Yerushalayim A.D.1096 06. Saint Bartholomew's Night 07. Jubilation At the King Nimrod's Court 08. Babel 09. Scream it Loud 10. Never Give Up 11. War 12. A Destiny That Does Not Heal 13. What's Going On 14. Epilogue

13

2017

Def Leppard - And There Will Be A Next Time... (Live From Detroit) [2017, Hard Rock, MP3]

: MP3, tracks, 320kbps
: 2017
: UK
: Hard Rock
: 01:28:52
: CD 1: (00:43:31) 01. Lets Go 02. Animal 03. Let It Go 04. Dangerous 05. Foolin 06. Love Bites 07. Armageddon It 08. Rock On 09. Man Enough CD 2: (00:45:10) 01. Rocket 02. Bringin On The Heartbreak 03. Switch 625 04. Hysteria 05. Lets Get Rocked 06. Pour Some Sugar On Me 07. Rock of Ages 08. Photograph

16

2013

Dyluvian - A Great Time From Here [2013, Melodic Progressive Heavy Metal, MP3]

: MP3, tracks, 320kbps
: 2013
: Brazil
: Melodic Progressive Heavy Metal
: 00:43:08
: 01. Time Never Comes 02. Ego Trip 03. Road To Sunset 04. Welcome 05. As One 06. A Great Time From Here 07. Dyluvian 08. Back Home 09. Letter To Gulliver 10. Mind Worlds 11. By Your Side

09

2018

VA - Time For A Kiss [2016, Pop, Oldies, FLAC]

: FLAC, (image + .cue), lossless
: 2016
: USA
: Pop, Oldies
: 01:26:16
: CD 1 00 01. Dean Martin - Kiss (2:25) 02. Tony Bennett - Kiss You (2:57) 03. Billie Holiday - Prelude To A Kiss (5:38 ) 04. Vic Damone - We Kiss In A Shadow (4:01) 05. Brook Benton - Hold Me, Thrill Me, Kiss Me (3:33) 06. Doris Day & Les Brown - A Kiss To A Remember (1:50) 07. Eddie Fisher - Warm Kisses In The Cool Of The Night (3:06) 08. The Flamingos - A Kiss From Your Lips (3:05) 09. Guy Mitchell & Doris Day - A Little Kiss Goodnight (2:36) 10. Louis Armstrong - A Kis ...

18

2016

A-ha - Time and Again: The Ultimate [2016, New-Wave, Synthpop, MP3]

: MP3, tracks, 320kbps
: 2016
: Norway
: New-Wave, Synthpop
: 02:37:55
: CD101. Take on Me (2016 Remastered) 02. Sun Always Shines on TV (2016 Remastered) 03. Hunting High and Low (7″ Remix) [2016 Remastered] 04. Ive Been Losing You (2016 Remastered) 05. Cry Wolf (2016 Remastered) 06. Manhattan Skyline (2016 Remastered) 07. Living Daylights (2016 Remastered) 08. Stay on These Roads (2016 Remastered) 09. You Are the One (7″ Remix) [2016 Remastered] 10. Crying in the Rain (2016 Remastered) 11. Move to Memphis (Single Version) [2016 ...