31
мар
2012

Various Artists - 100 Huge Hits Of The 60's 70's (4CD) [2007, Pop-Rock, Jazz, Rock, Progressive Rock, FLAC]

Various Artists - 100 Huge Hits Of The 60's 70's (4CD)

Формат: FLAC, (image + .cue), lossless
Год выпуска: 2007
Страна: UK
Жанр: Pop-Rock, Jazz, Rock, Progressive Rock
Продолжительность: 05:07:10
Описание:
CD 1

01. The Kinks - You Really Got Me
02. Chris Farlowe - Out Of Time
03. Small Faces - Itchycoo Park
04. P.P. Arnold - The First Cut Is The Deepest
05. The Searchers - Needles And Pins
06. The Foundations - Build Me Up Buttercup
07. The Tremeloes - Silence Is Golden
08. Marmalade - Ob-La-Di Ob-La-Da
09. The Tornados - Telstar
10. Petula Clark - Downtown
11. John Leyton - Wild Wind
12. Kenny Ball And His Jazz Men - Midnight In Moscow
13. Joe Brown And the Bruvvers - A Picture Of You
14. Johnny Preston - Running Bear
15. Lonnie Doegan - My Old Man's A Dustman
16. Emile Ford And The Checkmates - What Do You Want To Make Those Eyes At Me For?
17. The Marcels - Blue Moon
18. The Ivy League - Tossing And Turning
19. Joe Dolan - Make Me An Island
20. Donavan - Catch The Wind
21. Fleetwood Mac - Man Of The World
22. Jackie Trent - Where Are You Now (My Love)
23. Jimmy Cliff - Wonderful World, Beautiful People
24. Dave Davis - Death Of A Clown
25. Status Quo - Pictures Of Matchstick Men
26. Amen Corner - (If Paradise Is) Half As Nice
27. Chris Farlowe - Handbags And Gladrags

EAC
Exact Audio Copy V0.99 prebeta 5 from 4. May 2009

Отчёт EAC об извлечении, выполненном 27. марта 2012, 20:58

Various / 100 Huge Hits Of The 60's And 70's Disc 1

Дисковод: HL-DT-STDVDRAM GH22NS50 Adapter: 2 ID: 0

Режим чтения : Достоверность
Использование точного потока : Да
Отключение кэша аудио : Да
Использование указателей C2 : Нет

Коррекция смещения при чтении : 667
Способность читать области Lead-in и Lead-out : Нет
Заполнение пропущенных сэмплов тишиной : Да
Удаление блоков с тишиной в начале и конце : Нет
При вычислениях CRC использовались нулевые сэмплы : Да
Интерфейс : Встроенный Win32-интерфейс для Win NT/2000

Выходной формат : Внутренние WAV-операции
Формат сэмплов : 44.100 Гц; 16 бит; стерео

TOC извлечённого CD

Трек | Старт | Длительность | Начальный сектор | Конечный сектор
---------------------------------------------------------------------
1 | 0:00.00 | 2:14.22 | 0 | 10071
2 | 2:14.22 | 3:31.58 | 10072 | 25954
3 | 5:46.05 | 2:53.27 | 25955 | 38956
4 | 8:39.32 | 3:05.29 | 38957 | 52860
5 | 11:44.61 | 2:14.24 | 52861 | 62934
6 | 13:59.10 | 2:59.66 | 62935 | 76425
7 | 16:59.01 | 3:09.35 | 76426 | 90635
8 | 20:08.36 | 3:02.13 | 90636 | 104298
9 | 23:10.49 | 3:17.24 | 104299 | 119097
10 | 26:27.73 | 3:05.19 | 119098 | 132991
11 | 29:33.17 | 2:14.04 | 132992 | 143045
12 | 31:47.21 | 2:59.73 | 143046 | 156543
13 | 34:47.19 | 2:20.71 | 156544 | 167114
14 | 37:08.15 | 2:37.62 | 167115 | 178951
15 | 39:46.02 | 3:19.45 | 178952 | 193921
16 | 43:05.47 | 2:07.24 | 193922 | 203470
17 | 45:12.71 | 2:16.48 | 203471 | 213718
18 | 47:29.44 | 2:27.58 | 213719 | 224801
19 | 49:57.27 | 2:59.47 | 224802 | 238273
20 | 52:56.74 | 2:17.60 | 238274 | 248608
21 | 55:14.59 | 2:49.42 | 248609 | 261325
22 | 58:04.26 | 2:47.06 | 261326 | 273856
23 | 60:51.32 | 3:14.07 | 273857 | 288413
24 | 64:05.39 | 3:12.60 | 288414 | 302873
25 | 67:18.24 | 3:11.38 | 302874 | 317236
26 | 70:29.62 | 2:44.57 | 317237 | 329593
27 | 73:14.44 | 3:55.69 | 329594 | 347287

Характеристики диапазона извлечения и сообщения об ошибках

Выбранный диапазон

Имя файла C:UsersДашенькаDesktop2007 - 100 Huge Hits Of The 60s & 70s2007 - Various - 100 Huge Hits Of The 60's And 70's Disc 1.wav

Пиковый уровень 96.4 %
Качество диапазона 100.0 %
CRC копии 16B2B256
Копирование... OK

Ошибок не произошло

AccurateRip: сводка

Трек 1 точность не определена (достоверность 2) [9D5004BA], AccurateRip вернул [3B764BB6]
Трек 2 точность не определена (достоверность 2) [C5A6FF03], AccurateRip вернул [98AE1ACD]
Трек 3 точность не определена (достоверность 2) [6689D90F], AccurateRip вернул [6095466B]
Трек 4 точность не определена (достоверность 2) [051FE551], AccurateRip вернул [D77196B1]
Трек 5 точность не определена (достоверность 2) [53BA7F82], AccurateRip вернул [30A8CF06]
Трек 6 точность не определена (достоверность 2) [137E8CD6], AccurateRip вернул [F2B1707E]
Трек 7 точность не определена (достоверность 2) [CBE13EA1], AccurateRip вернул [5B71D14D]
Трек 8 точность не определена (достоверность 2) [77482704], AccurateRip вернул [F38DD01C]
Трек 9 точность не определена (достоверность 2) [84DFBDB9], AccurateRip вернул [6FE30DC7]
Трек 10 точность не определена (достоверность 2) [47304D39], AccurateRip вернул [C424F421]
Трек 11 точность не определена (достоверность 2) [F7CDB1EA], AccurateRip вернул [64BD4AB8]
Трек 12 точность не определена (достоверность 2) [8BFCE4CC], AccurateRip вернул [7FC94CB0]
Трек 13 точность не определена (достоверность 2) [CC6C81EB], AccurateRip вернул [5E7E9CA3]
Трек 14 точность не определена (достоверность 2) [72036C00], AccurateRip вернул [CFB0F7E8]
Трек 15 точность не определена (достоверность 2) [123FCAA2], AccurateRip вернул [EF59173A]
Трек 16 точность не определена (достоверность 2) [1F01CCF2], AccurateRip вернул [0B10871C]
Трек 17 точность не определена (достоверность 2) [BA10B6EB], AccurateRip вернул [AC194CF7]
Трек 18 точность не определена (достоверность 2) [CE29EF45], AccurateRip вернул [E952709D]
Трек 19 точность не определена (достоверность 2) [1D6D6FEC], AccurateRip вернул [BC71700A]
Трек 20 точность не определена (достоверность 2) [7E5E62A1], AccurateRip вернул [48F33025]
Трек 21 точность не определена (достоверность 2) [E01C3205], AccurateRip вернул [77EFB9F3]
Трек 22 точность не определена (достоверность 2) [AF35B042], AccurateRip вернул [E94223B4]
Трек 23 точность не определена (достоверность 2) [0DFB03AB], AccurateRip вернул [06D3C8D1]
Трек 24 точность не определена (достоверность 2) [0B6E1A94], AccurateRip вернул [CD897A14]
Трек 25 точность не определена (достоверность 2) [133B65FF], AccurateRip вернул [ECE85A11]
Трек 26 точность не определена (достоверность 2) [FA27AF20], AccurateRip вернул [CC2948E8]
Трек 27 точность не определена (достоверность 2) [6E154690], AccurateRip вернул [34B8D4CC]

Ни один трек не прошёл проверки на точность
В вашей базе может быть иной вариант штамповки диска

Конец отчёта

CD 2

01. John Leyton - Johnny Remember Me
02. Long John Baldry - Let The Heartaches Begin
03. The Foundations - Baby, Now That I've Found Yo
04. The Kinks - Sunny Afternoon
05. The Tremeloes - Even The Bad Times Are Good
06. Honeybus - I Can't Let Maggie Go
07. Ralph McTell - Streets Of London
08. Desmond Dekker & The Aces - Israelites
09. P.P. Arnold - Angel Of The Morning
10. Marmalade - Reflections Of My Life
11. The Overlanders - Michelle
12. The Showstoppers - Ain't Nothin' But A House Party
13. The Migil Five - Mockingbird
14. The Harry J All Stars - Liquidator
15. Blue Mink - Melting Pot
16. Petula Clark - This Is My Song
17. The Searchers - Sweets For My Sweets
18. Jimmy Justice - When My Little Girl Is Smiling
19. Jimmy Jones - Good Timin'
20. Johnny Keating And His Orchestra - Theme FromZ Cars
21. Pickettywhicj - That Same old Feeling
22. The Rockin' Berries - He's In Town
23. Mark Wynter - Venus In Blue Jeans
24. Joe Brown And The Bruvvers - That's What Love Will Do
25. Humble Pie - Natural Born Bugie
26. The Kinks - Lola

EAC
Exact Audio Copy V0.99 prebeta 5 from 4. May 2009

Отчёт EAC об извлечении, выполненном 27. марта 2012, 21:45

Various / 100 Huge Hits Of The 60's & 70's (CD2)

Дисковод: HL-DT-STDVDRAM GH22NS50 Adapter: 2 ID: 0

Режим чтения : Достоверность
Использование точного потока : Да
Отключение кэша аудио : Да
Использование указателей C2 : Нет

Коррекция смещения при чтении : 667
Способность читать области Lead-in и Lead-out : Нет
Заполнение пропущенных сэмплов тишиной : Да
Удаление блоков с тишиной в начале и конце : Нет
При вычислениях CRC использовались нулевые сэмплы : Да
Интерфейс : Встроенный Win32-интерфейс для Win NT/2000

Выходной формат : Внутренние WAV-операции
Формат сэмплов : 44.100 Гц; 16 бит; стерео

TOC извлечённого CD

Трек | Старт | Длительность | Начальный сектор | Конечный сектор
---------------------------------------------------------------------
1 | 0:00.00 | 2:36.62 | 0 | 11761
2 | 2:36.62 | 3:15.00 | 11762 | 26386
3 | 5:51.62 | 2:37.60 | 26387 | 38221
4 | 8:29.47 | 3:33.34 | 38222 | 54230
5 | 12:03.06 | 2:38.59 | 54231 | 66139
6 | 14:41.65 | 2:57.03 | 66140 | 79417
7 | 17:38.68 | 4:09.42 | 79418 | 98134
8 | 21:48.35 | 2:35.52 | 98135 | 109811
9 | 24:24.12 | 3:20.33 | 109812 | 124844
10 | 27:44.45 | 4:17.45 | 124845 | 144164
11 | 32:02.15 | 2:23.51 | 144165 | 154940
12 | 34:25.66 | 2:37.64 | 154941 | 166779
13 | 37:03.55 | 2:47.41 | 166780 | 179345
14 | 39:51.21 | 2:53.29 | 179346 | 192349
15 | 42:44.50 | 3:50.07 | 192350 | 209606
16 | 46:34.57 | 3:18.15 | 209607 | 224471
17 | 49:52.72 | 2:28.58 | 224472 | 235629
18 | 52:21.55 | 2:27.53 | 235630 | 246707
19 | 54:49.33 | 2:10.19 | 246708 | 256476
20 | 56:59.52 | 2:13.07 | 256477 | 266458
21 | 59:12.59 | 3:04.01 | 266459 | 280259
22 | 62:16.60 | 2:37.33 | 280260 | 292067
23 | 64:54.18 | 2:11.01 | 292068 | 301893
24 | 67:05.19 | 2:25.35 | 301894 | 312803
25 | 69:30.54 | 4:13.01 | 312804 | 331779
26 | 73:43.55 | 4:07.11 | 331780 | 350315

Характеристики диапазона извлечения и сообщения об ошибках

Выбранный диапазон

Имя файла C:UsersДашенькаDesktop2007 - 100 Huge Hits Of The 60s & 70s2007 - Various - 100 Huge Hits Of The 60's & 70's (CD2).wav

Пиковый уровень 96.5 %
Качество диапазона 99.9 %
CRC копии F297F136
Копирование... OK

Ошибок не произошло

AccurateRip: сводка

Трек 1 точное извлечение (доверие 3)
Трек 2 точное извлечение (доверие 3) [7CB15504]
Трек 3 точное извлечение (доверие 3) [8B6DCECF]
Трек 4 точное извлечение (доверие 3) [BB5857C4]
Трек 5 точное извлечение (доверие 3) [DC895890]
Трек 6 точное извлечение (доверие 3) [492E42DF]
Трек 7 точное извлечение (доверие 3) [3E09F4B7]
Трек 8 точное извлечение (доверие 3) [480D4301]
Трек 9 точное извлечение (доверие 3) [8F7A6B85]
Трек 10 точное извлечение (доверие 3) [173D89E4]
Трек 11 точное извлечение (доверие 3) [6DC215F1]
Трек 12 точное извлечение (доверие 3) [71D29E0C]
Трек 13 точное извлечение (доверие 3) [7D8C6FD0]
Трек 14 точное извлечение (доверие 3) [5E72A613]
Трек 15 точное извлечение (доверие 3) [F4F630E1]
Трек 16 точное извлечение (доверие 3) [F3EA09FC]
Трек 17 точное извлечение (доверие 3) [3738F75E]
Трек 18 точное извлечение (доверие 3) [F8EFACB2]
Трек 19 точное извлечение (доверие 3) [6E0D38F2]
Трек 20 точное извлечение (доверие 3) [1C83DE07]
Трек 21 точное извлечение (доверие 3) [231B8AEF]
Трек 22 точное извлечение (доверие 3) [453B8192]
Трек 23 точное извлечение (доверие 3) [8951D697]
Трек 24 точное извлечение (доверие 3) [C4762077]
Трек 25 точное извлечение (доверие 3) [F583C52E]
Трек 26 точное извлечение (доверие 3) [834EFA20]

Все треки извлечены точно

Конец отчёта

CD 3

01. Mungo Jerry - In The Summertime
02. The Real Thing - You To Me Are Everything
03. Freda Payne - Band Of Gold
04. Chairmen Of The Board - Give Me Just A Little More Time
05. Carl Douglas - Kung Fu Fighting
06. Disco Tex And The Sex-O-Lettes - Get Dancing
07. Barry Blue - Dancing On A Saturday Night
08. Donnie Elbert - Where Did Our Love Go?
09. Don Fardon - Indian Reservation
10. Lieutenant Pigeon - Mouldy Old Dough
11. Brian & Michael - Matchstick Men & Matchstick Cats And Dogs
12. Blue Mink - Banner Man
13. Stephanie De Sykes - Born With A Smile On My Face
14. Crown Heights Affair - Galaxy Of Love
15. Acker Bilk - Aria
16. Jim Gilstrap - Swing Your Daddy
17. Sylvia - Pillow Talk
18. The Moments & The Whatnauts - Girls
19. Bonnie Tyler - It's A Heartache
20. Driver 67 - Car 67
21. Jimmy James & The Vagbonds - Now Is The Time
22. Mud - L-L-Lucy
23. The Korgis - If I Had You

EAC
Exact Audio Copy V0.99 prebeta 5 from 4. May 2009

Отчёт EAC об извлечении, выполненном 28. марта 2012, 6:35

Various / 100 Huge Hits Of The 60's & 70's (CD3)

Дисковод: HL-DT-STDVDRAM GH22NS50 Adapter: 2 ID: 0

Режим чтения : Достоверность
Использование точного потока : Да
Отключение кэша аудио : Да
Использование указателей C2 : Нет

Коррекция смещения при чтении : 667
Способность читать области Lead-in и Lead-out : Нет
Заполнение пропущенных сэмплов тишиной : Да
Удаление блоков с тишиной в начале и конце : Нет
При вычислениях CRC использовались нулевые сэмплы : Да
Интерфейс : Встроенный Win32-интерфейс для Win NT/2000

Выходной формат : Внутренние WAV-операции
Формат сэмплов : 44.100 Гц; 16 бит; стерео

TOC извлечённого CD

Трек | Старт | Длительность | Начальный сектор | Конечный сектор
---------------------------------------------------------------------
1 | 0:00.00 | 3:29.08 | 0 | 15682
2 | 3:29.08 | 3:28.20 | 15683 | 31302
3 | 6:57.28 | 2:52.19 | 31303 | 44221
4 | 9:49.47 | 2:41.51 | 44222 | 56347
5 | 12:31.23 | 3:12.26 | 56348 | 70773
6 | 15:43.49 | 3:22.05 | 70774 | 85928
7 | 19:05.54 | 3:11.36 | 85929 | 100289
8 | 22:17.15 | 3:08.53 | 100290 | 114442
9 | 25:25.68 | 3:23.43 | 114443 | 129710
10 | 28:49.36 | 2:44.29 | 129711 | 142039
11 | 31:33.65 | 4:27.49 | 142040 | 162113
12 | 36:01.39 | 3:25.54 | 162114 | 177542
13 | 39:27.18 | 3:14.29 | 177543 | 192121
14 | 42:41.47 | 3:49.42 | 192122 | 209338
15 | 46:31.14 | 3:33.23 | 209339 | 225336
16 | 50:04.37 | 2:51.60 | 225337 | 238221
17 | 52:56.22 | 4:22.16 | 238222 | 257887
18 | 57:18.38 | 3:07.13 | 257888 | 271925
19 | 60:25.51 | 3:31.26 | 271926 | 287776
20 | 63:57.02 | 3:15.32 | 287777 | 302433
21 | 67:12.34 | 3:37.04 | 302434 | 318712
22 | 70:49.38 | 3:00.07 | 318713 | 332219
23 | 73:49.45 | 4:00.17 | 332220 | 350236

Характеристики диапазона извлечения и сообщения об ошибках

Выбранный диапазон

Имя файла C:UsersДашенькаDesktop2007 - 100 Huge Hits Of The 60s & 70s2007 - Various - 100 Huge Hits Of The 60's & 70's (CD3).wav

Пиковый уровень 96.6 %
Качество диапазона 99.9 %
CRC копии 37DC1267
Копирование... OK

Ошибок не произошло

AccurateRip: сводка

Трек 1 точное извлечение (доверие 3) [56AB8DE4]
Трек 2 точное извлечение (доверие 3) [2E018385]
Трек 3 точное извлечение (доверие 3) [A82BE003]
Трек 4 точное извлечение (доверие 3) [82B120AD]
Трек 5 точное извлечение (доверие 3) [371A56FF]
Трек 6 точное извлечение (доверие 3) [4787BFB4]
Трек 7 точное извлечение (доверие 3) [9EE50930]
Трек 8 точное извлечение (доверие 3) [61FC29E5]
Трек 9 точное извлечение (доверие 3) [DE56E980]
Трек 10 точное извлечение (доверие 3) [CF4A8A51]
Трек 11 точное извлечение (доверие 3) [0995C00F]
Трек 12 точное извлечение (доверие 3) [3F84DD7F]
Трек 13 точное извлечение (доверие 3) [2ACEE7ED]
Трек 14 точное извлечение (доверие 3) [98318214]
Трек 15 точное извлечение (доверие 3) [72372DEB]
Трек 16 точное извлечение (доверие 3) [9272C5CC]
Трек 17 точное извлечение (доверие 3) [834E2B55]
Трек 18 точное извлечение (доверие 3) [A871BD35]
Трек 19 точное извлечение (доверие 3) [CCB6EBC1]
Трек 20 точное извлечение (доверие 3) [C750228F]
Трек 21 точное извлечение (доверие 3) [EAEFB301]
Трек 22 точное извлечение (доверие 3) [F1B519F7]
Трек 23 точное извлечение (доверие 3) [216BE494]

Все треки извлечены точно

Конец отчёта

CD 4

01. The Undertones - Teenage Kicks
02. The Regents - 7 Teen
03. Sham 99 - Hersham Boys
04. Jilted John - Jilted John
05. Jonathan Richman And The Modern Lovers - Roadrunner
06. Dave & Ansel Collins - Double Barrel
07. Althia & Donna - Uptown Top Ranking
08. Ken Boothe - Everything I Own
09. Nicky Thomas - Love Of The Common People
10. Bob And Marcia - Young, Gifted And Black
11. Desmond Dekker - You Can Get It If You Really Want
12. Chairmen Of The Board - You'vce Got Me Dangling On A String
13. New York City - I'm Doin' Fine Now
14. Shirley And Company - Shame, Shame, Shame
15. Stretch - Why Did You Do It?
16. Sweet Sensation - Sad Sweet Dreamer
17. Bonnie Tyler - Lost In France
18. David Parton - Isn't She Lovely
19. Prelude - after The Goldrush
20. England 1970 World Cup Squad - Back Home
21. Lulu - The Man Who Sold The World
22. Mungo Jerry - Baby jump
23. Atomic Rooster - The Devil's Answer
24. Emerson, Lake & Palmer - Fanfare For The Common Man

EAC
Exact Audio Copy V0.99 prebeta 5 from 4. May 2009

Отчёт EAC об извлечении, выполненном 28. марта 2012, 19:14

Various / 100 Huge Hits Of The 60's & 70's (CD4)

Дисковод: HL-DT-STDVDRAM GH22NS50 Adapter: 2 ID: 0

Режим чтения : Достоверность
Использование точного потока : Да
Отключение кэша аудио : Да
Использование указателей C2 : Нет

Коррекция смещения при чтении : 667
Способность читать области Lead-in и Lead-out : Нет
Заполнение пропущенных сэмплов тишиной : Да
Удаление блоков с тишиной в начале и конце : Нет
При вычислениях CRC использовались нулевые сэмплы : Да
Интерфейс : Встроенный Win32-интерфейс для Win NT/2000

Выходной формат : Внутренние WAV-операции
Формат сэмплов : 44.100 Гц; 16 бит; стерео

TOC извлечённого CD

Трек | Старт | Длительность | Начальный сектор | Конечный сектор
---------------------------------------------------------------------
1 | 0:00.00 | 2:27.22 | 0 | 11046
2 | 2:27.22 | 3:24.38 | 11047 | 26384
3 | 5:51.60 | 3:27.68 | 26385 | 41977
4 | 9:19.53 | 2:55.60 | 41978 | 55162
5 | 12:15.38 | 4:06.45 | 55163 | 73657
6 | 16:22.08 | 2:44.48 | 73658 | 86005
7 | 19:06.56 | 3:53.04 | 86006 | 103484
8 | 22:59.60 | 3:46.65 | 103485 | 120499
9 | 26:46.50 | 2:19.74 | 120500 | 130998
10 | 29:06.49 | 3:10.29 | 130999 | 145277
11 | 32:17.03 | 2:39.38 | 145278 | 157240
12 | 34:56.41 | 2:59.68 | 157241 | 170733
13 | 37:56.34 | 2:51.48 | 170734 | 183606
14 | 40:48.07 | 3:45.14 | 183607 | 200495
15 | 44:33.21 | 3:33.02 | 200496 | 216472
16 | 48:06.23 | 3:24.30 | 216473 | 231802
17 | 51:30.53 | 3:54.51 | 231803 | 249403
18 | 55:25.29 | 4:09.40 | 249404 | 268118
19 | 59:34.69 | 2:09.43 | 268119 | 277836
20 | 61:44.37 | 2:07.48 | 277837 | 287409
21 | 63:52.10 | 3:49.19 | 287410 | 304603
22 | 67:41.29 | 4:06.46 | 304604 | 323099
23 | 71:48.00 | 3:29.40 | 323100 | 338814
24 | 75:17.40 | 2:56.39 | 338815 | 352053

Характеристики диапазона извлечения и сообщения об ошибках

Выбранный диапазон

Имя файла C:UsersДашенькаDesktop2007 - 100 Huge Hits Of The 60s & 70s2007 - Various - 100 Huge Hits Of The 60's & 70's (CD4).wav

Пиковый уровень 91.6 %
Качество диапазона 99.9 %
CRC копии 4CEA7930
Копирование... OK

Ошибок не произошло

AccurateRip: сводка

Трек 1 точное извлечение (доверие 3) [7CA77027]
Трек 2 точное извлечение (доверие 3) [D1CE52D2]
Трек 3 точное извлечение (доверие 3) [2DA25B07]
Трек 4 точное извлечение (доверие 3) [891F1199]
Трек 5 точное извлечение (доверие 3) [3741978B]
Трек 6 точное извлечение (доверие 3) [4D9E5DA2]
Трек 7 точное извлечение (доверие 3) [A006886B]
Трек 8 точное извлечение (доверие 3) [213CEB68]
Трек 9 точное извлечение (доверие 3) [109EF630]
Трек 10 точное извлечение (доверие 3)
Трек 11 точное извлечение (доверие 3) [A9A92490]
Трек 12 точное извлечение (доверие 3) [75753F87]
Трек 13 точное извлечение (доверие 3) [DE0CEF01]
Трек 14 точное извлечение (доверие 3) [3B1135FA]
Трек 15 точное извлечение (доверие 3) [A5BDD7F9]
Трек 16 точное извлечение (доверие 3) [D0B0FDE0]
Трек 17 точное извлечение (доверие 3) [5C89A9C2]
Трек 18 точное извлечение (доверие 3) [39F396E7]
Трек 19 точное извлечение (доверие 3) [43D700C5]
Трек 20 точное извлечение (доверие 3) [877EFB35]
Трек 21 точное извлечение (доверие 2) [FAF3C924]
Трек 22 точное извлечение (доверие 2) [6FBB53BA]
Трек 23 точное извлечение (доверие 2) [38C0861E]
Трек 24 точное извлечение (доверие 2) [4B564405]

Все треки извлечены точно

Конец отчёта


Доп. информация:

Страна-производитель диска: EU

Издатель (лейбл): Sanctuary TV / Sanctuary Records Group Ltd.

Номер по каталогу: TVSAN022, LC 6448
Музыка / Lossless / Разное
СКАЧАТЬ БЕСПЛАТНО  [1.6 GB]


08
сен
2012

VA - 100 Hits: Band On The Run. Pop Rock Of The 60's & 70's [2004, Pop, Rock, Classic Rock, Hard Rock, Blues, Rock Ballads, MP3]

Формат: MP3, tracks, 256kbps
Год выпуска: 2004
Страна: All World
Жанр: Pop, Rock, Classic Rock, Hard Rock, Blues, Rock Ballads
Продолжительность: 05:55:00
Описание: Треклист 001. Band On The Run - Paul McCartney & Wings [05:13] 002. Yellow River - Christie [02:45] 003. Who'll Stop The Rain - Creedence Clearwater Revival [02:27] 004. My Sweet Lord - George Harrison [04:43] 005. Daniel - Elton John [03:52] 006. You Are The Woman - Firefall [02:43] 007. Take It Easy - Eagles [03:33] 008. Have You Ever Seen The Rain - Creedence Clearwater Revival [02:41] 009. Things We Said Today - The Beatles [0 ...

15
сен
2011

Gov't Mule - Live ... With a Little Help From Our Friends (Collector's Edition 4CD) [1999, Blues-Rock, FLAC]

Формат: FLAC, (image + .cue), lossless
Год выпуска: 1999
Страна: USA
Жанр: Blues-Rock
Продолжительность: 04:07:14
Описание: Disc OneТрeклист: 01. Wandering Child 07:45 02. Thorazine Shuffle 09:14 03. No Need to Suffer 08:12 04. Dolphineus 01:22 05. War Pigs 09:22 06. 30 Days in The Hole 07:33 07. Mr. Big 09:24 08. The Hunter 08:34PersonnelWarren Haynes - guitars, vocals Douglas Allen Woody (1955 – 2000) - bass guitar Matt Abts - drums Marc Ford - guitar, back vocals Chuck Leavell - organLog EACExact Audio Copy V0.99 prebeta 4 from 23. January 2008 Отчёт EAC об извлечении, выполненном 14. я ...

31
окт
2011

Mick Stover's Gentlemen's Blues Club - The Sky's on Fire [2009, Blues-Rock, APE]

Формат: APE, (image + .cue), lossless
Год выпуска: 2009
Страна: USA
Жанр: Blues-Rock
Продолжительность: 01:05:54
Описание:
Трeклист: 01. Red White & Blue 04:20 02. Sky's on Fire 03:23 03. State of Grace 03:24 04. Longhorn Honeymoon 04:17 05. Bastard 03:45 06. Walkin' Dead 04:01 07. Shotgun Wedding 04:11 08. Run 04:28 09. Dust Broom 02:53 10. 2 Kinds of Women 03:53 11. Take Time out to Hear Me Some Blues 03:45 12. Living at the Aztec Hotel 02:58 13. Slippin' Away 03:19 14. Since I've Been Loving You (Live) 07:40 15. Dust Broom (Live) 05:36 16. Shotgun Wedding (Live) 03:56
Доп. информация: С ...

13
мар
2013

VA - Bobby ''O'' Collection - Hi-Nrg 80's Presents [1997, Disco, Hi-Nrg, Italo-Disco, MP3]

Формат: MP3, tracks, 320kbps
Год выпуска: 1997
Страна: All World
Жанр: Disco, Hi-Nrg, Italo-Disco
Продолжительность: 01:10:18
Описание: 01. Waterfront Home - Take A Chance On Me 5:22 02. The Flirts - Just Another Kiss 5:07 03. Bobby ''O'' - Whisper To A Scream 7:00 04. The Flirts - You And Me 4:44 05. Divine - Native Love 4:07 06. Bobby ''O'' - She Has Away 5:35 07. The Flirts - Danger 6:27 08. Bobby ''O'' - I'm So Hot For You 6:16 09. Teenrock - Make Up Your Mind 3:53 10. Oh Romeo - Once Is Not Enough 6:11 11. Tony Caso - Motorcycle Madness 5:37 12. Tony Caso - Run To Me 5:01 13. Oh Romeo - ...

22
окт
2008

Super Hits Of The 70's - Have A Nice Day (25 CD Set) [1969-1976, Rock, Rock and roll, Retro]

Формат: MP3, tracks, 320kbps
Год выпуска: 1969-1976
Страна: USA
Жанр: Rock, Rock and roll, Retro
Продолжительность: 2:30
Описание: Volume 1 1. Spiral Starecase (1969): "More Today Than Yesterday" (Pat Upton) – 2:48 2. Smith (1969): "Baby It's You" (Burt Bacharach, Hal David) – 2:24 3. The Flying Machine (1969): "Smile a Little Smile for Me" (Tony Macaulay, Geoff Stephens) – 2:55 4. Billy Joe Royal (1969): "Cherry Hill Park" (Billy Gilmore, Robert Nix) – 2:44 5. Steam (1969): "Na Na Hey Hey (Kiss Him Goodbye)" (Gary DeCarlo, Dale Frashuer, Paul Leka) – 3:45 6. Shocking Blue (1969): ...

13
ноя
2011

VA-100 Hits. She's A Lady. Top Of The Pop's Of The 70's [2007, Pop, MP3]

Формат: MP3, tracks, 224kbps
Год выпуска: 2007
Страна: All World
Жанр: Pop
Продолжительность: 06:09:38
Описание: Треклист 001. Tom Jones - She's A Lady 002. Joe Dolan - You're Such A Good Looking Woman 003. Oscar Benton - Bensonhurst Blues 004. Showaddywaddy - Come On Let's Go 005. Carpenters - Please Mr. Postman 006. Andy Williams - Raindrops Keep Fallin' On My Head 007. Gilbert O'Sullivan - Who Was It 008. Liza Minnelli - You Are The Sunshine Of My Life 009. Tony Orlando Dawn - Tie A Yellow Ribbon 'Round The Ol... 010. Paul McCartney - Another Day 011. Lynn Anderson - Rose Garden ...

13
сен
2009

Slash's Snakepit - It's Five O'Clock Somewhere [1995, Hard Rock, MP3]

Формат: MP3, tracks, 192-320kbps [VBR]
Год выпуска: 1995
Страна: USA
Жанр: Hard Rock
Продолжительность: 1:09:40
Описание: 1. Neither Can I 2. Dime Store Rock 3. Beggars & Hangers-On 4. Good To Be Alive 5. What Do You Want To Be 6. Monkey Chow 7. Soma City Ward 8. Jizz Da Pit 9. Lower 10. Take It Away 11. Doin' Fine 12. Be The Ball 13. I Hate Everybody (But You) 14. Back And Forth Again
Доп. информация: Slash – lead guitar, rhythm guitar, backing vocals, production Gilby Clarke – rhythm guitar, backing vocals Eric Dover – lead vocals Mike Inez – bass, backing vocals Matt Sorum – drums ...

08
апр
2008

Парад звезд диско 70-80х годов. (2часть из 4) / Disco Stars Parade 70-80's [2007, Disco, DVDRip]

Страна: Германия
Жанр: Disco
Продолжительность: 01:12:31
Год выпуска: 2007
Перевод: Не требуется
Описание: Tрэклист: 01. Chili – For your love & For your love suite 02. F.R. David – Words 03. Belle Epoque -Black is black 04. Bonnie Tyler – Holiding out for hero 05. Supermax – Number one in my heart 07. Bisquit – Roller boogie 08. Doris D. & the Pins – Shine up 07. Secret Service – Flash in the night 08. Gloria Gaynor – Stop in the name of love 09. Robin Gibb – Juliet 10. The Shorts – Comment cava 11. Raffaella Carra – Tanti Auguri 12. Shakatak – Watching you 13. Chili – Pouer you 14. Amii Stew ...

22
апр
2008

Парад звезд диско 70-80х годов (часть 3 из 4) / Disco Star Parade 70-80's [2007, Disco, DVDRip]

Страна: Германия
Жанр: Disco
Продолжительность: 01:22:46
Год выпуска: 2007
Перевод: Не требуется
В ролях: Tрэклист: 01. Boney M - Daddy cool 02. ABBA - Dancing queen 03. Ritchie Family – The Best Disco Town 04. Village People – Y.M.C.A 05. Eruption - I can't stand the rain 06. Baccara - Sorry,I'm a Lady 07. Amanda Lear - Queen of Chinatown 08. Amil Stewart – Knock on wood 09. Penny Mc Lean - Lady Bump 10. George Mc Crae – Rock your baby 11. The three Degress – Dirty ol man 12. 5000 volts - I’m on fire 13. Le Bell - Lady Marmalade 14. Hot Chocolate – You Sexy Thing 15. Gloria Gaynor - Reach out ...

23
июн
2012

Jane's Addiction - Nothing's Shocking (Limited, Numbered Edition, 1988) [2012, Alternative Rock, Alternative Metal, Hard Rock, MP3]

Формат: MP3, tracks, 320kbps
Год выпуска: 2012
Страна: USA
Жанр: Alternative Rock, Alternative Metal, Hard Rock
Продолжительность: 00:45:27
Описание: Треклист 01. Up The Beach (03:01) 02. Ocean Size (04:19) 03. Had A Dad (03:45) 04. Ted, Just Admit It... (07:22) 05. Standing In The Shower... Thinking (03:03) 06. Summertime Rolls (06:20) 07. Mountain Song (04:03) 08. Idiots Rule (02:01) 09. Jane Says (04:52) 10. Thank You Boys (01:04) 11. Pig's In Zen (04:32)
Дополнительная информация: 24 Karat Gold CD. Переиздание дебютного студийного альбома основоположников альтернативного рока, культовой ...

27
окт
2010

Joe Elliott's Down 'n' Outz (ex. Def Leppard) - My Regeneration Vol.1 [2010, Hard Rock, APE]

Формат: APE, (image + .cue), lossless
Год выпуска: 2010
Страна: United Kingdom
Жанр: Hard Rock
Продолжительность: 00:48:42
Описание:
Трэклист: 01. Golden Opportunity 04:34 02. Storm 05:55 03. Overnight Angels 05:08 04. Career (No Such Thing As Rock ‘n’ Roll) 05:15 05. England Rocks 02:51 06. Shouting And Pointing 04:31 07. By Tonight 03:42 08. Apologies 01:02 09. Who Do You Love 03:52 10. One More Chance To Run 03:42 11. 3000 Miles From Here 02:37 12. Good Times 03:55 13. The Flipside Of The Shameless Whelk 01:38
Доп. информация: Personnel Joe Elliott - vocals, guitar, keyboards Paul Guer ...

13
окт
2010

Drewsif Stalin's Musical Endeavors - An Insomniac's Narrative [2009, Ambient, Death metal, Djent, Progressive, Technical

Формат: MP3, tracks, 320kbps
Год выпуска: 2009
Страна: USA
Жанр: Ambient, Death metal, Djent, Progressive, Technical, Math, Groove Metal
Продолжительность: 00:48:14
Описание: 01. Agile 02. Groove 03. End of Days Pt 1: Solitude 04. End of Days Pt 2: Reoccurring Nightmare 05. End of Days Pt 3: Ruin 06. Collapse 07. Seldom 08. Mirage 09. Desolate 10. An Insomniac's Narrative 11. Black Christmas 12. The Nocturnal
От себя: Крайне необычное смешение стилей музыки, выполненное на высочайшем уровне. Всем желаю приятного прослушивания и если не затруднит + в профиль

15
июл
2012

Labyrinth - Return to Heaven Denied Pt. II - 'A Midnight Autumn's Dream' (Japanese Edition) [2010, Power Metal, MP3]

Формат: MP3, tracks, 320kbps
Год выпуска: 2010
Страна: Italy
Жанр: Power Metal
Продолжительность: 01:07:22
Описание: 01. The Shooting Star (08:09) 02. A Chance (05:49) 03. Like Shadows in the Dark (05:30) 04. Princess of the Night (05:49) 05. Sailors of Time (04:30) 06. To Where We Belong (04:46) 07. A Midnight Autumn's Dream (06:51) 08. The Morning's Call (06:35) 09. In This Void (04:35) 10. A Painting on the Wall (05:18) 11. You Don't Remember, I'll Never Forget (Y. Malmsteen cover) (Bonus) (04:28) 12. A Midnight Autumn's Dream (Acoustic version) (Bonus) (04:54)
Доп. информация: Релиз пред ...

31
окт
2011

VA - Rock Legends The Best Of 50`s 60`s 70`s from The Ed Sullivan Show [2009, Rock, 5хDVD5]

Формат: DVD5, DVD Video, MPEG2, AC3
Песня: Rock Legends The Best Of 50`s 60`s 70`s from The Ed Sullivan Show
Жанр: Rock
Продолжительность: 5 х ~ 00:45
Год выпуска: 2009
Видео: 720х576 (PAL 4:3, 4:2:0), MPEG Video(Version 2), at 25.000 fps, ~ 6 300 Kbps, ~ 0.609 bits/pixel
Аудио: 48 kHz, AC-3, 2 ch (Front: L R), 256 Kbps
Доп. информация: Треклист DVD-1 ================== 1 The Beatles - All My Loving 1:50 (1964) 2 Elvis Presley - Heartbreak Hotel 1:08 (1957) 3 The Doors - People Are Strange 2:36 (1967) 4 Diana Ross & The Supremes - I'm Living In Shame 2:03 (1967) 5 Creedence Clearwater Reviva ...

14
июн
2011

VA - Golden Oldies Music 50's, 60's & 70's Retro Romantic Collection [2011, Pop, Rock, Disco, MP3]

Формат: MP3, tracks, 192kbps
Год выпуска: 2011
Страна: All World
Жанр: Pop, Rock, Disco
Продолжительность: 06:41:02
Описание: Треклист 1. Jerry Lee Lewis - Great Balls Of Fire 1:53 2. Ray Charles - Hit The Road Jack 1:54 3. Hermans Hermits - Wonderful World 1:59 4. Billy J Kramer The Dakotas - Do You Want To Know A Secret 2:01 5. Frank Ifield - Confessin' That I Love You 2:05 6. Cliff Richard v2cz0o - Reelin And Rockin 2:06 7. Billy J Kramer The Dakotas - Ill Keep You Satisfied 2:07 8. Little Richard - Long Tall Sally 2:07 9. Chris Montez - Let's Dance 2:10 10. Bill Haley - Rock Around The Clo ...