14
апр
2019

VA - The Many Faces Of Alice Cooper (3CD) [2017, Rock, Hard Rock, FLAC]

VA - The Many Faces Of Alice Cooper (3CD)
Формат: FLAC, (image + .cue), lossless
Год выпуска: 2017
Страна: USA
Жанр: Rock, Hard Rock
Продолжительность: 02:35:54
Описание:
CD1 The Many Faces Of The Alice Cooper Group 00

01. Michael Bruce feat. Alice Cooper - As Rock Rolls On (2:53)
02. Neal Smith feat. Dennis Dunaway - Rock N´Roll Radio (3:15)
03. Bouchard, Dunaway & Smith - Caught In A Dream (3:02)
04. Deadringer (Denis Dunaway & Neal Smith) - Double Talk (3:32)
05. Neal Smith feat. Dennis Dunaway - Maneater Deadly To Her Prey (4:46)
06. Michael Bruce - Friday On My Mind (3:18 )
07. Bouchard, Dunaway & Smith - Under My Wheels (3:06)
08. Killsmith (Neal Smith's band) - How Do You Bleed (5:21)
09. Michael Bruce - King Of America (2:52)
10. Neal Smith feat. Dennis Dunaway & Michael Bruce - Baby, Please Don't Stop (3:26)
11. Bouchard, Dunaway & Smith - School's Out (3:27)
12. Neal Smith feat. Dennis Dunaway - Everyday Is A Holiday (2:53)
13. Killsmith (Neal Smith's band) - Sexual Savior (4:58 )
14. Bouchard, Dunaway & Smith - Black Ju-Ju (8:39)
eac
Exact Audio Copy V1.0 beta 3 from 29. August 2011

EAC extraction logfile from 7. April 2019, 18:36

Various Artists / The Many Faces of Alice Cooper CD1

Used drive : PIONEER BD-RW BDR-TD03 Adapter: 0 ID: 1

Read mode : Secure
Utilize accurate stream : Yes
Defeat audio cache : Yes
Make use of C2 pointers : No

Read offset correction : 667
Overread into Lead-In and Lead-Out : No
Fill up missing offset samples with silence : Yes
Delete leading and trailing silent blocks : No
Null samples used in CRC calculations : Yes
Used interface : Native Win32 interface for Win NT & 2000

Used output format : User Defined Encoder
Selected bitrate : 768 kBit/s
Quality : High
Add ID3 tag : No
Command line compressor : C:Program Files (x86)Exact Audio CopyFLACFLAC.EXE
Additional command line options : -6 -V -T "ARTIST=%artist%" -T "TITLE=%title%" -T "ALBUM=%albumtitle%" -T "DATE=%year%" -T "TRACKNUMBER=%tracknr%" -T "GENRE=%genre%" -T "COMMENT=%comment%" -T "BAND=%albuminterpret%" -T "ALBUMARTIST=%albuminterpret%" -T "COMPOSER=%composer%" %haslyrics%--tag-from-file=LYRICS="%lyricsfile%"%haslyrics% -T "DISCNUMBER=%cdnumber%" -T "TOTALDISCS=%totalcds%" -T "TOTALTRACKS=%numtracks%" %hascover%--picture="%coverfile%"%hascover% %source% -o %dest%

TOC of the extracted CD

Track | Start | Length | Start sector | End sector
---------------------------------------------------------
1 | 0:00.00 | 2:53.57 | 0 | 13031
2 | 2:53.57 | 3:15.00 | 13032 | 27656
3 | 6:08.57 | 3:02.38 | 27657 | 41344
4 | 9:11.20 | 3:32.57 | 41345 | 57301
5 | 12:44.02 | 4:46.37 | 57302 | 78788
6 | 17:30.39 | 3:18.57 | 78789 | 93695
7 | 20:49.21 | 3:06.58 | 93696 | 107703
8 | 23:56.04 | 5:21.57 | 107704 | 131835
9 | 29:17.61 | 2:52.57 | 131836 | 144792
10 | 32:10.43 | 3:26.46 | 144793 | 160288
11 | 35:37.14 | 3:27.20 | 160289 | 175833
12 | 39:04.34 | 2:53.46 | 175834 | 188854
13 | 41:58.05 | 4:58.67 | 188855 | 211271
14 | 46:56.72 | 8:39.01 | 211272 | 250197

Range status and errors

Selected range

Filename C:UsersDerisDesktopkpnemo.euFacesCuperCD1Various Artists - The Many Faces of Alice Cooper CD1.wav

Peak level 100.0 %
Extraction speed 4.8 X
Range quality 99.9 %
Test CRC 6991A75E
Copy CRC 6991A75E
Copy OK

No errors occurred

AccurateRip summary

Track 1 accurately ripped (confidence 8) [E46EBE28] (AR v2)
Track 2 accurately ripped (confidence 8) [06B3426E] (AR v2)
Track 3 accurately ripped (confidence 8) (AR v2)
Track 4 accurately ripped (confidence 8) [EC041968] (AR v2)
Track 5 accurately ripped (confidence 8) [EC90540F] (AR v2)
Track 6 accurately ripped (confidence 8) [D1671606] (AR v2)
Track 7 accurately ripped (confidence 8) [4096C61D] (AR v2)
Track 8 accurately ripped (confidence 8) [D1AD49C4] (AR v2)
Track 9 accurately ripped (confidence 8) (AR v2)
Track 10 accurately ripped (confidence 8) [F3C6568B] (AR v2)
Track 11 accurately ripped (confidence 8) [D5CD3B33] (AR v2)
Track 12 accurately ripped (confidence 8) [F92D00EE] (AR v2)
Track 13 accurately ripped (confidence 8) [042F08FC] (AR v2)
Track 14 accurately ripped (confidence 8) [D06B9223] (AR v2)

All tracks accurately ripped

End of status report

---- CUETools DB Plugin V2.1.3

[CTDB TOCID: ARFQq92_3khEPqZ6pPmNHVinmC0-] found, Submit result: ARFQq92_3khEPqZ6pPmNHVinmC0- has been confirmed
[8fd12928] (22/22) Accurately ripped

==== Log checksum 768E92E981BC7777DA03FF87E10DC95C804E4A96FCF09D6A33596A20B728CCBF ====
CD2 Alice Cooper Live Nightmare Tour 00

01. Billion Dollar Babies (2:56)
02. I´m eighteen (4:12)
03. Under my Wheels (3:21)
04. No more Mr. Nice Guy (2:02)
05. Escape (3:00)
06. Only Women bleed (6:50)
07. Is it my body (2:20)
08. Cold Ethyl (2:53)
09. Steven (5:02)
10. The Black Widow (3:09)
11. Department of Youth (7:10)
12. School´s out (3:32)
eac
Exact Audio Copy V1.0 beta 3 from 29. August 2011

EAC extraction logfile from 8. April 2019, 13:30

Alice Cooper / The many Faces of Alice Cooper CD2

Used drive : PIONEER BD-RW BDR-TD03 Adapter: 0 ID: 1

Read mode : Secure
Utilize accurate stream : Yes
Defeat audio cache : Yes
Make use of C2 pointers : No

Read offset correction : 667
Overread into Lead-In and Lead-Out : No
Fill up missing offset samples with silence : Yes
Delete leading and trailing silent blocks : No
Null samples used in CRC calculations : Yes
Used interface : Native Win32 interface for Win NT & 2000

Used output format : User Defined Encoder
Selected bitrate : 768 kBit/s
Quality : High
Add ID3 tag : No
Command line compressor : C:Program Files (x86)Exact Audio CopyFLACFLAC.EXE
Additional command line options : -6 -V -T "ARTIST=%artist%" -T "TITLE=%title%" -T "ALBUM=%albumtitle%" -T "DATE=%year%" -T "TRACKNUMBER=%tracknr%" -T "GENRE=%genre%" -T "COMMENT=%comment%" -T "BAND=%albuminterpret%" -T "ALBUMARTIST=%albuminterpret%" -T "COMPOSER=%composer%" %haslyrics%--tag-from-file=LYRICS="%lyricsfile%"%haslyrics% -T "DISCNUMBER=%cdnumber%" -T "TOTALDISCS=%totalcds%" -T "TOTALTRACKS=%numtracks%" %hascover%--picture="%coverfile%"%hascover% %source% -o %dest%

TOC of the extracted CD

Track | Start | Length | Start sector | End sector
---------------------------------------------------------
1 | 0:00.00 | 2:56.28 | 0 | 13227
2 | 2:56.28 | 4:12.28 | 13228 | 32155
3 | 7:08.56 | 3:21.17 | 32156 | 47247
4 | 10:29.73 | 2:02.64 | 47248 | 56461
5 | 12:32.62 | 3:00.74 | 56462 | 70035
6 | 15:33.61 | 6:50.08 | 70036 | 100793
7 | 22:23.69 | 2:20.55 | 100794 | 111348
8 | 24:44.49 | 2:53.53 | 111349 | 124376
9 | 27:38.27 | 5:02.49 | 124377 | 147075
10 | 32:41.01 | 3:09.74 | 147076 | 161324
11 | 35:51.00 | 7:10.25 | 161325 | 193599
12 | 43:01.25 | 3:32.03 | 193600 | 209502

Range status and errors

Selected range

Filename C:UsersDerisDesktopkpnemo.euFacesCuperCD2Alice Cooper - The many Faces of Alice Cooper CD2.wav

Peak level 100.0 %
Extraction speed 4.6 X
Range quality 100.0 %
Test CRC BC2A2478
Copy CRC BC2A2478
Copy OK

No errors occurred

AccurateRip summary

Track 1 accurately ripped (confidence 8) [7599716D] (AR v2)
Track 2 accurately ripped (confidence 8) [55F22F84] (AR v2)
Track 3 accurately ripped (confidence 8) [03FE1CA9] (AR v2)
Track 4 accurately ripped (confidence 8) [249BFD17] (AR v2)
Track 5 accurately ripped (confidence 8) [55C7653B] (AR v2)
Track 6 accurately ripped (confidence 8) [ECEF2501] (AR v2)
Track 7 accurately ripped (confidence 8) [E3CFC073] (AR v2)
Track 8 accurately ripped (confidence 8) [D93ACA7D] (AR v2)
Track 9 accurately ripped (confidence 8) [EE8049B5] (AR v2)
Track 10 accurately ripped (confidence 8) [E151B524] (AR v2)
Track 11 accurately ripped (confidence 8) [5CBFDAE7] (AR v2)
Track 12 accurately ripped (confidence 8) [3FBDF244] (AR v2)

All tracks accurately ripped

End of status report

---- CUETools DB Plugin V2.1.3

[CTDB TOCID: eo3yQgnBY3qFEPhW0dT3GPvt7vU-] found, Submit result: eo3yQgnBY3qFEPhW0dT3GPvt7vU- has been confirmed
[dc01812f] (22/22) Accurately ripped

==== Log checksum 4D45B0C09D42794ED87F4B15D8D050C24EAC27D46A2F9A7CCBF100E7E7DFDEE5 ====
CD3 The Songs 00

01. Joel Hoakstra, Derrick LeFevre, Richard Kendrick & Kurtis E. Phlush - School’s Out (4:25)
02. Fierce Atmospheres - Billion Dollar Babies (3:21)
03. Berzon - Hello Hooray (3:32)
04. Kelly Keeling, Marko Pukkila, Sven Wannäs, Simmo Pirttimaa, Vesa Saarikoski & The Heether - Hey Stoopid (4:02)
05. Quatermoc - Go to Hell (5:01)
06. Vid Payne - Is It My Body (2:41)
07. The Alice Cooper Experience - Halo of Flies (5:33)
08. Erling Solem - Nobody Likes Me (3:06)
09. Alice in Cooperland - Only Women Bleed (3:42)
10. Charlie Bonnet III - Be My Lover (3:00)
11. 5th Avenue Vampires - He’s Back (The Man Behind the Mask) (4:09)
12. Sinful Lilly - Spirit Rebellious (3:55)
13. Richard Kendrick & Kurtis E. Phlush - Pain (4:13)
14. Manuri & Al Solo - Clones (We’re All) (2:57)
eac
Exact Audio Copy V1.0 beta 3 from 29. August 2011

EAC extraction logfile from 8. April 2019, 14:12

Various Artists / The Many Faces of Alice Cooper CD3

Used drive : PIONEER BD-RW BDR-TD03 Adapter: 0 ID: 1

Read mode : Secure
Utilize accurate stream : Yes
Defeat audio cache : Yes
Make use of C2 pointers : No

Read offset correction : 667
Overread into Lead-In and Lead-Out : No
Fill up missing offset samples with silence : Yes
Delete leading and trailing silent blocks : No
Null samples used in CRC calculations : Yes
Used interface : Native Win32 interface for Win NT & 2000

Used output format : User Defined Encoder
Selected bitrate : 768 kBit/s
Quality : High
Add ID3 tag : No
Command line compressor : C:Program Files (x86)Exact Audio CopyFLACFLAC.EXE
Additional command line options : -6 -V -T "ARTIST=%artist%" -T "TITLE=%title%" -T "ALBUM=%albumtitle%" -T "DATE=%year%" -T "TRACKNUMBER=%tracknr%" -T "GENRE=%genre%" -T "COMMENT=%comment%" -T "BAND=%albuminterpret%" -T "ALBUMARTIST=%albuminterpret%" -T "COMPOSER=%composer%" %haslyrics%--tag-from-file=LYRICS="%lyricsfile%"%haslyrics% -T "DISCNUMBER=%cdnumber%" -T "TOTALDISCS=%totalcds%" -T "TOTALTRACKS=%numtracks%" %hascover%--picture="%coverfile%"%hascover% %source% -o %dest%

TOC of the extracted CD

Track | Start | Length | Start sector | End sector
---------------------------------------------------------
1 | 0:00.00 | 4:25.38 | 0 | 19912
2 | 4:25.38 | 3:21.66 | 19913 | 35053
3 | 7:47.29 | 3:32.66 | 35054 | 51019
4 | 11:20.20 | 4:02.57 | 51020 | 69226
5 | 15:23.02 | 5:01.29 | 69227 | 91830
6 | 20:24.31 | 2:41.29 | 91831 | 103934
7 | 23:05.60 | 5:33.57 | 103935 | 128966
8 | 28:39.42 | 3:06.19 | 128967 | 142935
9 | 31:45.61 | 3:42.57 | 142936 | 159642
10 | 35:28.43 | 3:00.29 | 159643 | 173171
11 | 38:28.72 | 4:09.38 | 173172 | 191884
12 | 42:38.35 | 3:55.38 | 191885 | 209547
13 | 46:33.73 | 4:13.19 | 209548 | 228541
14 | 50:47.17 | 2:57.66 | 228542 | 241882

Range status and errors

Selected range

Filename C:UsersDerisDesktopkpnemo.euFacesCuperCD3Various Artists - The Many Faces of Alice Cooper CD3.wav

Peak level 100.0 %
Extraction speed 4.8 X
Range quality 100.0 %
Test CRC 9DA85762
Copy CRC 9DA85762
Copy OK

No errors occurred

AccurateRip summary

Track 1 accurately ripped (confidence 9) [ABA91F34] (AR v2)
Track 2 accurately ripped (confidence 9) [FF244A5C] (AR v2)
Track 3 accurately ripped (confidence 9) [BA30A1B9] (AR v2)
Track 4 accurately ripped (confidence 9) [682FE8C3] (AR v2)
Track 5 accurately ripped (confidence 9) [5D496B97] (AR v2)
Track 6 accurately ripped (confidence 9) [6D1D7602] (AR v2)
Track 7 accurately ripped (confidence 9) [C202778C] (AR v2)
Track 8 accurately ripped (confidence 9) [32BE732D] (AR v2)
Track 9 accurately ripped (confidence 9) [6B42F27E] (AR v2)
Track 10 accurately ripped (confidence 9) [3DE3004E] (AR v2)
Track 11 accurately ripped (confidence 9) [7498F42B] (AR v2)
Track 12 accurately ripped (confidence 9) [1862749B] (AR v2)
Track 13 accurately ripped (confidence 9) [4A584838] (AR v2)
Track 14 accurately ripped (confidence 9) [E47B0F86] (AR v2)

All tracks accurately ripped

End of status report

---- CUETools DB Plugin V2.1.3

[CTDB TOCID: 0YTuvPK1CDh_E.tOQsS3B2Vb6DU-] found, Submit result: 0YTuvPK1CDh_E.tOQsS3B2Vb6DU- has been confirmed
[16a254c7] (21/21) Accurately ripped

==== Log checksum 228BBC3CB7321DC95F39D303EECA9F0166B1CD8B2EE3DA01159C7D8BCA48BCA6 ====
Музыка / Lossless / Разное
СКАЧАТЬ БЕСПЛАТНО  [1.2 GB]


11
сен
2017

VA - The Many Faces Of Alice Cooper (3CD) [2017, Hard Rock, MP3]

Формат: MP3, tracks, 320kbps
Год выпуска: 2017
Страна: USA
Жанр: Hard Rock
Продолжительность: 02:35:55
Описание: CD 101. As Rock Rolls On - Michael Bruce Feat. Alice Cooper 02. Rock N´roll Radio - Neal Smith Feat. Dennis Dunaway 03. Caught In A Dream - Bouchard, Dunaway & Smith 04. Double Talk - Deadringer (Denis Dunaway & Neal Smith) 05. Maneater Deadly To Her Prey - Neal Smith Feat. Dennis Dunaway 06. Friday On My Mind - Michael Bruce 07. Under My Wheels - Bouchard, Dunaway & Smith 08. How Do You Bleed - Killsmith (Neal Smith's Band) 09. King Of America - Michael Bruce 10. Baby, Please ...

16
окт
2017

Alice Cooper The Beast Of Alice Cooper [24 bit 96 khz] [1989, Rock, Hard Rock, FLAC]

Формат: FLAC, tracks, lossless
Год выпуска: 1989
Страна: USA
Жанр: Rock, Hard Rock
Продолжительность: 00:50:49
Описание: A1. School's Out A2. Under My Wheels A3. Billion Dollar Babies A4. Be My Lover A5. Desperado A6. Is It My Body A7. Only Women Bleed B1. Elected B2. I'm Eighteen B3. Hello Hooray B4. No More Mr. Nice Guy B5. Teenage Lament '74 B6. Muscle Of Love B7. Department Of Youth
Доп. информация: Logfoobar2000 1.1.10 / Dynamic Range Meter 1.1.1 log date: 2017-10-16 16:07:57 -------------------------------------------------------------------------------- Analyzed: ? / ? ------------- ...

25
авг
2016

Alice Cooper - The Life And Crimes Of Alice Cooper (4CD) [1999, Rock, FLAC]

Формат: FLAC, (image + .cue), lossless
Год выпуска: 1999
Страна: USA
Жанр: Rock
Продолжительность: 04:55:17
Описание: CD 1 01 01. Don't Blow Your Mind The Spiders Santa Cruz single #SCR-10,003 (9/66) [Single release only] 02. Hitch Hike The Spiders Mascot single #M-112 (9/65) [Single release only] 03. Why Don't You Love Me The Spiders Mascot single #M-112 (9/65) [Single release only] 04. Lay Down And Die, Goodbye (Original Version) The Nazz Very single #S-001 (1967) [Single release Only] 05. Nobody Likes Me (demo version) [Previously unreleased] (1968) 06. Levity Ball (studio version) [Previ ...

19
окт
2016

VA - The Many Faces Of Prince (A Journey Through The Inner World Of Prince) (3CD) [2016, Funk, Pop Rock, Synth-pop, R B, FLAC]

Формат: FLAC, (image + .cue), lossless
Год выпуска: 2016
Страна: Mexico
Жанр: Funk, Pop Rock, Synth-pop, R&B
Продолжительность: 03:00:56
Описание: CD 1 94 East Feat. Prince 01 01. Just Another Sucker (5:16) 02. Dance To The Music Of The World (5:03) 03. If You Feel Like Dancin' (7:08 ) 04. One Man Jam (6:11) 05. You Can Be My Teacher (4:08 ) 06. If We Don't (4:11) 07. Lovin' Cup (4:19) 08. Games (4:59) 09. If You See Me First (5:42) 10. Love, Love, Love (3:54) 11. Better Than You Think (4:31) 12. I'll Always Love You (3:44) 13. Dance To The Music Of The World (Bonus Track) (6:08 ) eax Exact A ...

23
янв
2016

VA - The Many Faces Of Motorhead (3CD) [2015, Hard Heavy, MP3]

Формат: MP3, tracks, 320kbps
Год выпуска: 2015
Страна: UK
Жанр: Hard & Heavy
Продолжительность: 02:14:15
Описание: CD 1 - The Many Faces Of Motörhead (0001. Motörhead - Burner (02:54) 02. Motörhead & Girlschool - Please Don´t Touch (02:47) 03. Saxon Feat. Lemmy - I´ve Got To Rock (to Stay Alive) (04:42) 04. Hawkwind Feat. Lemmy - Motorhead (03:05) 05. Lemmy & The Upsetters - Blue Suede Shoes (03:10) 06. Fast Eddie Clarke - Heavy Load (04:02) 07. Brian Robertson - Diamonds And Dirt (04:21) 08. Larry Wallis - Police Car (03:19) 09. Fast Eddie Clarke - Nothing Left (03:30 ...

08
мар
2016

VA - The Many Faces Of David Bowie (3CD) [2016, Art Rock, Glam Rock, Pop, Experimental, FLAC]

Формат: FLAC, (image + .cue), lossless
Год выпуска: 2016
Страна: All World
Жанр: Art Rock, Glam Rock, Pop, Experimental
Продолжительность: 02:40:39
Описание: CD 1 The Many Faces Of David Bowie & The Siders From Mars 0001. Reeves Gabrels Feat David Bowie - You've Been Around 02. Tony Visconti & Woody Woodmansey - The Man Who Sold The World 03. Ian Hunter & Mick Ronson - All The Young Dudes 04. Dana Gillespie Prod By Mick Ronson & David Bowie - Andy Warhol 05. Ava Cherry & The Astronettes Prod. By Bowie - I Am A Laser 06. The Spiders From Mars - Red Eyes 07. Mick Ronson - Growing Up And I'm Fin ...

30
янв
2016

VA - The Many Faces Of Led Zeppelin (3CD) [2007, Hard Rock, MP3]

Формат: MP3, tracks, 320kbps
Год выпуска: 2007
Страна: All World
Жанр: Hard Rock
Продолжительность: 02:54:12
Описание: CD1 - Dread Zeppelin - time01. Dread Zeppelin - Stairway To Heaven 02. Dread Zeppelin - Whole Lotta Love 03. Dread Zeppelin - Rock And Roll 04. Dread Zeppelin - D'yer Mak'er 05. Dread Zeppelin - Heartbreaker 06. Dread Zeppelin - Kashmir 07. Dread Zeppelin - Kingston Celebration 08. Dread Zeppelin - The Lemon Song 09. Dread Zeppelin - Ten Years Gone 10, Dread Zeppelin - Going To California 11. Dread Zeppelin - Immigrant Song 12. Dread Zeppelin - Hey, Hey, What Can I ...

31
авг
2017

VA - The Many Faces Of Judas Priest (3CD) [2017, Rock, Hard Rock, Hard Heavy, Heavy Metal, NWOBH, MP3]

Формат: MP3, tracks, 320kbps
Год выпуска: 2017
Страна: International
Жанр: Rock, Hard Rock, Hard & Heavy, Heavy Metal, NWOBH
Продолжительность: 02:51:47
Описание: CD101. Winter - Al Atkins (Original Singer Of "The Priest") 02. Deceiver - Violent Storm Feat. Kk Downing 03. Coming Down - Sundance Feat. Alan Moore 04. Victimas Del Rock - Tigres (Produced By Dave Holland) 05. 1066 (Es El Nombre Del Tema, 1066) - Hannibal (Produced By Rodger Bain) 06. Annie New Orleans - Elf (Produced By Roger Glover) 07. Getting Near To You - Glenn Hughes Feat. Dave Holland 08. War No More - Violent Storm Feat. Kk ...

29
окт
2016

VA - The Many Faces Of King Crimson (3CD) [2016, Rock, Prog Rock, FLAC]

Формат: FLAC, (image + .cue), lossless
Год выпуска: 2016
Страна: Mexico
Жанр: Rock, Prog Rock
Продолжительность: 02:40:48
Описание: CD 1 The Many Faces Of King Crimson 00 01. Anthony Phillips feat Andy McCulloch - Salmon Leap 02. Iona feat Robert Fripp - Divine Presence 03. Pete Sinfield feat Boz Burrell & Ian Wallace - The Night People 04. Gordon Haskell - Wonderland 05. Jamie Muir, Michael Giles & David Cunningham - Cascade 06. Pat Mastelotto & Trey Gunn - Thunderbirds In Thirds (Edit) 07. Sandy Dillon & Hector Sazou feat Bill Rieflin - Still Moving In Fear 08. Pete Sinfield feat John Wetton ...

24
янв
2016

VA - The Many Faces Of Black Sabbath (3CD) [2014, Hard Rock, Heavy Metal, MP3]

Формат: MP3, tracks, 320kbps
Год выпуска: 2014
Страна: UK
Жанр: Hard Rock, Heavy Metal
Продолжительность: 03:18:23
Описание: CD1 - The Players (and more...) (0101. Bobby Harrison(feat. Tony Iommi) - King Of The Night (7:07) 02. Ronnie James Dio - Welcome To My Nightmare (5:11) 03. Quartz - Mainline Riders (3:33) 04. Glenn Hughes - Only Women Bleed (5:41) 05. Bedlam(feat. Cozy Powell) - I Believe In You (4:01) 06. Axel Rudi Pell(feat. Bob Rondinelli) - Tower Of Lies (4:25) 07. Ian Gillan - Finally The Finale (4:01) 08. Quartz(Prod. By Tony Iommi) - Devil's Brew (3:38 ) 09. Dave Mustaine(Feat. E ...

14
сен
2018

VA - The Many Faces Of Eric Clapton (A Journey Through The Inner World Of Eric Clapton) (3CD) [2016, Rock, Blues, Blues Rock, FLAC]

Формат: FLAC, (image + .cue), lossless
Год выпуска: 2016
Страна: All World
Жанр: Rock, Blues, Blues Rock
Продолжительность: 02:45:07
Описание: CD1 The Many Faces Of Eric Clapton 00 01. Pinetop Perkins feat. Eric Clapton - How Long Blues, Come Back Baby 02. Eric Clapton - West Coast Idea 03. Arthur Louis feat. Eric Clapton - Knockin’ on Heaven’s Door 04. Toots & The Maytals feat. Eric Clapton - Take a Trip 05. Jerry Lynn Williams feat. Eric Clapton - Sending Me Angels 06. Corky Laing feat. Eric Clapton - On My Way to Georgia 07. Chris Barber feat. Eric Clapton - Weeping Willow 08. Eric Clapton ...

07
окт
2018

VA - The Many Faces Of Judas Priest (A Journey Through The Inner World Of Judas Priest) (3CD) [2017, Rock, Hard Rock, Hard Heavy, Heavy Metal, FLAC]

Формат: FLAC, (image + .cue), lossless
Год выпуска: 2017
Страна: All World
Жанр: Rock, Hard Rock, Hard& Heavy, Heavy Metal
Продолжительность: 02:51:46
Описание: CD1 The Many Faces Of Judas Priest 01 01. Winter - Al Atkins (Original Singer Of "The Priest") 02. Deceiver - Violent Storm Feat. Kk Downing 03. Coming Down - Sundance Feat. Alan Moore 04. Victimas Del Rock - Tigres (Produced By Dave Holland) 05. 1066 (Es El Nombre Del Tema, 1066) - Hannibal (Produced By Rodger Bain) 06. Annie New Orleans - Elf (Produced By Roger Glover) 07. Getting Near To You - Glenn Hughes Feat. Dave Holland 08. War ...

02
сен
2017

VA - The Many Faces Of Judas Priest (3CD) [2017, Rock, Hard Rock, Hard Heavy, Heavy Metal, NWOBHM, FLAC]

Формат: FLAC, (tracks + .cue), lossless
Год выпуска: 2017
Страна: All World
Жанр: Rock, Hard Rock, Hard& Heavy, Heavy Metal, NWOBHM
Продолжительность: 02:51:46
Описание: CD 1 The Many Faces Of Judas Priest 01 01. Winter - Al Atkins (Original Singer Of "The Priest") 02. Deceiver - Violent Storm Feat. Kk Downing 03. Coming Down - Sundance Feat. Alan Moore 04. Victimas Del Rock - Tigres (Produced By Dave Holland) 05. 1066 (Es El Nombre Del Tema, 1066) - Hannibal (Produced By Rodger Bain) 06. Annie New Orleans - Elf (Produced By Roger Glover) 07. Getting Near To You - Glenn Hughes Feat. Dave Holla ...

24
авг
2015

VA - The Many Faces Of Joy Division (3CD Set) [2015, Alternative Rock, New Wave, Punk, FLAC]

Формат: FLAC, (image + .cue), lossless
Год выпуска: 2015
Страна: UK
Жанр: Alternative Rock, New Wave, Punk
Продолжительность: 02:48:05
Описание: CD 1 The Martin Hannett Sessions 0001. Heart And Soul 02. Love Will Tear Us Apart 03. Twenty Four Hours 04. Passover 05. Decades 06. Autosuggestion 07. Leaders Of Men 08. Shadowplay 09. New Dawn Fades 10. Ice Age 11. Transmission 12. At A Later Date eacExact Audio Copy V1.0 beta 3 from 29. August 2011 EAC extraction logfile from 10. August 2015, 23:42 Joy Division / The Many Faces of Joy Division CD1 Used drive : PIONEER BD-RW BDR-TD03 Adapter: 0 I ...

28
янв
2015

VA - The Many Faces Of Yes: A Journey Through The Inner World Of Yes (3CD) [2014, Progressive Rock, MP3]

Формат: MP3, tracks, 320kbps
Год выпуска: 2014
Страна: UK
Жанр: Progressive Rock
Продолжительность: 03:00:211
Описание: CD1 The BBC Sessions 00 01. Then (04:19) 02. Sweet Dreams (03:27) 03. Looking Around (03:40) 04. No Opportunity Necessary, No Experience Needed (04:16) 05. Everydays (05:54) 06. Astral Traveller (05:47) 07. Every Little Thing (06:38 ) 08. Sweetness (04:14) 09. Something's Coming (07:39) 10. Dear Father (05:34) 11. For Everyone (04:36)CD2 Projects Before and After Yes 01 01. Rick Wakeman - Catherine Howard (09:14) 02. Flash - Lifetime (10:07) 03. Syn - Flowerman (02:34) 04. P ...