08
авг
2019

VA - Emozioni 3 - Die schonsten Italo-Kuschelsongs (2CD) [1993, Pop, Pop Rock, FLAC]

VA - Emozioni 3 - Die schonsten Italo-Kuschelsongs (2CD)
Формат: FLAC, (image + .cue), lossless
Год выпуска: 1993
Страна: Italy
Жанр: Pop, Pop Rock
Продолжительность: 02:19:05
Описание:
CD1 01

01. Eros Ramazzotti - Adessoiu
02. Toto Cutugno - Serenata
03. Matia Bazar - Chi Vuol Esser Lieto Sia
04. Nino D'angelo - Maledetto Treno
05. I Santo California - Gabbiano
06. Julie E Juli - Una Storia D'amore
07. Lena Biolcati - Cantilena 4:37
08. Gepy - Teneramente
09. Angelo Fabiani - Canzoni Aas
10. Amedeo Minghi - Vivere Vivere I'm
11. Domenico Modugno - Dm Come Tl Amo
12. Homo Sapiens - Presagio Di Mare
13. Flavia Fortlinato - Nuovo Amore Mio
14. Daniela Goggi - Dammi Tanto Amore
15. Manrigo Sarli - Ouardandoti
16. Collage - Lei Non Sapeva Far L'amore
17. Pupo - Sempre Cos! Sara'
18. Stefano Bozzetti - Vivi La Musica
eac
Exact Audio Copy V1.0 beta 3 from 29. August 2011

EAC extraction logfile from 2. August 2019, 11:22

Diverse Interpreten / Emozioni 3 (CD1)

Used drive : TSSTcorpCDDVDW SH-216DB Adapter: 0 ID: 0

Read mode : Secure
Utilize accurate stream : Yes
Defeat audio cache : Yes
Make use of C2 pointers : No

Read offset correction : 6
Overread into Lead-In and Lead-Out : No
Fill up missing offset samples with silence : Yes
Delete leading and trailing silent blocks : No
Null samples used in CRC calculations : Yes
Used interface : Native Win32 interface for Win NT & 2000

Used output format : User Defined Encoder
Selected bitrate : 1024 kBit/s
Quality : High
Add ID3 tag : No
Command line compressor : C:Program Files (x86)Exact Audio CopyFlacflac.exe
Additional command line options : -V -8 -T "Date=%year%" -T "Genre=%genre%" %source%

TOC of the extracted CD

Track | Start | Length | Start sector | End sector
---------------------------------------------------------
1 | 0:00.00 | 4:04.47 | 0 | 18346
2 | 4:04.47 | 3:50.63 | 18347 | 35659
3 | 7:55.35 | 4:28.02 | 35660 | 55761
4 | 12:23.37 | 3:14.13 | 55762 | 70324
5 | 15:37.50 | 3:18.25 | 70325 | 85199
6 | 18:56.00 | 3:11.25 | 85200 | 99549
7 | 22:07.25 | 4:44.32 | 99550 | 120881
8 | 26:51.57 | 4:04.55 | 120882 | 139236
9 | 30:56.37 | 3:57.13 | 139237 | 157024
10 | 34:53.50 | 3:47.70 | 157025 | 174119
11 | 38:41.45 | 3:24.55 | 174120 | 189474
12 | 42:06.25 | 4:44.00 | 189475 | 210774
13 | 46:50.25 | 3:43.25 | 210775 | 227524
14 | 50:33.50 | 3:11.62 | 227525 | 241911
15 | 53:45.37 | 4:18.63 | 241912 | 261324
16 | 58:04.25 | 3:57.25 | 261325 | 279124
17 | 62:01.50 | 4:10.37 | 279125 | 297911
18 | 66:12.12 | 3:37.43 | 297912 | 314229

Range status and errors

Selected range

Filename R:PrivateMy Audio RippsDiverse Interpreten - Emozioni 3 (CD1).wav

Peak level 100.0 %
Extraction speed 3.4 X
Range quality 100.0 %
Test CRC 5F5E7BE8
Copy CRC 5F5E7BE8
Copy OK

No errors occurred

AccurateRip summary

Track 1 accurately ripped (confidence 3) [94B77664] (AR v2)
Track 2 accurately ripped (confidence 3) [02F57502] (AR v2)
Track 3 accurately ripped (confidence 3) [A444684F] (AR v2)
Track 4 accurately ripped (confidence 3) [44FF34E5] (AR v2)
Track 5 accurately ripped (confidence 3) [BBDE41BE] (AR v2)
Track 6 accurately ripped (confidence 3) [29EE8F30] (AR v2)
Track 7 accurately ripped (confidence 3) [9AFAE05E] (AR v2)
Track 8 accurately ripped (confidence 3) [A9469778] (AR v2)
Track 9 accurately ripped (confidence 3) [A182D36D] (AR v2)
Track 10 accurately ripped (confidence 3) [5AD8A586] (AR v2)
Track 11 accurately ripped (confidence 3) [1487B01A] (AR v2)
Track 12 accurately ripped (confidence 3) [87B02268] (AR v2)
Track 13 accurately ripped (confidence 3) [2E4DA135] (AR v2)
Track 14 accurately ripped (confidence 3) [D3F7BB8A] (AR v2)
Track 15 accurately ripped (confidence 3) [2B70BA0D] (AR v2)
Track 16 accurately ripped (confidence 3) [31E691CD] (AR v2)
Track 17 accurately ripped (confidence 3) [0498086D] (AR v2)
Track 18 accurately ripped (confidence 3) [510B3B91] (AR v2)

All tracks accurately ripped

End of status report

==== Log checksum F9E4DEB35998C1E0EC5DCA597789936F7B8912A2E29E3FD0C22A9BBB7CAE3646 ====

------------------------------------------------------------

Exact Audio Copy V1.0 beta 3 from 29. August 2011

EAC extraction logfile from 2. August 2019, 11:22

Diverse Interpreten / Emozioni 3 (CD1)

Used drive : TSSTcorpCDDVDW SH-216DB Adapter: 0 ID: 0

Read mode : Secure
Utilize accurate stream : Yes
Defeat audio cache : Yes
Make use of C2 pointers : No

Read offset correction : 6
Overread into Lead-In and Lead-Out : No
Fill up missing offset samples with silence : Yes
Delete leading and trailing silent blocks : No
Null samples used in CRC calculations : Yes
Used interface : Native Win32 interface for Win NT & 2000

Used output format : User Defined Encoder
Selected bitrate : 1024 kBit/s
Quality : High
Add ID3 tag : No
Command line compressor : C:Program Files (x86)Exact Audio CopyFlacflac.exe
Additional command line options : -V -8 -T "Date=%year%" -T "Genre=%genre%" %source%

TOC of the extracted CD

Track | Start | Length | Start sector | End sector
---------------------------------------------------------
1 | 0:00.00 | 4:04.47 | 0 | 18346
2 | 4:04.47 | 3:50.63 | 18347 | 35659
3 | 7:55.35 | 4:28.02 | 35660 | 55761
4 | 12:23.37 | 3:14.13 | 55762 | 70324
5 | 15:37.50 | 3:18.25 | 70325 | 85199
6 | 18:56.00 | 3:11.25 | 85200 | 99549
7 | 22:07.25 | 4:44.32 | 99550 | 120881
8 | 26:51.57 | 4:04.55 | 120882 | 139236
9 | 30:56.37 | 3:57.13 | 139237 | 157024
10 | 34:53.50 | 3:47.70 | 157025 | 174119
11 | 38:41.45 | 3:24.55 | 174120 | 189474
12 | 42:06.25 | 4:44.00 | 189475 | 210774
13 | 46:50.25 | 3:43.25 | 210775 | 227524
14 | 50:33.50 | 3:11.62 | 227525 | 241911
15 | 53:45.37 | 4:18.63 | 241912 | 261324
16 | 58:04.25 | 3:57.25 | 261325 | 279124
17 | 62:01.50 | 4:10.37 | 279125 | 297911
18 | 66:12.12 | 3:37.43 | 297912 | 314229

Range status and errors

Selected range

Filename R:PrivateMy Audio RippsDiverse Interpreten - Emozioni 3 (CD1).wav

Peak level 100.0 %
Extraction speed 3.4 X
Range quality 100.0 %
Test CRC 5F5E7BE8
Copy CRC 5F5E7BE8
Copy OK

No errors occurred

AccurateRip summary

Track 1 accurately ripped (confidence 3) [94B77664] (AR v2)
Track 2 accurately ripped (confidence 3) [02F57502] (AR v2)
Track 3 accurately ripped (confidence 3) [A444684F] (AR v2)
Track 4 accurately ripped (confidence 3) [44FF34E5] (AR v2)
Track 5 accurately ripped (confidence 3) [BBDE41BE] (AR v2)
Track 6 accurately ripped (confidence 3) [29EE8F30] (AR v2)
Track 7 accurately ripped (confidence 3) [9AFAE05E] (AR v2)
Track 8 accurately ripped (confidence 3) [A9469778] (AR v2)
Track 9 accurately ripped (confidence 3) [A182D36D] (AR v2)
Track 10 accurately ripped (confidence 3) [5AD8A586] (AR v2)
Track 11 accurately ripped (confidence 3) [1487B01A] (AR v2)
Track 12 accurately ripped (confidence 3) [87B02268] (AR v2)
Track 13 accurately ripped (confidence 3) [2E4DA135] (AR v2)
Track 14 accurately ripped (confidence 3) [D3F7BB8A] (AR v2)
Track 15 accurately ripped (confidence 3) [2B70BA0D] (AR v2)
Track 16 accurately ripped (confidence 3) [31E691CD] (AR v2)
Track 17 accurately ripped (confidence 3) [0498086D] (AR v2)
Track 18 accurately ripped (confidence 3) [510B3B91] (AR v2)

All tracks accurately ripped

End of status report

==== Log checksum F9E4DEB35998C1E0EC5DCA597789936F7B8912A2E29E3FD0C22A9BBB7CAE3646 ====
CD2 01

01. Amedeo Minghi & Viktor Lazlo - Vattene Amore
02. Eros Ramazzotti - Una Storia Importante
03. Homo Sapiens - Bella Da Morire
04. Mia Martini - E Non Pinlsce Mica Ii Cielo
05. Antonello Venditti - A micimai
06. Edoardo De Angelis & Angelo Branduardi - Novaiis
07. Fausto Leali - Ii Sole A Iviezzanotte
08. Gepy & Gepy - Angelo Biu
09. Mietta - Vivro Vivrai Vivremo Noi
10. Jo Chiarello - Come Nasce Un Inuovo Amore
11. Enzo Belmonte - Iiamo
12. Mina - N Cielo In Una Stanza
13. Adriano Celentano - 24.000 Bad
14. Nino D'angelo - Amore Pro Vvisorio
15. Vasco Rossi - Toffee
16. Loretta Goggi & Mango - Leiverra'
17. I Santo California - Monica
18. Poon - Piccola Katy
eac
Exact Audio Copy V1.0 beta 3 from 29. August 2011

EAC extraction logfile from 5. August 2019, 10:25

V/A / Various - Diverse Interpreten - Emozioni 3 (CD2)

Used drive : TSSTcorpCDDVDW SH-216DB Adapter: 0 ID: 0

Read mode : Secure
Utilize accurate stream : Yes
Defeat audio cache : Yes
Make use of C2 pointers : No

Read offset correction : 6
Overread into Lead-In and Lead-Out : No
Fill up missing offset samples with silence : Yes
Delete leading and trailing silent blocks : No
Null samples used in CRC calculations : Yes
Used interface : Native Win32 interface for Win NT & 2000

Used output format : User Defined Encoder
Selected bitrate : 1024 kBit/s
Quality : High
Add ID3 tag : No
Command line compressor : C:Program Files (x86)Exact Audio CopyFlacflac.exe
Additional command line options : -V -8 -T "Date=%year%" -T "Genre=%genre%" %source%

TOC of the extracted CD

Track | Start | Length | Start sector | End sector
---------------------------------------------------------
1 | 0:00.00 | 3:57.62 | 0 | 17836
2 | 3:57.62 | 4:12.63 | 17837 | 36799
3 | 8:10.50 | 4:08.25 | 36800 | 55424
4 | 12:19.00 | 4:07.12 | 55425 | 73961
5 | 16:26.12 | 5:24.13 | 73962 | 98274
6 | 21:50.25 | 3:17.50 | 98275 | 113099
7 | 25:08.00 | 3:45.62 | 113100 | 130036
8 | 28:53.62 | 3:21.68 | 130037 | 145179
9 | 32:15.55 | 4:56.52 | 145180 | 167431
10 | 37:12.32 | 3:47.18 | 167432 | 184474
11 | 40:59.50 | 3:37.00 | 184475 | 200749
12 | 44:36.50 | 2:01.50 | 200750 | 209874
13 | 46:38.25 | 2:16.50 | 209875 | 220124
14 | 48:55.00 | 3:57.55 | 220125 | 237954
15 | 52:52.55 | 5:12.07 | 237955 | 261361
16 | 58:04.62 | 3:57.38 | 261362 | 279174
17 | 62:02.25 | 4:12.00 | 279175 | 298074
18 | 66:14.25 | 3:00.20 | 298075 | 311594

Range status and errors

Selected range

Filename R:PrivateMy Audio RippsV,A - Various - Diverse Interpreten - Emozioni 3 (CD2).wav

Peak level 100.0 %
Extraction speed 3.4 X
Range quality 100.0 %
Test CRC B10E0B8C
Copy CRC B10E0B8C
Copy OK

No errors occurred

AccurateRip summary

Track 1 accurately ripped (confidence 3) [5284E813] (AR v2)
Track 2 accurately ripped (confidence 3) [92FCA439] (AR v2)
Track 3 accurately ripped (confidence 3) [3EB7F907] (AR v2)
Track 4 accurately ripped (confidence 3) [93B1AF75] (AR v2)
Track 5 accurately ripped (confidence 3) [4E8EC851] (AR v2)
Track 6 accurately ripped (confidence 3) [E9282B35] (AR v2)
Track 7 accurately ripped (confidence 3) [3C2D4119] (AR v2)
Track 8 accurately ripped (confidence 3) [EE768809] (AR v2)
Track 9 accurately ripped (confidence 3) [478BBC81] (AR v2)
Track 10 accurately ripped (confidence 2) [4E349A63] (AR v2)
Track 11 accurately ripped (confidence 3) [3CAA581D] (AR v2)
Track 12 accurately ripped (confidence 3) [388EF4F7] (AR v2)
Track 13 accurately ripped (confidence 3) [7EAFD06C] (AR v2)
Track 14 accurately ripped (confidence 3) [3768CE83] (AR v2)
Track 15 accurately ripped (confidence 3) [2ABBC6C6] (AR v2)
Track 16 accurately ripped (confidence 3) [E1B83B7B] (AR v2)
Track 17 accurately ripped (confidence 3) [9C57AA57] (AR v2)
Track 18 accurately ripped (confidence 3) [0D3EE010] (AR v2)

All tracks accurately ripped

End of status report

==== Log checksum F656AFA8FD73412C90E32011B8E827148BF7B5C3387E5180FA45D33F5460B82C ====

Музыка / Lossless / Разное
СКАЧАТЬ БЕСПЛАТНО  [822.8 MB]


18
мар
2013

VA - Ein Kessel Buntes - Volume 1 - 3: Die schonsten Momente aus der groben Gala-Show [2011, Pop, Disco, Rock, 1xDVD5, 2xDVD9]

Формат: 1xDVD5, 2xDVD9, DVD Video, MPEG2, AC3
Песня: Die schönsten Momente aus der großen Gala-Show
Жанр: Pop, Disco, Rock
Продолжительность: 05:56:57
Год выпуска: 2011
Видео: 720 x 576 (PAL 4:3) at 25.000 fps, MPEG2 Video at 5802 ~ 5864 Kbps, 0.560 ~ 0.566 bit/pixel
Аудио: Dolby AC3, 2 ch, 224 Kbps, 48.0 KHz
Доп. информация: Описание Легендарное шоу телевидения ГДР "Пёстрый котёл (Ein Kessel Buntes)" на основе которого составлялась большая часть не менее легендарного цикла ТВ СССР "Мелодии и ритмы зарубежной эстрады", теперь доступно на DVD. Отдел изданий бэк - каталогов Sony Musi ...

20
ноя
2015

Silvio Samoni - Singt Die Schonsten Weihnachtslieder [2015, Pop, MP3]

Формат: MP3, tracks, 320kbps
Год выпуска: 2015
Страна: Германия
Жанр: Pop
Продолжительность: 00:54:38
Описание: 01. Luce della pace / Licht des Friedens 03:45 02. Die Blätter sind gefallen / Die Moldau 02:32 03. Aber Heidschi Bumbeidschi 02:54 04. The little Drummer Boy 02:38 05. White Christmas 03:11 06. Terra mia 03:50 07. Mille Cherubini in Coro 03:57 08. Ave Maria no morro / Dona Maria 03:23 09. Weihnacht 02:14 10. Die ganze Welt ist voller Glück 03:05 11. O holy Night 04:15 12. Weihnacht finden 03:18 13. Traditionelle Weihnachtslieder mit Silvio Samoni 05:41 14. W ...

14
сен
2016

VA - The World Of Italo Disco (2CD) [2004, Italo-Disco, MP3]

Формат: MP3, tracks, 320kbps
Год выпуска: 2004
Страна: Germany
Жанр: Italo-Disco
Продолжительность: 02:23:00
Описание: CD1 01 01. Ryan Paris - Dolce Vita 02. P.Lion - Happy Children 03. Ken Laszlo - Hey Hey Guy 04. Valerie Dore - The Night 05. Max Him - Lady Fantasy 06. Albert One - For Your Love 07. Carrara - Disco King 08. Lee Marrow - Shanghai 09. Koto - Jabadah 10. Grant Miller - Colder Than Ice 11. Miko Mission - How Old Are You 12. Cyber People - Void Vision 13. Laserdance - Humanoid Invasion 14. Fun Fun - Happy Station 15. Alan Ross - Valentino Mon Amour 16. Aleph - Fly To Me 17. Joe Ye ...

04
дек
2016

VA - The World Of Italo Dance (2CD) [1995, Italo-Dance, MP3]

Формат: MP3, tracks, 320kbps
Год выпуска: 1995
Страна: All World
Жанр: Italo-Dance
Продолжительность: 02:29:57
Описание: CD1 0101. Hipnosis - Pulstar (5:55) 02. Fun Fun - Happy Station (5:55) 03. Koto - Jabdah (7:35) 04. Max-Him - Japanese Girl (6:15) 05. J.D. Jaber - Don't Wake Me Up (7:55) 06. Scotch - Disco Band (5:07) 07. Miko Mission - How Old Are You? (7:15) 08. Sandy Marton - People From Ibiza (6:10) 09. Ken Laszlo - Don't Cry (4:13) 10. Valerie Dore - It's So Easy (6:30) 11. Mr. Flagio - Take A Chance (7:56) 12. Albert One - For Your Love (3:55) CD2 0101. Koto - Chinese Revenge (6:1 ...

02
сен
2017

VA - MegaHits 2017 - Die Dritte (2CD) [2017, Reggae, Alternative, Trap, Dancehall, Tropical, Indie, Electropop, Synthpop, MP3]

Формат: MP3, tracks, 320kbps
Год выпуска: 2017
Страна: All World
Жанр: Reggae, Alternative, Trap, Dancehall, Tropical, Indie, Electropop, Synthpop
Продолжительность: 02:35:20
Описание: CD1 0101. Axwell Λ Ingrosso - More Than You Know 03:23 02. J Balvin & Willy William - Mi Gente 03:09 03. Avicii - Without You (Feat. Sandro Cavazza) 03:01 04. French Montana - Unforgettable (Feat. Swae Lee) 03:53 05. Charlie Puth - Attention 03:31 06. Jonas Blue - Mama (Feat. William Singe) 03:04 07. Clean Bandit - Symphony (Feat. Zara Larsson) 03:32 08. Maggie Lindemann - Pretty Girl (Cheat Codes X Cade Re ...

26
июн
2015

VA - Die Hit-Giganten: Instrumental Hits (2CD) [2009, Disco, Pop, Rock, Electronic, Easy listening, Loung, FLAC]

Формат: FLAC, (image + .cue), lossless
Год выпуска: 2009
Страна: Germany
Жанр: Disco, Pop, Rock, Electronic, Easy listening, Loung
Продолжительность: 02:23:40
Описание: CD 1 01 01. Mike Oldfield - Tubular Bells 02. Santana - Samba Pa Ti 03. Fleetwood Mac - Albatross 04. The Beatles - Cry for a shadow 05. The Champs - Tequila 06. Booker T & The MG's - Green Onion 07. Mr. Bloe - Groovin with Mr. Bloe 08. Dave Brubeck - Take Five 09. Glen Miller - In The Mood 10. Anton Karas - Der Dritte Mann - Harry Lime Theme 11. Percy Faith - Theme from A Summer Place 12. Frank Mills - Music Box Dancer 13. Jea ...

29
апр
2015

VA - Die Hit Giganten: Pop Rock Hymnen (2CD) [2010, Pop, Rock, FLAC]

Формат: FLAC, (image + .cue), lossless
Год выпуска: 2010
Страна: Germany
Жанр: Pop, Rock
Продолжительность: 02:38:54
Описание: CD 1 01 01. The Plastic Ono Band - Give Peace A Chance 02. Elton John - Candle In The Wind 03. Europe - The Final Countdown 04. Santana - Europa (Earths Cry, Heavens Smile) 05. Simple Minds - Belfast Child 06. Emerson, Lake & Palmer - Fanfare For The Common Man 07. London Philharmonic Orchestra - Adiemus 08. Mike Batt - The Ride To Agadir 09. Giorgio Moroder Feat. Paul Eng - Reach Out 10. The Fifth Dimension - Aquarius - Let The Sunshine In 11. The Edwin Hawkins Singe ...

08
мар
2019

VA - ZYX Italo Disco New Generation Vol. 14 (2CD) [2019, Italo-Disco, Euro-Disco, MP3]

Формат: MP3, tracks, 320kbps
Год выпуска: 2019
Страна: Germany
Жанр: Italo-Disco, Euro-Disco
Продолжительность: 02:29:48
Описание: CD1 01:14:06 01. Yuhniversia - Infection (Flemming Dalum Remix) 02. Italove - At The Disco (Also Playable Mono Remix) 03. Stylove - Disco Music Energy (Extended Mix) 04. Stockholm Nightlife feat. Eliza K. - Love Me Tonight (Extended Version) 05. Tom Hooker - Big Boys Don't Cry (Extended Version) 06. New Italo Sin - La Balalata (Special ZYX Remix) 07. Iamnotarobot feat. Karl P. - Bad Feelings (Italo Mix 2019) 08. Mr. Konrad - Electric Kiss 09. Moderno - Waves Of L ...

07
июл
2013

VA - 80's Revolution - Italo Disco Volume 5 (2CD) [2013, Italo-Disco, Europop, Hi NRG, Synth-Pop, Disco, FLAC]

Формат: FLAC, image+.cue, lossless
Год выпуска: 2013
Страна: All World
Жанр: Italo-Disco, Europop, Hi NRG, Synth-Pop, Disco
Продолжительность: 02:35:00
Описание: CD 1: 01 Colors – Lonely Night (Vocal Version) 6:12 02 Kristal – Love In Stereo (12" Version) 5:29 03 Max Him– Japanese Girl (Vocal Remix) 6:29 04 Sir Valentine - And I Love Her (Mix Version) 5:20 05 Mex – Yummy Giver (Medley: Yummy, Yummy, Yummy - Indian Giver) 6:00 06 Joy Michael – Dancin' (Vocal Version) 5:47 07 Digital Game – Please Don't Go (12" Version) 7:12 08 Diego – Walk In The Night (12" Version) 9:29 09 Fabrizio Simonci ...

09
июл
2016

VA - Zuhause Ist Es Am Schonsten: Chillout Musik [2016, Downtempo, Chillout, Lounge, MP3]

Формат: MР3, trасks, 320kbрs
Год выпуска: 2016
Страна: Аll Wоrld
Жанр: Dоwntеmро, Сhіllоut, Lоungе
Продолжительность: 02:59:15
Описание: Trасklіst01. Skеndо - Rоmаntіс Bеасh Dіnnеr [03:03] 02. Hіs Nаmе іs Frаnk - Сlоuds [03:12] 03. Mаrі Bіllа - Kіds оf thе Mооn [03:01] 04. Juріtеr Jасk - Blаnk Sрасе [04:34] 05. Хаvіеr Bарtіst - Thе Еаrlу Bіrd [03:33] 06. Tоm Hоld - Jоurnеу [05:29] 07. Nеw Еlесtrоnіс Sуmрhоnу - Wаtеr [03:34] 08. Hеіnz Sіmmеr - Оnе Hеаrt [03:48] 09. Mаgаluu - Sоunds оf Еаrth [03:23] 10. Jоnаthаn Kуgоо - Аbаdоnеd Раssіоn [05:48] 11. Dіgіtаl Оrсhеstrа Bеrlіn - Thе Аwаkеnіng [03:13 ...

23
июн
2014

VA - Never Say Die Vol 3 [2014, Dubstep, Bass, Trap, Glitch Hop, MP3]

Формат: MP3, tracks, 320kbps
Год выпуска: 2014
Страна: UK
Жанр: Dubstep, Bass, Trap, Glitch Hop
Продолжительность: 02:19:49
Описание: 01. Laxx - Step Two (Original Mix) (5:08) 02. MUST DIE! & Mantis - Culture (Original Mix) (4:15) 03. EPTIC - Like A Boss (Barely Alive Remix) (4:24) 04. Antiserum & Mayhem - Pakistan (Original Mix) (4:56) 05. Trampa & Slick Don - Gunfingers (Original Mix) (4:09) 06. Torqux - Up My Slang (Original Mix) (3:04) 07. Diskord - Freak (Original Mix) (3:15) 08. Zomboy - Raptor (Skism & LAXX Remix) (4:17) 09. Megalodon - Danger Zone (Original Mix) (4:36) 10. Trolley Sna ...

19
янв
2017

VA - Italo New Generation (3) [2016, Italo-Disco, Euro Disco, Synth-pop, MP3]

Формат: MP3, tracks, 320kbps
Год выпуска: 2016
Страна: All World
Жанр: Italo-Disco, Euro Disco, Synth-pop
Продолжительность: 01:46:46
Описание: 01. Ken Martina - Floor For Love (Extended Version) 02. Modern Boots - You're My Love, You're My Life (Extended Version) 03. Alan Brando - Love Is Always On My Mind (Long Version) 04. Boris Zhivago - No More Love (Guitar Mix) 05. Casanova - Holiday (Love Mix) 06. Limelight - Babe (One more time) (Extended Remix) 07. Ranger - You (Angel In My Heart) (Extended Maxi Mix) 08. Valerie Star - Call My Name (Extended Version) 09. Ken Martina - Another Melody ...

01
фев
2015

VA - Italo Holiday Vol.3 [2015, Italo Disco, MP3]

Формат: MP3, tracks, 192kbps
Год выпуска: 2015
Страна: Netherlands
Жанр: Italo Disco
Продолжительность: 01:20:02
Описание: 01. Emy Care - Dream Of Fantasy (Disco Mix) [06:40] 02. Naomi - Summertime In Your Heart (Extended Summer Mix) [07:24] 03. Boy Blue - Never (Extended Version) [07:32] 04. Roby - Hold me in your heart (Vocal Mix) [06:53] 05. Alan Brando - Love Is A Fantasy (Vocal Mix) [06:32] 06. Prima Ballerina - Forever (Extended Version) [07:42] 07. Casanova - Summertime (Long Version) [06:39] 08. Ranger - You (Angel In My Heart) (Compact Maxi Mix) [05:24] 09. Chris Moon - My M ...

01
мая
2014

VA - Millenium Italo Dance 3 [2014, Pop, DVDRip]

Формат: DVDRip, MKV, H.264,
Песня: Millenium Italo Dance 3
Жанр: Pop
Продолжительность: 01:33:13
Год выпуска: 2014
Видео: 720х576(PAL), 25 fps, MPEG4 Video (H264), ~3000 Кбит/сек,0.289 б/п
Аудио: 48000Hz, LPCM, stereo, 1536kbps
Доп. информация: Треклист 01 Facts & Fiction - Give Me The Night 02 Vivien Vee - Higher (Festivalbar) 02 Vivien Vee - Higher 03 Bad Boys Blue - I Wanna Hear Your Heartbeat 04 Video Kids - Woodpeckers From Space 05 Scotch - Mirage 06 Mandy Smith - Positive Reaction(Eurotop) 06 Mandy Smith - Positive Reaction 07 Mozzart - Money 08 Sabrina - My Chico 09 Kim Wilde - You Ke ...

11
янв
2015

VA - Italo and Space Vol. 3 [2015, Dance, Italo Disco, Spacesynth, MP3]

Формат: MP3, tracks, 320kbps
Год выпуска: 2015
Страна: All World
Жанр: Dance, Italo Disco, Spacesynth
Продолжительность: 05:25:21
Описание: Треклист 01. Stive Morgan - I Like Chopin 02. Magic System DJ - Far Away From Me 03. Puzzy Beat - Space Beat 04. Maxthor - Just Take Me Home 05. Victor Ark - Coming Back 06. Jock Hattle Band - To Be Or Not To Be 07. Italo4ever - Active Force 08. Vanello - Planet X 09. Skynight Avenue - Eppur Si Muove 10. The Crosslines - My Heart Is Like An Ocean (Extended Mix) 11. Ernesto - Computer Voice 12. Playing Space - Galactic Wrestling 13. Fairligh - Love In A Su ...