08
июл
2011

Ten Years After Think About The Times: The Chrysalis Years 1969-1972 (Box set 3CD) [2010, Rock, Blues-Rock, FLAC]

Ten Years After Think About The Times: The Chrysalis Years 1969-1972 (Box set 3CD)

Формат: FLAC, (tracks + .cue), lossless
Год выпуска: 1993
Страна: UK
Жанр: Rock, Blues-Rock
Продолжительность: 03:36:26
Описание:

Disc One 01

Ten Years After Think About The Times: The Chrysalis Years 1969-1972
Треклист:

01. Bad Scene 03:30
02. Two Time Mama 02:03
03. Stoned Woman 03:21
04. Good Morning Little Schoolgirl 07:10
05. If You Should Love Me 05:24
06. I Don't Know That You Don't Know My Name 02:06
07. The Stomp 04:30
08. I Woke Up This Morning 05:32
09. If You Should Love Me (Single B-Side) 04:14
10. Sugar The Road 04:07
11. Working On The Road 04:18
12. 50,000 Miles Beneath My Brain 07:37
13. Year 3,000 Blues 02:25
14. Me And My Baby 04:18
15. Love Like A Man 07:30
16. Circles 03:59
17. As The Sun Still Burns Away 04:46
Отчёты
Log EAC
Exact Audio Copy V0.99 prebeta 5 from 4. May 2009

EAC extraction logfile from 6. November 2010, 13:06

Ten Years After / Think About The Times (CD1)

Used drive : TSSTcorpCD/DVDW TS-H552L Adapter: 3 ID: 0

Read mode : Secure
Utilize accurate stream : Yes
Defeat audio cache : Yes
Make use of C2 pointers : No

Read offset correction : 6
Overread into Lead-In and Lead-Out : No
Fill up missing offset samples with silence : Yes
Delete leading and trailing silent blocks : No
Null samples used in CRC calculations : Yes
Used interface : Native Win32 interface for Win NT & 2000
Gap handling : Appended to previous track

Used output format : User Defined Encoder
Selected bitrate : 1024 kBit/s
Quality : High
Add ID3 tag : No
Command line compressor : C:Program FilesFLACflac.exe
Additional command line options : -6 -V -T "ARTIST=%a" -T "TITLE=%t" -T "ALBUM=%g" -T "DATE=%y" -T "TRACKNUMBER=%n" -T "GENRE=%m" -T "COMMENT=EAC FLAC -6" %s

TOC of the extracted CD

Track | Start | Length | Start sector | End sector
---------------------------------------------------------
1 | 0:00.00 | 3:30.27 | 0 | 15776
2 | 3:30.27 | 2:02.64 | 15777 | 24990
3 | 5:33.16 | 3:20.74 | 24991 | 40064
4 | 8:54.15 | 7:10.13 | 40065 | 72327
5 | 16:04.28 | 5:24.03 | 72328 | 96630
6 | 21:28.31 | 2:06.20 | 96631 | 106100
7 | 23:34.51 | 4:30.15 | 106101 | 126365
8 | 28:04.66 | 5:32.25 | 126366 | 151290
9 | 33:37.16 | 4:14.24 | 151291 | 170364
10 | 37:51.40 | 4:07.30 | 170365 | 188919
11 | 41:58.70 | 4:17.46 | 188920 | 208240
12 | 46:16.41 | 7:37.34 | 208241 | 242549
13 | 53:54.00 | 2:25.30 | 242550 | 253454
14 | 56:19.30 | 4:18.22 | 253455 | 272826
15 | 60:37.52 | 7:30.16 | 272827 | 306592
16 | 68:07.68 | 3:58.71 | 306593 | 324513
17 | 72:06.64 | 4:46.17 | 324514 | 345980

Track 1

Filename C:Ten Years After - Think About The Times. The Chrysalis Years (1969-1972) [3CD BoxSet] (2010)CD11 - Bad Scene.wav

Pre-gap length 0:00:02.00

Peak level 81.7 %
Track quality 100.0 %
Test CRC 5F0A7507
Copy CRC 5F0A7507
Accurately ripped (confidence 3) [2F442E04]
Copy OK

Track 2

Filename C:Ten Years After - Think About The Times. The Chrysalis Years (1969-1972) [3CD BoxSet] (2010)CD12 - Two Time Mama.wav

Peak level 76.6 %
Track quality 99.9 %
Test CRC EC78D349
Copy CRC EC78D349
Accurately ripped (confidence 3)
Copy OK

Track 3

Filename C:Ten Years After - Think About The Times. The Chrysalis Years (1969-1972) [3CD BoxSet] (2010)CD13 - Stoned Woman.wav

Pre-gap length 0:00:02.44

Peak level 85.4 %
Track quality 100.0 %
Test CRC 7F175FC4
Copy CRC 7F175FC4
Accurately ripped (confidence 3) [62F059A4]
Copy OK

Track 4

Filename C:Ten Years After - Think About The Times. The Chrysalis Years (1969-1972) [3CD BoxSet] (2010)CD14 - Good Morning Little Schoolgirl.wav

Peak level 89.0 %
Track quality 100.0 %
Test CRC CF28A5A3
Copy CRC CF28A5A3
Accurately ripped (confidence 3) [3026158A]
Copy OK

Track 5

Filename C:Ten Years After - Think About The Times. The Chrysalis Years (1969-1972) [3CD BoxSet] (2010)CD15 - If You Should Love Me.wav

Pre-gap length 0:00:02.30

Peak level 85.9 %
Track quality 100.0 %
Test CRC A8AF4E9C
Copy CRC A8AF4E9C
Accurately ripped (confidence 3) [2FBB4F9E]
Copy OK

Track 6

Filename C:Ten Years After - Think About The Times. The Chrysalis Years (1969-1972) [3CD BoxSet] (2010)CD16 - I Don't Know That You Don't Know My Name.wav

Pre-gap length 0:00:03.42

Peak level 64.8 %
Track quality 100.0 %
Test CRC BD2C3C4B
Copy CRC BD2C3C4B
Accurately ripped (confidence 3) [3868C24A]
Copy OK

Track 7

Filename C:Ten Years After - Think About The Times. The Chrysalis Years (1969-1972) [3CD BoxSet] (2010)CD17 - The Stomp.wav

Peak level 88.4 %
Track quality 100.0 %
Test CRC 4743FC8E
Copy CRC 4743FC8E
Accurately ripped (confidence 3) [CD544A6B]
Copy OK

Track 8

Filename C:Ten Years After - Think About The Times. The Chrysalis Years (1969-1972) [3CD BoxSet] (2010)CD18 - I Woke Up This Morning.wav

Pre-gap length 0:00:01.24

Peak level 99.9 %
Track quality 100.0 %
Test CRC 25D6BD8F
Copy CRC 25D6BD8F
Accurately ripped (confidence 3) [F314FC1A]
Copy OK

Track 9

Filename C:Ten Years After - Think About The Times. The Chrysalis Years (1969-1972) [3CD BoxSet] (2010)CD19 - If You Should Love Me (Single B-Side).wav

Pre-gap length 0:00:02.49

Peak level 94.6 %
Track quality 100.0 %
Test CRC 4977A620
Copy CRC 4977A620
Accurately ripped (confidence 3) [A345BE0D]
Copy OK

Track 10

Filename C:Ten Years After - Think About The Times. The Chrysalis Years (1969-1972) [3CD BoxSet] (2010)CD110 - Sugar The Road.wav

Pre-gap length 0:00:01.40

Peak level 94.5 %
Track quality 99.9 %
Test CRC 5A205D64
Copy CRC 5A205D64
Accurately ripped (confidence 3) [50B9191A]
Copy OK

Track 11

Filename C:Ten Years After - Think About The Times. The Chrysalis Years (1969-1972) [3CD BoxSet] (2010)CD111 - Working On The Road.wav

Pre-gap length 0:00:01.43

Peak level 96.8 %
Track quality 100.0 %
Test CRC 419A541C
Copy CRC 419A541C
Accurately ripped (confidence 3) [F0953B56]
Copy OK

Track 12

Filename C:Ten Years After - Think About The Times. The Chrysalis Years (1969-1972) [3CD BoxSet] (2010)CD112 - 50, 000 Miles Beneath My Brain.wav

Pre-gap length 0:00:01.47

Peak level 97.1 %
Track quality 100.0 %
Test CRC 8E39D1BD
Copy CRC 8E39D1BD
Accurately ripped (confidence 3) [CE502B7A]
Copy OK

Track 13

Filename C:Ten Years After - Think About The Times. The Chrysalis Years (1969-1972) [3CD BoxSet] (2010)CD113 - Year, 3, 000 Blues.wav

Pre-gap length 0:00:01.22

Peak level 95.8 %
Track quality 100.0 %
Test CRC F45081E2
Copy CRC F45081E2
Accurately ripped (confidence 3) [DD0BA6D4]
Copy OK

Track 14

Filename C:Ten Years After - Think About The Times. The Chrysalis Years (1969-1972) [3CD BoxSet] (2010)CD114 - Me And My Baby.wav

Pre-gap length 0:00:01.70

Peak level 87.9 %
Track quality 100.0 %
Test CRC 9DF5E7B3
Copy CRC 9DF5E7B3
Accurately ripped (confidence 3) [0FFC2E25]
Copy OK

Track 15

Filename C:Ten Years After - Think About The Times. The Chrysalis Years (1969-1972) [3CD BoxSet] (2010)CD115 - Love Like A Man.wav

Peak level 98.1 %
Track quality 100.0 %
Test CRC 49C89BE4
Copy CRC 49C89BE4
Accurately ripped (confidence 3) [80CD88B2]
Copy OK

Track 16

Filename C:Ten Years After - Think About The Times. The Chrysalis Years (1969-1972) [3CD BoxSet] (2010)CD116 - Circles.wav

Pre-gap length 0:00:01.69

Peak level 78.1 %
Track quality 100.0 %
Test CRC 423C3104
Copy CRC 423C3104
Accurately ripped (confidence 3) [F9BD18EE]
Copy OK

Track 17

Filename C:Ten Years After - Think About The Times. The Chrysalis Years (1969-1972) [3CD BoxSet] (2010)CD117 - As The Sun Still Burns Away.wav

Pre-gap length 0:00:01.52

Peak level 97.8 %
Track quality 100.0 %
Test CRC 3D1DFB42
Copy CRC 3D1DFB42
Accurately ripped (confidence 3) [1F8C0F68]
Copy OK

All tracks accurately ripped

No errors occurred

End of status report
Audiochecker log
AUDIOCHECKER v2.0 beta (build 457) - by Dester - opdester@freemail.hu
~~~~~~~~~~~~~~~~~~~~~~~~~~~~~~~~~~
-=== DO NOT EDIT THIS FILE! ===-

Path: ...CD1

01 -=- 01 - Bad Scene.flac -=- CDDA (100%)
02 -=- 02 - Two Time Mama.flac -=- CDDA (100%)
03 -=- 03 - Stoned Woman.flac -=- CDDA (100%)
04 -=- 04 - Good Morning Little Schoolgirl.flac -=- CDDA (100%)
05 -=- 05 - If You Should Love Me.flac -=- CDDA (100%)
06 -=- 06 - I Don't Know That You Don't Know My Name.flac -=- CDDA (100%)
07 -=- 07 - The Stomp.flac -=- CDDA (100%)
08 -=- 08 - I Woke Up This Morning.flac -=- CDDA (100%)
09 -=- 09 - If You Should Love Me (Single B-Side).flac -=- CDDA (100%)
10 -=- 10 - Sugar The Road.flac -=- CDDA (100%)
11 -=- 11 - Working On The Road.flac -=- CDDA (100%)
12 -=- 12 - 50, 000 Miles Beneath My Brain.flac -=- CDDA (100%)
13 -=- 13 - Year, 3, 000 Blues.flac -=- CDDA (100%)
14 -=- 14 - Me And My Baby.flac -=- CDDA (100%)
15 -=- 15 - Love Like A Man.flac -=- CDDA (100%)
16 -=- 16 - Circles.flac -=- CDDA (54%)
17 -=- 17 - As The Sun Still Burns Away.flac -=- CDDA (100%)

Summary 97,29% CDDA

67154820
Disc Two 01

Ten Years After Think About The Times: The Chrysalis Years 1969-1972
Треклист:

01. Love Like A Man (Single Edit) 03:09
02. I'm Coming On 03:48
03. My Baby Left Me 05:23
04. Think About The Times 04:44
05. I Say Yeah 05:17
06. The Band With No Name 01:38
07. Gonna Run 06:03
08. She Lies In The Morning 07:24
09. Sweet Little Sixteen 04:12
10. One Of These Days 05:58
11. Here They Come 04:35
12. I'd Love To Change The World 03:45
13. Over The Hill 02:29
14. Baby Won't You Let Me Rock 'n' Roll You 02:15
15. Once There Was A Time 03:23
16. Let The Sky Fall 04:21
17. Hard Monkeys 03:11
18. I've Been There Too 05:46
19. Uncle Jam 01:58
Отчёты

Log EAC
Exact Audio Copy V0.99 prebeta 5 from 4. May 2009

EAC extraction logfile from 6. November 2010, 13:23

Ten Years After / Think About The Times (CD2)

Used drive : TSSTcorpCD/DVDW TS-H552L Adapter: 3 ID: 0

Read mode : Secure
Utilize accurate stream : Yes
Defeat audio cache : Yes
Make use of C2 pointers : No

Read offset correction : 6
Overread into Lead-In and Lead-Out : No
Fill up missing offset samples with silence : Yes
Delete leading and trailing silent blocks : No
Null samples used in CRC calculations : Yes
Used interface : Native Win32 interface for Win NT & 2000
Gap handling : Appended to previous track

Used output format : User Defined Encoder
Selected bitrate : 1024 kBit/s
Quality : High
Add ID3 tag : No
Command line compressor : C:Program FilesFLACflac.exe
Additional command line options : -6 -V -T "ARTIST=%a" -T "TITLE=%t" -T "ALBUM=%g" -T "DATE=%y" -T "TRACKNUMBER=%n" -T "GENRE=%m" -T "COMMENT=EAC FLAC -6" %s

TOC of the extracted CD

Track | Start | Length | Start sector | End sector
---------------------------------------------------------
1 | 0:00.00 | 3:08.59 | 0 | 14158
2 | 3:08.59 | 3:47.40 | 14159 | 31223
3 | 6:56.24 | 5:23.37 | 31224 | 55485
4 | 12:19.61 | 4:43.38 | 55486 | 76748
5 | 17:03.24 | 5:17.18 | 76749 | 100541
6 | 22:20.42 | 1:37.46 | 100542 | 107862
7 | 23:58.13 | 6:02.69 | 107863 | 135081
8 | 30:01.07 | 7:24.32 | 135082 | 168413
9 | 37:25.39 | 4:11.66 | 168414 | 187304
10 | 41:37.30 | 5:57.59 | 187305 | 214138
11 | 47:35.14 | 4:35.32 | 214139 | 234795
12 | 52:10.46 | 3:44.52 | 234796 | 251647
13 | 55:55.23 | 2:28.57 | 251648 | 262804
14 | 58:24.05 | 2:14.57 | 262805 | 272911
15 | 60:38.62 | 3:22.73 | 272912 | 288134
16 | 64:01.60 | 4:20.46 | 288135 | 307680
17 | 68:22.31 | 3:11.07 | 307681 | 322012
18 | 71:33.38 | 5:45.60 | 322013 | 347947
19 | 77:19.23 | 1:57.66 | 347948 | 356788

Track 1

Filename C:Ten Years After - Think About The Times. The Chrysalis Years (1969-1972) [3CD BoxSet] (2010)CD21 - Love Like A Man (Single Edit).wav

Pre-gap length 0:00:02.00

Peak level 99.1 %
Track quality 100.0 %
Test CRC 2697539D
Copy CRC 2697539D
Accurately ripped (confidence 2) [4BAA3B90]
Copy OK

Track 2

Filename C:Ten Years After - Think About The Times. The Chrysalis Years (1969-1972) [3CD BoxSet] (2010)CD22 - I'm Coming On.wav

Pre-gap length 0:00:02.20

Peak level 99.2 %
Track quality 100.0 %
Test CRC DDF51913
Copy CRC DDF51913
Accurately ripped (confidence 2) [94ABA0F8]
Copy OK

Track 3

Filename C:Ten Years After - Think About The Times. The Chrysalis Years (1969-1972) [3CD BoxSet] (2010)CD23 - My Baby Left Me.wav

Pre-gap length 0:00:02.52

Peak level 99.2 %
Track quality 100.0 %
Test CRC 487F0877
Copy CRC 487F0877
Accurately ripped (confidence 2) [E42B232E]
Copy OK

Track 4

Filename C:Ten Years After - Think About The Times. The Chrysalis Years (1969-1972) [3CD BoxSet] (2010)CD24 - Think About The Times.wav

Pre-gap length 0:00:01.72

Peak level 99.1 %
Track quality 100.0 %
Test CRC 937F9F26
Copy CRC 937F9F26
Accurately ripped (confidence 2) [FD294604]
Copy OK

Track 5

Filename C:Ten Years After - Think About The Times. The Chrysalis Years (1969-1972) [3CD BoxSet] (2010)CD25 - I Say Yeah.wav

Pre-gap length 0:00:02.35

Peak level 99.2 %
Track quality 100.0 %
Test CRC 1354695E
Copy CRC 1354695E
Accurately ripped (confidence 2) [A48CC79F]
Copy OK

Track 6

Filename C:Ten Years After - Think About The Times. The Chrysalis Years (1969-1972) [3CD BoxSet] (2010)CD26 - The Band With No Name.wav

Pre-gap length 0:00:01.35

Peak level 99.1 %
Track quality 99.8 %
Test CRC CF691BB9
Copy CRC CF691BB9
Accurately ripped (confidence 2) [235F01C2]
Copy OK

Track 7

Filename C:Ten Years After - Think About The Times. The Chrysalis Years (1969-1972) [3CD BoxSet] (2010)CD27 - Gonna Run.wav

Pre-gap length 0:00:02.34

Peak level 99.1 %
Track quality 100.0 %
Test CRC E0D2B122
Copy CRC E0D2B122
Accurately ripped (confidence 2) [14FEB110]
Copy OK

Track 8

Filename C:Ten Years After - Think About The Times. The Chrysalis Years (1969-1972) [3CD BoxSet] (2010)CD28 - She Lies In The Morning.wav

Pre-gap length 0:00:01.47

Peak level 99.1 %
Track quality 100.0 %
Test CRC C6F18C23
Copy CRC C6F18C23
Accurately ripped (confidence 2) [464AEF32]
Copy OK

Track 9

Filename C:Ten Years After - Think About The Times. The Chrysalis Years (1969-1972) [3CD BoxSet] (2010)CD29 - Sweet Little Sixteen.wav

Pre-gap length 0:00:01.54

Peak level 99.1 %
Track quality 100.0 %
Test CRC 775AF810
Copy CRC 775AF810
Accurately ripped (confidence 2) [2268646F]
Copy OK

Track 10

Filename C:Ten Years After - Think About The Times. The Chrysalis Years (1969-1972) [3CD BoxSet] (2010)CD210 - One Of These Days.wav

Pre-gap length 0:00:02.42

Peak level 85.7 %
Track quality 100.0 %
Test CRC 1EF01CE2
Copy CRC 1EF01CE2
Accurately ripped (confidence 2) [598C333C]
Copy OK

Track 11

Filename C:Ten Years After - Think About The Times. The Chrysalis Years (1969-1972) [3CD BoxSet] (2010)CD211 - Here They Come.wav

Pre-gap length 0:00:02.25

Peak level 84.2 %
Track quality 100.0 %
Test CRC DF94452B
Copy CRC DF94452B
Accurately ripped (confidence 2) [071E32BB]
Copy OK

Track 12

Filename C:Ten Years After - Think About The Times. The Chrysalis Years (1969-1972) [3CD BoxSet] (2010)CD212 - I'd Love To Change The World.wav

Pre-gap length 0:00:00.44

Peak level 83.5 %
Track quality 100.0 %
Test CRC CB71E1AD
Copy CRC CB71E1AD
Accurately ripped (confidence 2) [59E74B15]
Copy OK

Track 13

Filename C:Ten Years After - Think About The Times. The Chrysalis Years (1969-1972) [3CD BoxSet] (2010)CD213 - Over The Hill.wav

Pre-gap length 0:00:00.36

Peak level 84.1 %
Track quality 99.9 %
Test CRC 80317434
Copy CRC 80317434
Accurately ripped (confidence 2) [E1239887]
Copy OK

Track 14

Filename C:Ten Years After - Think About The Times. The Chrysalis Years (1969-1972) [3CD BoxSet] (2010)CD214 - Baby Won't You Let Me Rock 'n' Roll You.wav

Peak level 84.4 %
Track quality 100.0 %
Test CRC 4BBBCFCD
Copy CRC 4BBBCFCD
Accurately ripped (confidence 2) [8DB8E44E]
Copy OK

Track 15

Filename C:Ten Years After - Think About The Times. The Chrysalis Years (1969-1972) [3CD BoxSet] (2010)CD215 - Once There Was A Time.wav

Pre-gap length 0:00:00.09

Peak level 85.1 %
Track quality 100.0 %
Test CRC 1FEF8029
Copy CRC 1FEF8029
Accurately ripped (confidence 2) [E94EF28C]
Copy OK

Track 16

Filename C:Ten Years After - Think About The Times. The Chrysalis Years (1969-1972) [3CD BoxSet] (2010)CD216 - Let The Sky Fall.wav

Pre-gap length 0:00:01.25

Peak level 84.6 %
Track quality 100.0 %
Test CRC 648B23C2
Copy CRC 648B23C2
Accurately ripped (confidence 2) [A219FB33]
Copy OK

Track 17

Filename C:Ten Years After - Think About The Times. The Chrysalis Years (1969-1972) [3CD BoxSet] (2010)CD217 - Hard Monkeys.wav

Pre-gap length 0:00:00.22

Peak level 84.5 %
Track quality 100.0 %
Test CRC C493CA44
Copy CRC C493CA44
Accurately ripped (confidence 2)
Copy OK

Track 18

Filename C:Ten Years After - Think About The Times. The Chrysalis Years (1969-1972) [3CD BoxSet] (2010)CD218 - I've Been There Too.wav

Pre-gap length 0:00:00.16

Peak level 84.3 %
Track quality 100.0 %
Test CRC 58774F9E
Copy CRC 58774F9E
Accurately ripped (confidence 2) [8017AEE2]
Copy OK

Track 19

Filename C:Ten Years After - Think About The Times. The Chrysalis Years (1969-1972) [3CD BoxSet] (2010)CD219 - Uncle Jam.wav

Peak level 83.1 %
Track quality 99.9 %
Test CRC 57F86D6F
Copy CRC 57F86D6F
Accurately ripped (confidence 2) [E047BCEB]
Copy OK

All tracks accurately ripped

No errors occurred

End of status report
Audiochecker log
AUDIOCHECKER v2.0 beta (build 457) - by Dester - opdester@freemail.hu
~~~~~~~~~~~~~~~~~~~~~~~~~~~~~~~~~~
-=== DO NOT EDIT THIS FILE! ===-

Path: ...CD2

01 -=- 01 - Love Like A Man (Single Edit).flac -=- CDDA (100%)
02 -=- 02 - I'm Coming On.flac -=- CDDA (100%)
03 -=- 03 - My Baby Left Me.flac -=- CDDA (100%)
04 -=- 04 - Think About The Times.flac -=- CDDA (100%)
05 -=- 05 - I Say Yeah.flac -=- CDDA (100%)
06 -=- 06 - The Band With No Name.flac -=- CDDA (100%)
07 -=- 07 - Gonna Run.flac -=- CDDA (100%)
08 -=- 08 - She Lies In The Morning.flac -=- CDDA (100%)
09 -=- 09 - Sweet Little Sixteen.flac -=- CDDA (100%)
10 -=- 10 - One Of These Days.flac -=- CDDA (100%)
11 -=- 11 - Here They Come.flac -=- CDDA (100%)
12 -=- 12 - I'd Love To Change The World.flac -=- CDDA (100%)
13 -=- 13 - Over The Hill.flac -=- CDDA (100%)
14 -=- 14 - Baby Won't You Let Me Rock 'n' Roll You.flac -=- CDDA (100%)
15 -=- 15 - Once There Was A Time.flac -=- CDDA (99%)
16 -=- 16 - Let The Sky Fall.flac -=- CDDA (100%)
17 -=- 17 - Hard Monkeys.flac -=- CDDA (100%)
18 -=- 18 - I've Been There Too.flac -=- CDDA (100%)
19 -=- 19 - Uncle Jam.flac -=- CDDA (100%)

Summary 99,95% CDDA

5838308
Disc Three 01

Ten Years After Think About The Times: The Chrysalis Years 1969-1972
Треклист:

01. I'd Love To Change The World (Single Edit) 03:16
02. You Give Me Loving 06:32
03. Convention Prevention 04:23
04. Turned Off T. V. Blues 05:12
05. Standing At The Station 07:08
06. You Can't Win Them All 04:06
07. Religion 05:50
08. Choo Choo Mama 04:01
09. Tomorrow I'll Be Out Of Town 04:28
10. Rock & Roll Music To The World 03:48
11. Choo Choo Mama (Single Edit) 03:16
12. Love Like A Man (Live) (Single Edit) 08:16
Отчёты

Log EAC
Exact Audio Copy V0.99 prebeta 5 from 4. May 2009

EAC extraction logfile from 6. November 2010, 13:34

Ten Years After / Think About The Times (CD3)

Used drive : TSSTcorpCD/DVDW TS-H552L Adapter: 3 ID: 0

Read mode : Secure
Utilize accurate stream : Yes
Defeat audio cache : Yes
Make use of C2 pointers : No

Read offset correction : 6
Overread into Lead-In and Lead-Out : No
Fill up missing offset samples with silence : Yes
Delete leading and trailing silent blocks : No
Null samples used in CRC calculations : Yes
Used interface : Native Win32 interface for Win NT & 2000
Gap handling : Appended to previous track

Used output format : User Defined Encoder
Selected bitrate : 1024 kBit/s
Quality : High
Add ID3 tag : No
Command line compressor : C:Program FilesFLACflac.exe
Additional command line options : -6 -V -T "ARTIST=%a" -T "TITLE=%t" -T "ALBUM=%g" -T "DATE=%y" -T "TRACKNUMBER=%n" -T "GENRE=%m" -T "COMMENT=EAC FLAC -6" %s

TOC of the extracted CD

Track | Start | Length | Start sector | End sector
---------------------------------------------------------
1 | 0:00.00 | 3:15.74 | 0 | 14698
2 | 3:15.74 | 6:31.50 | 14699 | 44073
3 | 9:47.49 | 4:22.56 | 44074 | 63779
4 | 14:10.30 | 5:12.36 | 63780 | 87215
5 | 19:22.66 | 7:08.00 | 87216 | 119315
6 | 26:30.66 | 4:05.71 | 119316 | 137761
7 | 30:36.62 | 5:50.18 | 137762 | 164029
8 | 36:27.05 | 4:01.36 | 164030 | 182140
9 | 40:28.41 | 4:28.13 | 182141 | 202253
10 | 44:56.54 | 3:47.67 | 202254 | 219345
11 | 48:44.46 | 3:15.60 | 219346 | 234030
12 | 52:00.31 | 8:15.73 | 234031 | 271228

Track 1

Filename C:Ten Years After - Think About The Times. The Chrysalis Years (1969-1972) [3CD BoxSet] (2010)CD31 - I'd Love To Change The World (Single Edit).wav

Pre-gap length 0:00:02.00

Peak level 99.1 %
Track quality 100.0 %
Test CRC D49B3808
Copy CRC D49B3808
Accurately ripped (confidence 2) [C40FB9BE]
Copy OK

Track 2

Filename C:Ten Years After - Think About The Times. The Chrysalis Years (1969-1972) [3CD BoxSet] (2010)CD32 - You Give Me Loving.wav

Pre-gap length 0:00:02.08

Peak level 99.1 %
Track quality 100.0 %
Test CRC 84869329
Copy CRC 84869329
Accurately ripped (confidence 2)
Copy OK

Track 3

Filename C:Ten Years After - Think About The Times. The Chrysalis Years (1969-1972) [3CD BoxSet] (2010)CD33 - Convention Prevention.wav

Pre-gap length 0:00:01.45

Peak level 98.8 %
Track quality 100.0 %
Test CRC 58BC2FE7
Copy CRC 58BC2FE7
Accurately ripped (confidence 2) [73A44276]
Copy OK

Track 4

Filename C:Ten Years After - Think About The Times. The Chrysalis Years (1969-1972) [3CD BoxSet] (2010)CD34 - Turned Off T. V. Blues.wav

Pre-gap length 0:00:00.19

Peak level 99.0 %
Track quality 99.9 %
Test CRC AA74AE15
Copy CRC AA74AE15
Accurately ripped (confidence 2) [E1AFCB5A]
Copy OK

Track 5

Filename C:Ten Years After - Think About The Times. The Chrysalis Years (1969-1972) [3CD BoxSet] (2010)CD35 - Standing At The Station.wav

Pre-gap length 0:00:00.44

Peak level 99.1 %
Track quality 99.9 %
Test CRC 5A7EECCE
Copy CRC 5A7EECCE
Accurately ripped (confidence 2) [446C2F13]
Copy OK

Track 6

Filename C:Ten Years After - Think About The Times. The Chrysalis Years (1969-1972) [3CD BoxSet] (2010)CD36 - You Can't Win Them All.wav

Pre-gap length 0:00:01.25

Peak level 99.1 %
Track quality 100.0 %
Test CRC 0C1C7D0C
Copy CRC 0C1C7D0C
Accurately ripped (confidence 2) [8EB6A1CB]
Copy OK

Track 7

Filename C:Ten Years After - Think About The Times. The Chrysalis Years (1969-1972) [3CD BoxSet] (2010)CD37 - Religion.wav

Pre-gap length 0:00:01.72

Peak level 99.1 %
Track quality 100.0 %
Test CRC 479A1946
Copy CRC 479A1946
Accurately ripped (confidence 2) [93227193]
Copy OK

Track 8

Filename C:Ten Years After - Think About The Times. The Chrysalis Years (1969-1972) [3CD BoxSet] (2010)CD38 - Choo Choo Mama.wav

Pre-gap length 0:00:06.35

Peak level 98.8 %
Track quality 100.0 %
Test CRC E432ACA8
Copy CRC E432ACA8
Accurately ripped (confidence 2) [5D2AB5F7]
Copy OK

Track 9

Filename C:Ten Years After - Think About The Times. The Chrysalis Years (1969-1972) [3CD BoxSet] (2010)CD39 - Tomorrow I'll Be Out Of Town.wav

Pre-gap length 0:00:02.46

Peak level 99.1 %
Track quality 100.0 %
Test CRC EEB2300E
Copy CRC EEB2300E
Accurately ripped (confidence 2) [3481D3F9]
Copy OK

Track 10

Filename C:Ten Years After - Think About The Times. The Chrysalis Years (1969-1972) [3CD BoxSet] (2010)CD310 - Rock & Roll Music To The World.wav

Pre-gap length 0:00:01.25

Peak level 99.1 %
Track quality 100.0 %
Test CRC E2C6F82B
Copy CRC E2C6F82B
Accurately ripped (confidence 2) [CCC16BB7]
Copy OK

Track 11

Filename C:Ten Years After - Think About The Times. The Chrysalis Years (1969-1972) [3CD BoxSet] (2010)CD311 - Choo Choo Mama (Single Edit).wav

Pre-gap length 0:00:00.61

Peak level 99.1 %
Track quality 100.0 %
Test CRC 026D216D
Copy CRC 026D216D
Accurately ripped (confidence 2) [24B509D7]
Copy OK

Track 12

Filename C:Ten Years After - Think About The Times. The Chrysalis Years (1969-1972) [3CD BoxSet] (2010)CD312 - Love Like A Man (Live) (Single Edit).wav

Pre-gap length 0:00:02.61

Peak level 99.1 %
Track quality 100.0 %
Test CRC C641018C
Copy CRC C641018C
Accurately ripped (confidence 2) [89D1B356]
Copy OK

All tracks accurately ripped

No errors occurred

End of status report
Audiochecker log
AUDIOCHECKER v2.0 beta (build 457) - by Dester - opdester@freemail.hu
~~~~~~~~~~~~~~~~~~~~~~~~~~~~~~~~~~
-=== DO NOT EDIT THIS FILE! ===-

Path: ...CD3

01 -=- 01 - I'd Love To Change The World (Single Edit).flac -=- CDDA (100%)
02 -=- 02 - You Give Me Loving.flac -=- CDDA (100%)
03 -=- 03 - Convention Prevention.flac -=- CDDA (100%)
04 -=- 04 - Turned Off T. V. Blues.flac -=- CDDA (100%)
05 -=- 05 - Standing At The Station.flac -=- CDDA (100%)
06 -=- 06 - You Can't Win Them All.flac -=- CDDA (100%)
07 -=- 07 - Religion.flac -=- CDDA (100%)
08 -=- 08 - Choo Choo Mama.flac -=- CDDA (99%)
09 -=- 09 - Tomorrow I'll Be Out Of Town.flac -=- CDDA (99%)
10 -=- 10 - Rock & Roll Music To The World.flac -=- CDDA (100%)
11 -=- 11 - Choo Choo Mama (Single Edit).flac -=- CDDA (100%)
12 -=- 12 - Love Like A Man (Live) (Single Edit).flac -=- CDDA (100%)

Summary 99,83% CDDA

24564516

Доп. информация:

История
Ten Years After - английская группа, исполнявшая блюз- и хард-рок с джазовыми элементами и вошедшая в историю с классическими синглами «I’m Going Home» и «Love Like A Man». Группа прославилась сверхактивной концертной деятельностью: подсчитано, что в период с 1968 по 1975 годы она в среднем еженедельно выступала перед 75,000 новых зрителей.

Первой группой гитариста Alvin Lee (р. 19 декабря 1944 года) и бас-гитариста Leo Lyons (р. 30 ноября 1944 года) была The Jaybirds, также известная в родном Ноттингеме под названием Ivan Jay and The Jaymen (поскольку с 1960 по 1962 год здесь пел Ivan Jay). В 1965 году барабанщика Дэйва Куикмайра заменил Rick Lee (р. 20 октября 1945 года). Год спустя, после продолжительного пребывания в Гамбурге, новый состав перебрался в Лондон, где к нему присоединился клавишник Chick Churchill (р. 2 января 1949 года). В ноябре 1966 года руководство коллективом взял на себя менеджер Chris Wright. Вскоре группа переименовалась в Blues Trip, затем в Blues Yard (под этим названием выступив в знаменитом клубе «Марки» вместе с Bonzo Dog Band) и наконец в Ten Years After.

Дискография:

Ten Years After 1967
Undead 1968
Ssssh 1969
Stonedhenge 1969
Cricklewood Green 1970
Live At The Fillmore East (двойной концертный CD) 1970
Watt 1970
A Space In Time 1971
Alvin Lee And Company 1972
Rock & Roll Music To The World 1972
Recorded Live (2LP) 1973
Positive Vibrations 1974
About Time 1989
Love Like a Man 1994
Pure Blues 1995
Solid Rock 1997
Now 2004
Roadworks (двойной концертный CD) 2005
Evolution 2008


В 2010 году в Англии Chrysalis Records выпустила прекрасный новый 3CD бокс-сет состоящий из пяти студийных альбомов Ten Years After, вышедших после выступлений в Вудстоке. Сюда вошли 48 треков из альбомов Ssssh (1969), Cricklewood Green (1970), Watt (1970), A Space In Time (1971), Rock & Roll Music To The World (1972).Все треки ремастеринг Peter Mew на Abbey Road Studios.

Релиз представлен группой:
Музыка / Lossless / Разное
СКАЧАТЬ БЕСПЛАТНО  [1.3 GB]


26
апр
2011

Groundhogs - Thank Christ For Groundhogs: The Liberty Years 1968-1972 (3CD Box Set) [2011, Blues rock, progressive rock]

Формат: FLAC, (image + .cue), lossless
Год выпуска: 2011
Страна: England
Жанр: Blues rock, progressive rock
Продолжительность: 03:21:03
Описание: CD 1 01 1968 Scratching The Surface 01. Rocking Chair 02. Early In The Morning 03. Waking Blues 04. Married Men 05. No More Doggin’ 06. Man Trouble 07. Come Back Baby 08. You Don’t Love Me 09. Still A Fool 10. Still A Fool (Single Edit)* * Previously Unavailable on CD 1969 Blues Obituary (side one) 11. B.D.D. 12. Daze Of The Weak 13. Times 14. Mistreated CD 2 01 1969 Blues Obituary (side two) 01. Express Man 02. Natchez Burning 03. Light Was Th ...

15
авг
2012

UFO - The Chrysalis Years 1973-1979 (5CD Box Set) [2011, Hard Rock, Heavy Metal, FLAC]

Формат: FLAC, (tracks+ .cue), lossless
Год выпуска: 2011
Страна: UK
Жанр: Hard Rock, Heavy Metal
Продолжительность: 05:54:50
Описание: Disc One 01
Трeклист: 01. Give Her The Gun (Single A-Side) 03:59 02. Sweet Little Thing (Single B-Side)) 03:50 Phenomenon: 03. Oh My 02:25 04. Crystal Light 03:48 05. Doctor Doctor 04:12 06. Space Child 04:01 07. Rock Bottom 06:29 08. Too Young To Know 03:09 09. Time On My Hands 04:12 10. Built For Comfort 03:08 11. Lipstick Traces 02:21 12. Queen Of The Deep 05:44 Bonus Track: 13. Doctor Doctor (Single Edit) 02:51 Bob Harris Session (28th Octob ...

15
авг
2012

UFO - The Chrysalis Years 1980-1986 (5CD Box Set) [2012, Hard Rock, Heavy Metal, FLAC]

Формат: FLAC, (image+ .cue), lossless
Год выпуска: 2012
Страна: UK
Жанр: Hard Rock, Heavy Metal
Продолжительность: 05:30:28
Описание: Disc One 01
Трeклист: No Place To Run: 01. Alpha Centauri 01:56 02. Lettin' Go 04:01 03. Mystery Train 03:55 04. This Fire Burns Tonight 04:13 05. Gone In The Night 03:44 06. Young Blood 04:00 07. No Place To Run 03:58 08. Take It Or Leave It 03:02 09. Money Money 03:30 10. Anyday 03:50 Bonus Tracks: 11. Young Blood (7" Edit) 03:01 12. Hot 'N' Ready (Live In Cleveland, Ohio) 03:36 BBC In Concert (4th February 1980): 13. Lettin' Go 03:45 14. Youn ...

16
авг
2012

The Michael Schenker Group - The Chrysalis Years 1980-1984 (5CD Box Set) [2012, Hard Rock, Heavy Metal, FLAC]

Формат: FLAC, (image+ .cue), lossless
Год выпуска: 2012
Страна: Germany
Жанр: Hard Rock, Heavy Metal
Продолжительность: 05:44:25
Описание: Disc One 01
Трeклист: The Michael Schenker Group (1980): 01. Armed And Ready 04:07 02. Cry For The Nations 05:10 03. Victim Of Illusion 04:42 04. Bijou Pleasurette 02:15 05. Feels Like A Good Thing 03:45 06. Into The Arena 04:11 07. Looking Out From Nowhere 04:28 08. Tales Of Mystery 03:17 09. Lost Horizons 07:09 Live At Manchester Apollo (1980): 10. Armed And Ready 04:30 11. Cry For The Nation 06:18 12. Victim Of Illusion 05:51 13. Rock Bot ...

17
сен
2012

Gentle Giant - I Lost My Head: The Chrysalis Years 1975-1980 (4CD Box Set) [2012, Rock, Progressive Rock, FLAC]

Формат: FLAC, (image+ .cue), lossless
Год выпуска: 2012
Страна: UK
Жанр: Rock, Progressive Rock
Продолжительность: 04:50:10
Описание: Disc One 01
Трeклист: 1975 Free Hand: 01. Just The Same 05:33 02. On Reflection 05:42 03. Free Hand 06:12 04. Time To Kill 05:07 05. His Last Voyage 06:26 06. Talybont 02:42 07. Mobile 05:02 Bonus Tracks: 08. 1976 Intro Tape (Previously Unreleased) 01:26 09. Just The Same (John Peel Session) 05:59 10. Free Hand (John Peel Session) 06:05 11. On Reflection (John Peel Session) 05:44 12. Give It Back (International 7" Mix) 03:46 13. I Lost My Head (7 ...

25
июл
2012

Sodom - 30 Years Sodomized 1982 - 2012 (3CD Box Set) [2012, Thrash Metal, MP3]

Формат: MP3, tracks, 320kbps
Год выпуска: 2012
Страна: Germany
Жанр: Thrash Metal
Продолжительность: 03:06:37
Описание: CD 1 01. Burst Command 'Til War 2:44 02. Brandish the Sceptre 2:54 03. My Atonement 6:03 04. Electrocution 3:14 05. Christ Passion 6:13 06. Tired and Red 5:26 07. Baptism of Fire 4:05 08. The Saw is the Law (Splatting version) 5:51 09. Shellfire Defense 4:22 10. Tarred and Feathered 3:02 11. The Crippler 4:10 12. Reincarnation 7:50 13. Sodomized 2:44 14. Delight In Slaying 2:40 15. Into Perdition 2:44 CD 2 01. Gathering of Minds 4:18 02. Unwanted Youth 3:32 03. Scum 5:08 0 ...

11
мар
2011

Michael Jackson Jackson 5 - The Motown Years (3CD Box Set) [2008, Pop, Soul, Funk, R B, FLAC]

Формат: FLAC, (image + .cue), lossless
Год выпуска: 2008
Страна: U.S.
Жанр: Pop, Soul, Funk, R&B
Продолжительность: 02:57:02
Описание: Треклист CD-1 64:07 01. ABC 02. Never Can Say Goodbye 03. Ready Or Not (Here I Come) 04. Love Song 05. Forever Came Today 06. The Life Of The Party 07. Doctor My Eyes 08. All I Do Is Think Of You 09. I Am Love (Parts 1 & 2) 10. Darling Dear 11. Maybe Tomorrow 12. I Found That Girl 13. It's Too Late To Change The Time 14. Lookin' Through The Windows 15. Who's Lovin' You 16. Whatever You Got, I Want 17. I'll Be There CD-2 57:23 01. Want You Back 02. Dancin ...

01
авг
2012

Godsmack - Good Times, Bad Times ... Ten Years Of Godsmack [2007, Heavy Metal, Alternative Metal, Hard Rock, APE]

Формат: APE, (image + .cue), lossless
Год выпуска: 2007
Страна: USA
Жанр: Heavy Metal, Alternative Metal, Hard Rock
Продолжительность: 01:05:31
Описание:
Трэклист: 01. Good Times, Bad Times [0:02:57.70] 02. Whatever [0:03:26.14] 03. Keep Away [0:04:50.03] 04. Voodoo [0:04:40.25] 05. Bad Religion [0:03:12.74] 06. Awake [0:05:04.70] 07. Greed [0:03:28.18] 08. I Stand Alone [0:04:03.63] 09. Straight Out Of Line [0:04:21.17] 10. Serenity [0:04:34.36] 11. Realign [0:04:20.60] 12. Running Blind [0:03:55.64] 13. Touche [0:03:37.28] 14. Speak [0:03:55.70] 15. Shine Down [0:04:52.60] 16. The Enemy [0 ...

03
дек
2016

Lou Reed - The Sire Years: The Complete Albums Box (10CD Box Set) [2015, Rock, Art Rock, FLAC]

Формат: FLAC, (image + .cue), lossless
Год выпуска: 2015
Страна: EU
Жанр: Rock, Art Rock
Продолжительность: 08:13:14
Описание: 1989 New York 0001. Romeo Had Juliette 02. Halloween Parade 03. Dirty Blvd. 04. Endless Cycle 05. There Is No Time 06. Last Great American Whale 07. Beginning Of A Great Adventure 08. Busload Of Faith 09. Sick Of You 10. Hold On 11. Good Evening Mr. Waldheim 12. Xmas In February 13. Strawman 14. Dime Store Mystery eacExact Audio Copy V1.1 from 23. June 2015 EAC extraction logfile from 2. December 2016, 18:25 Lou Reed / New York Used drive : PLEXTOR BD-R PX-B950SA Ad ...

19
июн
2013

Whitesnake - Little Box 'O' Snakes. The Sunbrust Years 1978-1982 (Box Set, 8CD) [2013, Hard Rock, Blues Rock, FLAC]

Формат: FLAC, (image + .cue), lossless
Год выпуска: 2013
Страна: UK
Жанр: Hard Rock, Blues Rock
Продолжительность: 05:06:22
Описание: 1978 Snakebite (EP) 00 1. Bloody Mary 2. Steal Away 3. Ain't No Love in the Heart of the City 4. Come On EACExact Audio Copy V1.0 beta 3 from 29. August 2011 EAC extraction logfile from 15. June 2013, 15:37 Whitesnake / Snakebite EP Used drive : ATAPI iHAS124 B Adapter: 2 ID: 0 Read mode : Secure Utilize accurate stream : Yes Defeat audio cache : Yes Make use of C2 pointers : No Read offset correction : 6 Overread into Lead-In and Lead-Out : No Fill up mis ...

28
дек
2011

Whitesnake - Box 'O' Snakes: The Sunburst Years 1978-1982 (9 Audio CD Box Set ) [2011, Rock, Hard Rock, Blues Rock, Classic Rock, FLAC]

Описание: 1978 - Trouble (00
Трeклист: 01. Take Me With You 04:46 02. Love To Keep You Warm 03:44 03. Lie Down (A Modern Love Song) 03:14 04. Day Tripper 03:47 05. Nighthawk (Vampire Blues) 03:37 06. The Time Is Right For Love 03:26 07. Trouble 04:48 08. Belgian Tom's Hat Trick 03:26 09. Free Flight 04:06 10. Don't Mess With Me 03:19Log EACExact Audio Copy V1.0 beta 3 from 29. August 2011 EAC extraction logfile from 19. December 2011, 22:21 Whitesnake / Trouble Used drive : HL-DT-STDVDRAM GSA-H60N Adapter: 2 ID: 0 Read mode : Secure Utilize accurate stream : Yes Defeat audio cache : Yes ...

29
апр
2011

Lindisfarne / The Charisma Years 1970-1973 (4CD Box Set) [2011, Classic Rock, Folk rock, FLAC]

Формат: FLAC, (image + .cue), lossless
Год выпуска: 2011
Страна: England
Жанр: Classic Rock, Folk rock
Продолжительность: 04:44:28
Описание: CD 1 01 1970 Nicely Out Of Tune 01. Lady Eleanor 02. Road To Kingdom Come 03. Winter Song 04. Turn A Deaf Ear 05. Clear White Light (Part 2) 06. We Can Swing Together 07. Alan In The River With Flowers 08. Down 09. The Things I Should Have Said 10. Jackhammer Blues 11. Scarecrow Song Bonus Tracks 12. Knackers Yard Blues (single b-side) 13. Nothing But The Marvellous Is Beautiful (single b-side) 14. From My Window (out take) 15. On My Own I Built A Brid ...

24
мая
2015

Spooky Tooth - The Island Years (An Antology) 1967-1974 (9CD Box Set) [2015, Rock, Blues Rock, Progressive Rock, FLAC]

Формат: FLAC, (image + .cue), lossless
Год выпуска: 2015
Страна: UK
Жанр: Rock, Blues Rock, Progressive Rock
Продолжительность: 08:14:55
Описание: 1967 Supernatural Fairy Tales 00 01. I Think I’m Going Weird 03:22 02. What’s That Sound (For What It’s Worth) 02:49 03. African Thing 04:07 04. Room With A View 03:40 05. Flying Anchors 02:42 06. Supernatural Fairy Tales 03:36 07. Love Is Real 03:21 08. Come On Up 03:04 09. Brothers, Dads And Mothers 03:30 10. Talkin’ To Myself 01:41 11. Alive, Not Dead 02:14 12. Rome Take Away Three 03:04 Bonus Tracks - Stereo Mixes: 13. Love Is Real 02:41 14. I T ...

15
авг
2012

UFO - Live Throughout The Years (Limited Deluxe Edition 4CD Box Set) [2011, Hard Rock, Heavy Metal, FLAC]

Формат: FLAC, (image+ .cue), lossless
Год выпуска: 2011
Страна: UK
Жанр: Hard Rock, Heavy Metal
Продолжительность: 03:45:50
Описание: Disc One
Трeклист: 01. Intro - Can You Roll Her 03:52 02. Doctor Doctor 05:33 03. Oh My 04:28 04. Out On The Street 05:44 05. Highway Lady 05:17 06. I'm A Loser 04:25 07. Let It Roll 04:56 08. This Kids 04:23 09. Shoot Shoot 04:05 10. Rock Bottom 10:36 11. C'Mon Everybody 08:51 12. Boogie For George 09:16 13. All Or Nothing 04:30Log EACExact Audio Copy V1.0 beta 3 from 29. August 2011 EAC extraction logfile from 9. August 2012, 9:05 UFO / Live ...

11
мар
2014

Clawfinger - Deafer Dumber Blinder (20 Years Anniversary Box 1993-2013, 3CD) [2014, Rap Metal, Nu Metal, Industrial Metal, Crossover Thrash, MP3]

Формат: MP3, tracks, 320kbps
Год выпуска: 2014
Страна: Sweden
Жанр: Rap Metal, Nu Metal, Industrial Metal, Crossover Thrash
Продолжительность: 03:01:57
Описание: CD1 Deaf Dumb Blind 00 01. Nigger 02. The Truth 03. Rosegrove 04. Don't Get Me Wrong 05. I Need You 06. Catch Me 07. Warfair 08. Wonderful World 09. Sad To See Your Sorrow 10. I Don't CareCD2 The Best Of B-Sides 01 01. Get It 02. Profit Preacher 03. Stars & Stripes 04. Love 05. Better Than This 06. Three Good Riffs 07. Armageddon Down 08. RealiTV 09. Runnerboy 10. Eat The Hand That Feeds Me 11. Braindead 12. Megalomania 13. I Love To ...