22
мая
2011

Sigue Sigue Sputnik - Сollection (10 Albums) [1986-2003, New Wave, Post-Punk, Glam Punk, FLAC]

Sigue Sigue Sputnik - Сollection (10 Albums)

Формат: FLAC, (image + .cue), lossless
Год выпуска: 1986-2003
Страна: London
Жанр: New Wave, Post-Punk, Glam Punk
Продолжительность: 09:18:30
Описание:
1986 - Flaunt It 00
Sigue Sigue Sputnik - Сollection
1. Love Missile F1-11
2. Atari Baby
3. Sex-Bomb-Boogie
4. Rockit Miss U-S-A
5. 21st Century Boy
6. Massive Retaliation
7. Teenage Thunder
8. She's My Man

1988 - Dress For Excess 00
Sigue Sigue Sputnik - Сollection
01. Albinoni Vs Star Wars (Parts 1 & 2)
02. Boom Boom Satellite
03. Hey Jayne Mansfield Superstar!
04. Super Crook Blues
05. Rio Rocks!
06. Success
07. Dancerama
08. Orgasm
09. M.A.D. (Mutual Assured Destruction)
10. Is This The Future

1990 - The First Generation 00
Sigue Sigue Sputnik - Сollection
01. Rockit Miss USA
02. Sex Bomb Boogie
03. 21st Century Boy
04. Teenage Thunder
05. She's My Man
06. Love Missile F1-11
07. Jane Mansfield
08. Ultra Violence
09. Krush Groove Girls
10. Rockajet Baby
11. Rebel Rebel

1996 - The F1rst Generation - 2econd Edition 00
Sigue Sigue Sputnik - Сollection
01. Rockit Miss USA (Black and Bluski)
02. Sex Bomb Boogie (Tick Tock and Boom!)
03. 21st Century Boy (TV Messiah)
04. Teenage Thunder (Teenage Mutants)
05. She's My Man (She-Wolves of the SSS)
06. Love Missile F1-11 (A Clockwork Sputnik)
07. Jayne Mansfield (Blitzkrieg Baby)
08. Ultra Violence (Senseless Sex and Gratuitous Sex)
09. Krush Groove Girls (The Meathookers Of Love)
10. Rockajet baby (This Stuff'll Kill Ya)
11. It's My Planet (I'll Die If I Want To)
12. Techno Krash (Skyway Stars)

1998 - The Ultimate 12 Collection 01
Sigue Sigue Sputnik - Сollection
01. Love Missile F1-11 (Ultraviolence)
02. Jane Mansfield (Extended)
03. Atari Baby ('97 Remix)
04. Rocket Miss USA (Sci Fi Sex Stars)
05. Satellite (Extended)
06. 21st Century Boy (German Remix)
07. Orgasm (Extended)
08. Supercrook Blues (Extended)
09. Dancerama (Kashmir Remix)
10. Sex Bomb Boogie (Vid Single)
11. Rio Rocks (Heavy)

2000 - $ci-Fi $ex $tars 00
Sigue Sigue Sputnik - Сollection
1. Rockit Miss U.S.A. (Madman Vs. Speedranch)
2. Love Missile F1-11 (Dakeyne Megamix For Dmc)
3. Teenage Thunder (Sputstyle)
4. Razz Crazy (The Marz Session)
5. The Futures On Fire With Rock And Roll (The Marz Session)
6. Monalisa Overdrive (The Marz Session)
7. Youth Juice (The Marz Session)
8. Suicide (Live Sept. '86 London)
9. From The Gutter To The Stars

2001 - 21st Century Boys 01
Sigue Sigue Sputnik - Сollection
01. Video Trailer Mix
02. Love Missile F1-11
03. Hack Attack
04. 21st Century Boy
05. Buy EMI
06. Rockit Miss USA (Death Wish IV Mix)
07. Teenage Thunder (Sputstyle)
08. Suicide (Live in London Sept' 86)
09. Massive Retaliation (The Massive Edit)
10. Sex Bomb Boogie (Magic Flute)
11. Success
12. Frankenstein Cha Cha Cha
13. Dancerama (7" Mix)
14. Barbarandroid
15. Albinoni Vs Star Wars (Part 1)
16. Albinoni Vs Star Wars (Part 1 & 2)
17. Rio Rocks (7")
18. Aliens
19. Love Missile F1-11 (Westbam Remix Short Version)
20. Sputnik advert

2001 - PirateSpace 01
Sigue Sigue Sputnik - Сollection
01. Welcome To The 21st Century
02. Everybody Loves U
03. Slave Trade
04. Alien@tion
05. Cyberthief
06. Up 4 It!
07. X-Ray EyeZ
08. Spaaced Out
09. Demon Seed
10. How Do U Dream, Little Caesar?
11. Alien Christ

2002 - Blak Elvis 00
Sigue Sigue Sputnik - Сollection
01. Trailer
02. The King of Rock and Roll
03. Hound Dogg
04. Heartbreak Hotel (chainsaw mix)
05. Always on my Mindwarp
06. Burning Luv
07. Shook Up
08. Double Trouble
09. Mystery Trainz
10. Kan't Help Falling in Love
11. The King of Rock and Roll (widescreen)

2003 - Ultra Real 00
Sigue Sigue Sputnik - Сollection
01. Mickey Mouse Is Going To Hell
02. SSSelebration
03. Everybody Wants What Sputnik Wants
04. Family X
05. Violence Is FUN(ky)
06. Amazing Lover
07. Suicide SSShow
08. Fabulously WaSSSted
09. Original Freekster
10. Anything GoeSSS


Доп. информация:

Log EAC

Flaunt It
Exact Audio Copy V0.99 prebeta 5 from 4. May 2009

EAC extraction logfile from 6. April 2011, 8:24

Sigue Sigue Sputnik / Flaunt It

Used drive : _NEC DVD_RW ND-3550A Adapter: 1 ID: 0

Read mode : Secure
Utilize accurate stream : Yes
Defeat audio cache : Yes
Make use of C2 pointers : No

Read offset correction : 48
Overread into Lead-In and Lead-Out : No
Fill up missing offset samples with silence : Yes
Delete leading and trailing silent blocks : No
Null samples used in CRC calculations : Yes
Used interface : Native Win32 interface for Win NT & 2000

Used output format : User Defined Encoder
Selected bitrate : 1024 kBit/s
Quality : High
Add ID3 tag : No
Command line compressor : C:Program FilesExact Audio CopyFlacflac.exe
Additional command line options : -8 -V %s

TOC of the extracted CD

Track | Start | Length | Start sector | End sector
---------------------------------------------------------
1 | 0:00.00 | 4:49.07 | 0 | 21681
2 | 4:49.07 | 4:57.05 | 21682 | 43961
3 | 9:46.12 | 4:48.13 | 43962 | 65574
4 | 14:34.25 | 6:08.60 | 65575 | 93234
5 | 20:43.10 | 5:10.60 | 93235 | 116544
6 | 25:53.70 | 5:00.55 | 116545 | 139099
7 | 30:54.50 | 5:18.02 | 139100 | 162951
8 | 36:12.52 | 5:41.20 | 162952 | 188546

Range status and errors

Selected range

Filename C:AtsiuntimasSigue Sigue Sputnik - Discography1986 - Flaunt ItSigue Sigue Sputnik - Flaunt It.wav

Peak level 100.0 %
Range quality 100.0 %
Test CRC 9D6115A8
Copy CRC 9D6115A8
Copy OK

No errors occurred

AccurateRip summary

Track 1 cannot be verified as accurate (confidence 1) [67A3D1C2], AccurateRip returned [4FE98B9B]
Track 2 cannot be verified as accurate (confidence 1) [A10C9A56], AccurateRip returned [A316D31C]
Track 3 cannot be verified as accurate (confidence 1) [D1DEA692], AccurateRip returned [2AC1B75E]
Track 4 cannot be verified as accurate (confidence 1) [44F54055], AccurateRip returned [DB3994C0]
Track 5 cannot be verified as accurate (confidence 1) [0F32D292], AccurateRip returned [A1F2FD7B]
Track 6 cannot be verified as accurate (confidence 1) [FEFF5606], AccurateRip returned [1AA8C087]
Track 7 cannot be verified as accurate (confidence 1) [AD0F0DBB], AccurateRip returned [30F86C5C]
Track 8 cannot be verified as accurate (confidence 1) [6D8277C4], AccurateRip returned [08F9CFEB]

No tracks could be verified as accurate
You may have a different pressing from the one(s) in the database

End of status report

Dress For Excess
Exact Audio Copy V0.99 prebeta 5 from 4. May 2009

EAC extraction logfile from 6. April 2011, 9:02

Sigue Sigue Sputnik / Dress For Express

Used drive : _NEC DVD_RW ND-3550A Adapter: 1 ID: 0

Read mode : Secure
Utilize accurate stream : Yes
Defeat audio cache : Yes
Make use of C2 pointers : No

Read offset correction : 48
Overread into Lead-In and Lead-Out : No
Fill up missing offset samples with silence : Yes
Delete leading and trailing silent blocks : No
Null samples used in CRC calculations : Yes
Used interface : Native Win32 interface for Win NT & 2000

Used output format : User Defined Encoder
Selected bitrate : 1024 kBit/s
Quality : High
Add ID3 tag : No
Command line compressor : C:Program FilesExact Audio CopyFlacflac.exe
Additional command line options : -8 -V %s

TOC of the extracted CD

Track | Start | Length | Start sector | End sector
---------------------------------------------------------
1 | 0:00.00 | 4:40.30 | 0 | 21029
2 | 4:40.30 | 4:24.65 | 21030 | 40894
3 | 9:05.20 | 4:27.62 | 40895 | 60981
4 | 13:33.07 | 3:59.40 | 60982 | 78946
5 | 17:32.47 | 5:17.58 | 78947 | 102779
6 | 22:50.30 | 3:48.17 | 102780 | 119896
7 | 26:38.47 | 4:45.63 | 119897 | 141334
8 | 31:24.35 | 3:27.20 | 141335 | 156879
9 | 34:51.55 | 5:33.30 | 156880 | 181884
10 | 40:25.10 | 2:36.65 | 181885 | 193649

Range status and errors

Selected range

Filename C:AtsiuntimasSigue Sigue Sputnik - Discography1988 - Dress For ExcessSigue Sigue Sputnik - Dress For Express.wav

Peak level 100.0 %
Range quality 100.0 %
Test CRC 73156842
Copy CRC 73156842
Copy OK

No errors occurred

AccurateRip summary

Track 1 not present in database
Track 2 not present in database
Track 3 not present in database
Track 4 not present in database
Track 5 not present in database
Track 6 not present in database
Track 7 not present in database
Track 8 not present in database
Track 9 not present in database
Track 10 not present in database

None of the tracks are present in the AccurateRip database

End of status report

The First Generation
Exact Audio Copy V0.99 prebeta 5 from 4. May 2009

EAC extraction logfile from 5. April 2011, 21:45

Sigue Sigue Sputnik / The First Generation

Used drive : _NEC DVD_RW ND-3550A Adapter: 1 ID: 0

Read mode : Secure
Utilize accurate stream : Yes
Defeat audio cache : Yes
Make use of C2 pointers : No

Read offset correction : 48
Overread into Lead-In and Lead-Out : No
Fill up missing offset samples with silence : Yes
Delete leading and trailing silent blocks : No
Null samples used in CRC calculations : Yes
Used interface : Native Win32 interface for Win NT & 2000

Used output format : User Defined Encoder
Selected bitrate : 1024 kBit/s
Quality : High
Add ID3 tag : No
Command line compressor : C:Program FilesExact Audio CopyFlacflac.exe
Additional command line options : -8 -V %s

TOC of the extracted CD

Track | Start | Length | Start sector | End sector
---------------------------------------------------------
1 | 0:00.00 | 6:57.08 | 0 | 31282
2 | 6:57.08 | 4:07.60 | 31283 | 49867
3 | 11:04.68 | 3:59.07 | 49868 | 67799
4 | 15:04.00 | 4:53.45 | 67800 | 89819
5 | 19:57.45 | 4:57.00 | 89820 | 112094
6 | 24:54.45 | 4:54.58 | 112095 | 134202
7 | 29:49.28 | 4:05.30 | 134203 | 152607
8 | 33:54.58 | 5:43.47 | 152608 | 178379
9 | 39:38.30 | 4:23.33 | 178380 | 198137
10 | 44:01.63 | 4:27.27 | 198138 | 218189
11 | 48:29.15 | 4:35.43 | 218190 | 238857

Range status and errors

Selected range

Filename C:AtsiuntimasSigue Sigue Sputnik - Discography1992 - The First GenerationSigue Sigue Sputnik - The First Generation.wav

Peak level 83.3 %
Range quality 100.0 %
Test CRC D4771016
Copy CRC D4771016
Copy OK

No errors occurred

AccurateRip summary

Track 1 not present in database
Track 2 not present in database
Track 3 not present in database
Track 4 not present in database
Track 5 not present in database
Track 6 not present in database
Track 7 not present in database
Track 8 not present in database
Track 9 not present in database
Track 10 not present in database
Track 11 not present in database

None of the tracks are present in the AccurateRip database

End of status report

The F1rst Generation - 2econd Edition
Exact Audio Copy V0.99 prebeta 5 from 4. May 2009

EAC extraction logfile from 5. April 2011, 21:03

Sigue Sigue Sputnik / The F1rst Generation 2econd Edition

Used drive : _NEC DVD_RW ND-3550A Adapter: 1 ID: 0

Read mode : Secure
Utilize accurate stream : Yes
Defeat audio cache : Yes
Make use of C2 pointers : No

Read offset correction : 48
Overread into Lead-In and Lead-Out : No
Fill up missing offset samples with silence : Yes
Delete leading and trailing silent blocks : No
Null samples used in CRC calculations : Yes
Used interface : Native Win32 interface for Win NT & 2000

Used output format : User Defined Encoder
Selected bitrate : 1024 kBit/s
Quality : High
Add ID3 tag : No
Command line compressor : C:Program FilesExact Audio CopyFlacflac.exe
Additional command line options : -8 -V %s

TOC of the extracted CD

Track | Start | Length | Start sector | End sector
---------------------------------------------------------
1 | 0:00.00 | 6:56.50 | 0 | 31249
2 | 6:56.50 | 4:07.60 | 31250 | 49834
3 | 11:04.35 | 3:59.07 | 49835 | 67766
4 | 15:03.42 | 4:53.50 | 67767 | 89791
5 | 19:57.17 | 4:57.00 | 89792 | 112066
6 | 24:54.17 | 4:54.53 | 112067 | 134169
7 | 29:48.70 | 4:05.35 | 134170 | 152579
8 | 33:54.30 | 5:43.45 | 152580 | 178349
9 | 39:38.00 | 4:23.30 | 178350 | 198104
10 | 44:01.30 | 4:27.42 | 198105 | 218171
11 | 48:28.72 | 6:07.00 | 218172 | 245696
12 | 54:35.72 | 4:50.05 | 245697 | 267451

Range status and errors

Selected range

Filename C:AtsiuntimasSigue Sigue Sputnik - Discography1997 - The F1rst Generation - 2econd EditionSigue Sigue Sputnik - The F1rst Generation 2econd Edition.wav

Peak level 100.0 %
Range quality 99.5 %
Test CRC 6B18CB96
Copy CRC 6B18CB96
Copy OK

No errors occurred

AccurateRip summary

Track 1 accurately ripped (confidence 5) [5A63B285]
Track 2 accurately ripped (confidence 5) [3CEE3719]
Track 3 accurately ripped (confidence 5) [5C1E677A]
Track 4 accurately ripped (confidence 5) [E50022D7]
Track 5 accurately ripped (confidence 5) [2AC7F68A]
Track 6 accurately ripped (confidence 5) [E72B278D]
Track 7 accurately ripped (confidence 5) [E481535A]
Track 8 accurately ripped (confidence 5) [427F5DD7]
Track 9 accurately ripped (confidence 5) [2FDF8454]
Track 10 accurately ripped (confidence 5) [62DF9C5A]
Track 11 accurately ripped (confidence 5) [E85B3E27]
Track 12 accurately ripped (confidence 5) [C013B32D]

All tracks accurately ripped

End of status report

The Ultimate 12 Collection
Exact Audio Copy V0.99 prebeta 5 from 4. May 2009

EAC extraction logfile from 5. April 2011, 22:58

Sigue Sigue Sputnik / The Ultimate 12' Collection

Used drive : _NEC DVD_RW ND-3550A Adapter: 1 ID: 0

Read mode : Secure
Utilize accurate stream : Yes
Defeat audio cache : Yes
Make use of C2 pointers : No

Read offset correction : 48
Overread into Lead-In and Lead-Out : No
Fill up missing offset samples with silence : Yes
Delete leading and trailing silent blocks : No
Null samples used in CRC calculations : Yes
Used interface : Native Win32 interface for Win NT & 2000

Used output format : User Defined Encoder
Selected bitrate : 1024 kBit/s
Quality : High
Add ID3 tag : No
Command line compressor : C:Program FilesExact Audio CopyFlacflac.exe
Additional command line options : -8 -V %s

TOC of the extracted CD

Track | Start | Length | Start sector | End sector
---------------------------------------------------------
1 | 0:00.00 | 6:57.41 | 0 | 31315
2 | 6:57.41 | 7:21.69 | 31316 | 64459
3 | 14:19.35 | 7:50.62 | 64460 | 99771
4 | 22:10.22 | 5:17.61 | 99772 | 123607
5 | 27:28.08 | 7:36.38 | 123608 | 157845
6 | 35:04.46 | 6:00.03 | 157846 | 184848
7 | 41:04.49 | 3:42.18 | 184849 | 201516
8 | 44:46.67 | 6:44.48 | 201517 | 231864
9 | 51:31.40 | 7:14.48 | 231865 | 264462
10 | 58:46.13 | 3:32.46 | 264463 | 280408
11 | 62:18.59 | 8:13.19 | 280409 | 317402

Range status and errors

Selected range

Filename C:AtsiuntimasSigue Sigue Sputnik - Discography1998 - The Ultimate 12 CollectionSigue Sigue Sputnik - The Ultimate 12' Collection.wav

Peak level 100.0 %
Range quality 100.0 %
Test CRC D2D8709E
Copy CRC D2D8709E
Copy OK

No errors occurred

AccurateRip summary

Track 1 accurately ripped (confidence 4) [8A6DE095]
Track 2 accurately ripped (confidence 4)
Track 3 accurately ripped (confidence 4) [AB24E5DD]
Track 4 accurately ripped (confidence 4) [D1C98853]
Track 5 accurately ripped (confidence 4) [55C44785]
Track 6 accurately ripped (confidence 4) [1F5B44CC]
Track 7 accurately ripped (confidence 4) [BAB50473]
Track 8 accurately ripped (confidence 4) [77C76FA4]
Track 9 accurately ripped (confidence 4) [1C6F52F4]
Track 10 accurately ripped (confidence 4)
Track 11 accurately ripped (confidence 4) [7FCAC6C6]

All tracks accurately ripped

End of status report

$ci-Fi $ex $tars
Exact Audio Copy V0.99 prebeta 5 from 4. May 2009

EAC extraction logfile from 5. April 2011, 17:04

Sigue Sigue Sputnik / $ci-Fi $ex $tars

Used drive : _NEC DVD_RW ND-3550A Adapter: 1 ID: 0

Read mode : Secure
Utilize accurate stream : Yes
Defeat audio cache : Yes
Make use of C2 pointers : No

Read offset correction : 48
Overread into Lead-In and Lead-Out : No
Fill up missing offset samples with silence : Yes
Delete leading and trailing silent blocks : No
Null samples used in CRC calculations : Yes
Used interface : Native Win32 interface for Win NT & 2000

Used output format : User Defined Encoder
Selected bitrate : 1024 kBit/s
Quality : High
Add ID3 tag : No
Command line compressor : C:Program FilesExact Audio CopyFlacflac.exe
Additional command line options : -8 -V %s

TOC of the extracted CD

Track | Start | Length | Start sector | End sector
---------------------------------------------------------
1 | 0:00.00 | 9:09.20 | 0 | 41194
2 | 9:09.20 | 7:20.19 | 41195 | 74213
3 | 16:29.39 | 5:16.11 | 74214 | 97924
4 | 21:45.50 | 4:55.65 | 97925 | 120114
5 | 26:41.40 | 5:45.24 | 120115 | 146013
6 | 32:26.64 | 4:12.01 | 146014 | 164914
7 | 36:38.65 | 2:53.38 | 164915 | 177927
8 | 39:32.28 | 5:15.02 | 177928 | 201554
9 | 44:47.30 | 12:57.41 | 201555 | 259870

Range status and errors

Selected range

Filename C:AtsiuntimasSigue Sigue Sputnik - Discography2000 - $ci-Fi $ex $tarsSigue Sigue Sputnik - $ci-Fi $ex $tars.wav

Peak level 100.0 %
Range quality 99.9 %
Test CRC B2A0409A
Copy CRC B2A0409A
Copy OK

No errors occurred

AccurateRip summary

Track 1 accurately ripped (confidence 4) [2DC2E60A]
Track 2 accurately ripped (confidence 4) [259151D8]
Track 3 accurately ripped (confidence 4) [C0BCB0F4]
Track 4 accurately ripped (confidence 4) [449BC205]
Track 5 accurately ripped (confidence 4) [19208C5B]
Track 6 accurately ripped (confidence 4) [AEC09E90]
Track 7 accurately ripped (confidence 4) [C6263C35]
Track 8 accurately ripped (confidence 4) [0C003FE3]
Track 9 accurately ripped (confidence 4) [1A8A0644]

All tracks accurately ripped

End of status report

21st Century Boys
Exact Audio Copy V0.99 prebeta 5 from 4. May 2009

EAC extraction logfile from 6. April 2011, 9:51

Sigue Sigue Sputnik / 21st Century Boys

Used drive : _NEC DVD_RW ND-3550A Adapter: 1 ID: 0

Read mode : Secure
Utilize accurate stream : Yes
Defeat audio cache : Yes
Make use of C2 pointers : No

Read offset correction : 48
Overread into Lead-In and Lead-Out : No
Fill up missing offset samples with silence : Yes
Delete leading and trailing silent blocks : No
Null samples used in CRC calculations : Yes
Used interface : Native Win32 interface for Win NT & 2000

Used output format : User Defined Encoder
Selected bitrate : 1024 kBit/s
Quality : High
Add ID3 tag : No
Command line compressor : C:Program FilesExact Audio CopyFlacflac.exe
Additional command line options : -8 -V %s

TOC of the extracted CD

Track | Start | Length | Start sector | End sector
---------------------------------------------------------
1 | 0:00.00 | 1:14.57 | 0 | 5606
2 | 1:14.57 | 3:47.23 | 5607 | 22654
3 | 5:02.05 | 3:55.07 | 22655 | 40286
4 | 8:57.12 | 4:11.23 | 40287 | 59134
5 | 13:08.35 | 3:54.22 | 59135 | 76706
6 | 17:02.57 | 5:26.43 | 76707 | 101199
7 | 22:29.25 | 5:04.52 | 101200 | 124051
8 | 27:34.02 | 5:13.53 | 124052 | 147579
9 | 32:47.55 | 3:53.12 | 147580 | 165066
10 | 36:40.67 | 3:31.40 | 165067 | 180931
11 | 40:12.32 | 3:49.08 | 180932 | 198114
12 | 44:01.40 | 3:40.20 | 198115 | 214634
13 | 47:41.60 | 3:45.12 | 214635 | 231521
14 | 51:26.72 | 4:23.20 | 231522 | 251266
15 | 55:50.17 | 5:12.43 | 251267 | 274709
16 | 61:02.60 | 4:31.47 | 274710 | 295081
17 | 65:34.32 | 4:42.15 | 295082 | 316246
18 | 70:16.47 | 2:38.35 | 316247 | 328131
19 | 72:55.07 | 3:27.38 | 328132 | 343694
20 | 76:22.45 | 0:34.42 | 343695 | 346286

Range status and errors

Selected range

Filename C:AtsiuntimasSigue Sigue Sputnik - Discography2001 - 21st Century BoysSigue Sigue Sputnik - 21st Century Boys.wav

Peak level 97.9 %
Range quality 100.0 %
Test CRC BC33F96C
Copy CRC BC33F96C
Copy OK

No errors occurred

AccurateRip summary

Track 1 cannot be verified as accurate (confidence 11) [8FD7E3BD], AccurateRip returned [6EF99695]
Track 2 cannot be verified as accurate (confidence 11) [C2E25EBA], AccurateRip returned [26D06F50]
Track 3 cannot be verified as accurate (confidence 10) [3BC583B7], AccurateRip returned [A2DEFAA3]
Track 4 cannot be verified as accurate (confidence 10) [31812E3A], AccurateRip returned [CFD8CA04]
Track 5 cannot be verified as accurate (confidence 10) [3A042E55], AccurateRip returned [1B81C45B]
Track 6 cannot be verified as accurate (confidence 11) [6E858CB8], AccurateRip returned [FC3157FE]
Track 7 cannot be verified as accurate (confidence 11) [CB001B5F], AccurateRip returned [57C9CB87]
Track 8 cannot be verified as accurate (confidence 11) [186761F1], AccurateRip returned [130D6D5D]
Track 9 cannot be verified as accurate (confidence 11) [651949F6], AccurateRip returned [9F074188]
Track 10 cannot be verified as accurate (confidence 11) [3769277A], AccurateRip returned [9049BBC6]
Track 11 cannot be verified as accurate (confidence 11) [C803AD54], AccurateRip returned [677EBEFC]
Track 12 cannot be verified as accurate (confidence 10) [CF1EF1E6], AccurateRip returned [067D89AA]
Track 13 cannot be verified as accurate (confidence 11) [96AB269A], AccurateRip returned [936E66D8]
Track 14 cannot be verified as accurate (confidence 11) [FDAF2A5A], AccurateRip returned [CFA15966]
Track 15 cannot be verified as accurate (confidence 11) [2C4B5600], AccurateRip returned [53F90CB4]
Track 16 cannot be verified as accurate (confidence 10) [A3BD0EEC], AccurateRip returned [F6BB6A68]
Track 17 cannot be verified as accurate (confidence 11) [E159D936], AccurateRip returned [A4B6FB6C]
Track 18 cannot be verified as accurate (confidence 11) [8E9E94EC], AccurateRip returned [2A8F80B2]
Track 19 cannot be verified as accurate (confidence 10) [7FE85C24], AccurateRip returned [EFCEB983]
Track 20 cannot be verified as accurate (confidence 10) [79958F1E], AccurateRip returned [6EA27C44]

No tracks could be verified as accurate
You may have a different pressing from the one(s) in the database

End of status report

PirateSpace
Exact Audio Copy V0.99 prebeta 5 from 4. May 2009

EAC extraction logfile from 6. April 2011, 10:32

Sigue Sigue Sputnik / PirateSpace

Used drive : _NEC DVD_RW ND-3550A Adapter: 1 ID: 0

Read mode : Secure
Utilize accurate stream : Yes
Defeat audio cache : Yes
Make use of C2 pointers : No

Read offset correction : 48
Overread into Lead-In and Lead-Out : No
Fill up missing offset samples with silence : Yes
Delete leading and trailing silent blocks : No
Null samples used in CRC calculations : Yes
Used interface : Native Win32 interface for Win NT & 2000

Used output format : User Defined Encoder
Selected bitrate : 1024 kBit/s
Quality : High
Add ID3 tag : No
Command line compressor : C:Program FilesExact Audio CopyFlacflac.exe
Additional command line options : -8 -V %s

TOC of the extracted CD

Track | Start | Length | Start sector | End sector
---------------------------------------------------------
1 | 0:00.00 | 6:21.20 | 0 | 28594
2 | 6:21.20 | 3:51.40 | 28595 | 45959
3 | 10:12.60 | 5:58.05 | 45960 | 72814
4 | 16:10.65 | 5:22.56 | 72815 | 97020
5 | 21:33.46 | 6:40.30 | 97021 | 127050
6 | 28:14.01 | 5:13.48 | 127051 | 150573
7 | 33:27.49 | 6:53.58 | 150574 | 181606
8 | 40:21.32 | 5:45.03 | 181607 | 207484
9 | 46:06.35 | 4:01.57 | 207485 | 225616
10 | 50:08.17 | 4:10.59 | 225617 | 244425
11 | 54:19.01 | 6:21.02 | 244426 | 273002

Range status and errors

Selected range

Filename C:AtsiuntimasSigue Sigue Sputnik - Discography2001 - PirateSpaceSigue Sigue Sputnik - Piratespace.wav

Peak level 100.0 %
Range quality 100.0 %
Test CRC 4D2B9449
Copy CRC 4D2B9449
Copy OK

No errors occurred

AccurateRip summary

Track 1 accurately ripped (confidence 6) [88A655F8]
Track 2 accurately ripped (confidence 6) [A5E9ED13]
Track 3 accurately ripped (confidence 6) [AE0F68B1]
Track 4 accurately ripped (confidence 6) [32E5905C]
Track 5 accurately ripped (confidence 6) [219C23EC]
Track 6 accurately ripped (confidence 6) [D7BC3D13]
Track 7 accurately ripped (confidence 6) [5BD7135C]
Track 8 accurately ripped (confidence 6)
Track 9 accurately ripped (confidence 6) [11C9C087]
Track 10 accurately ripped (confidence 6) [997B3124]
Track 11 accurately ripped (confidence 6) [FCD4BCF5]

All tracks accurately ripped

End of status report

Blak Elvis
Exact Audio Copy V0.99 prebeta 5 from 4. May 2009

EAC extraction logfile from 6. April 2011, 7:57

Sigue Sigue Sputnik / Blak Elvis vs. The Kings of Electronic Rock and Roll

Used drive : _NEC DVD_RW ND-3550A Adapter: 1 ID: 0

Read mode : Secure
Utilize accurate stream : Yes
Defeat audio cache : Yes
Make use of C2 pointers : No

Read offset correction : 48
Overread into Lead-In and Lead-Out : No
Fill up missing offset samples with silence : Yes
Delete leading and trailing silent blocks : No
Null samples used in CRC calculations : Yes
Used interface : Native Win32 interface for Win NT & 2000

Used output format : User Defined Encoder
Selected bitrate : 1024 kBit/s
Quality : High
Add ID3 tag : No
Command line compressor : C:Program FilesExact Audio CopyFlacflac.exe
Additional command line options : -8 -V %s

TOC of the extracted CD

Track | Start | Length | Start sector | End sector
---------------------------------------------------------
1 | 0:00.00 | 0:43.33 | 0 | 3257
2 | 0:43.33 | 4:02.01 | 3258 | 21408
3 | 4:45.34 | 3:47.02 | 21409 | 38435
4 | 8:32.36 | 5:03.11 | 38436 | 61171
5 | 13:35.47 | 4:45.35 | 61172 | 82581
6 | 18:21.07 | 4:07.22 | 82582 | 101128
7 | 22:28.29 | 3:42.65 | 101129 | 117843
8 | 26:11.19 | 3:50.52 | 117844 | 135145
9 | 30:01.71 | 5:14.65 | 135146 | 158760
10 | 35:16.61 | 2:51.59 | 158761 | 171644
11 | 38:08.45 | 7:03.67 | 171645 | 203436

Range status and errors

Selected range

Filename C:AtsiuntimasSigue Sigue Sputnik - DiscographyBlak Elvis vs. The Kings of Electronic Rock and RollSigue Sigue Sputnik - Blak Elvis vs. The Kings of Electronic Rock and Roll.wav

Peak level 99.9 %
Range quality 100.0 %
Test CRC F0AFF904
Copy CRC F0AFF904
Copy OK

No errors occurred

AccurateRip summary

Track 1 not present in database
Track 2 not present in database
Track 3 not present in database
Track 4 not present in database
Track 5 not present in database
Track 6 not present in database
Track 7 not present in database
Track 8 not present in database
Track 9 not present in database
Track 10 not present in database
Track 11 not present in database

None of the tracks are present in the AccurateRip database

End of status report

Ultra Real
Exact Audio Copy V0.99 prebeta 5 from 4. May 2009

EAC extraction logfile from 6. April 2011, 11:08

Sigue Sigue Sputnik / Ultra Real

Used drive : _NEC DVD_RW ND-3550A Adapter: 1 ID: 0

Read mode : Secure
Utilize accurate stream : Yes
Defeat audio cache : Yes
Make use of C2 pointers : No

Read offset correction : 48
Overread into Lead-In and Lead-Out : No
Fill up missing offset samples with silence : Yes
Delete leading and trailing silent blocks : No
Null samples used in CRC calculations : Yes
Used interface : Native Win32 interface for Win NT & 2000

Used output format : User Defined Encoder
Selected bitrate : 1024 kBit/s
Quality : High
Add ID3 tag : No
Command line compressor : C:Program FilesExact Audio CopyFlacflac.exe
Additional command line options : -8 -V %s

TOC of the extracted CD

Track | Start | Length | Start sector | End sector
---------------------------------------------------------
1 | 0:00.00 | 5:23.30 | 0 | 24254
2 | 5:23.30 | 3:44.41 | 24255 | 41095
3 | 9:07.71 | 4:47.05 | 41096 | 62625
4 | 13:55.01 | 4:49.72 | 62626 | 84372
5 | 18:44.73 | 4:31.31 | 84373 | 104728
6 | 23:16.29 | 5:26.16 | 104729 | 129194
7 | 28:42.45 | 5:10.58 | 129195 | 152502
8 | 33:53.28 | 4:23.37 | 152503 | 172264
9 | 38:16.65 | 4:11.35 | 172265 | 191124
10 | 42:28.25 | 6:28.62 | 191125 | 220286

Range status and errors

Selected range

Filename C:AtsiuntimasSigue Sigue Sputnik - Discography2003 - Ultra RealSigue Sigue Sputnik - Ultra Real.wav

Peak level 99.9 %
Range quality 100.0 %
Test CRC B2019252
Copy CRC B2019252
Copy OK

No errors occurred

AccurateRip summary

Track 1 accurately ripped (confidence 5) [42A65B04]
Track 2 accurately ripped (confidence 5) [EC94497C]
Track 3 accurately ripped (confidence 5) [F327A12C]
Track 4 accurately ripped (confidence 5) [6831B8F2]
Track 5 accurately ripped (confidence 5) [FDF32422]
Track 6 accurately ripped (confidence 5) [39A03224]
Track 7 accurately ripped (confidence 5) [DD760892]
Track 8 accurately ripped (confidence 5) [5F7BD313]
Track 9 accurately ripped (confidence 5) [2E86FC2C]
Track 10 accurately ripped (confidence 5) [837B1E87]

All tracks accurately ripped

End of status report
Музыка / Lossless / Разное
СКАЧАТЬ БЕСПЛАТНО  [3.6 GB]


22
июн
2011

Sigue Sigue Sputnik - Live in Tokyo [2003, Сyber-Рunk, DVD5]

Формат: DVD5, DVD Video, MPEG2, PCM
Песня: Live in Tokyo
Жанр: Сyber-Рunk
Продолжительность: 01:11:51
Год выпуска: 2003
Видео: 720х480 (NTSC 4:3), 29,970 fps, MPEG-2, ~8264 kbps avg, 0.798 bit/pixel
Аудио: 48 kHz, PCM, 2 ch, 1536.00 kbps avg
Доп. информация: Группа образована в 1984 году в Великобритании.Эта панк-глэм группа взяла на вооружение тактику, найденную менеджером Sex Pistols Малколмом Маклареном, правда, без отчаянного нигилизма «пистоловцев». После серии успешных британских синглов («Love Missile F1-11», «Twenty-First Century Boy») и неудачного турне по США, группа распалась. "Гр ...

22
авг
2018

Sigue Sigue Sputnik - Live At Bliss [1986, Post-Punk, DVD5]

Формат: DVD5, DVD Video, MPEG2, AC3
Песня: Live At Bliss
Жанр: Post-Punk
Продолжительность: 02:35:42
Год выпуска: 1986
Видео: 720х576 (PAL 5:4), 25,000 fps, MPEG-2, 4000 kbps avg, 0.396 bit/pixel
Аудио: 48.0 КГц, Audio Coding 3, 2 ch, 256 kbps
Доп. информация: Британская постпанк-группа, созданная в Лондоне, Англия, в 1982 году бывшим участником Generation X Тони Джеймсом. Группа была создана в 1982 году, когда Тони Джеймс дал объявление о поиске солиста в Melody Maker. По предложению менеджера The Boomtown Rats, коллектив назвали Sigue Sigue Sputnik — в честь мифической московской уличной б ...

21
сен
2009

Sigue Sigue Sputnik - Flaunt It [1987, Electro - punk, FLAC]

Формат: FLAC, tracks, lossless
Год выпуска: 1987
Страна: USA
Жанр: Electro - punk
Продолжительность: 01:14:51 min.
Трэк лист: 01. Love Missile FI-11 02. Atari Baby 03. Sex Bomb Boogie 04. Rockit Miss U.S.A 05. 21st Century Boy 06. Massive Retaliation 07. Teenage Thunder 08. She's My Man 09. Jayne Mansfield Blitzkrieg Baby 10. Ultra Violence Senseless Sex And Gratuitous Violence 11. Krush Groove Girls The Meat Hookers Of Love 12. Rockajet Baby This Stuff II Kill Ya 13. Rebel Rebel Zigger Zagger (Recorded Live On Mars) 14. Rockit Miss U.S.A. Black And Bluski
Доп. информация: 510 MB

01
мая
2012

Juan Magan & Don Omar - Ella No Sigue Modas [2012, Pop, Dance, HDTV]

Формат: HDTV, MP4, Другой MPEG4, AAC
Песня: Ella No Sigue Modas
Жанр: Pop, Dance
Продолжительность: 00:04:08
Год выпуска: 2012
Видео: MPEG4 Video, 1920x1080, YUV (16:9), 25.00 fps, 3659 Kbps, 0.071 bit/pixel
Аудио: 44.1 kHz, AAC, 2 ch, 152 Kbps
Доп. информация: Недавно был снять клип еще на один ремикс песни "Danza Kuduro" - "Ella No Sigue Modas", которая является официальным саундтреком к последней части Форсажа, и хитом лета 2011. Релиз предоставлен группой:

07
янв
2010

Cerrone - Сollection (14 Albums) [1976-2002, Disco, FLAC]

Формат: FLAC, (image + .cue), lossless
Год выпуска: 1976-2002
Страна: France
Жанр: Disco
Продолжительность: 05:01:06 1976- Love In C Minor & 1977- Cerrone`s Paradise
Трэклист: 1. Love In C Minor (16:10) 2. Black Is Black (5:50) 3. Midnight Lady (7:24) 4. Cerrone's Paradise (15:51) 5. Take Me (5:53) 6. Time For Love (6:11) 7. Cerrone's Paradise (3:52)
Продолжительность: 61:16 1977- Supernature & 1978- The Golden Touch
Трэклист: 1. Supernature (9:46) 2. Sweet Drums (2:48) 3. In The Smoke (5:21) 4. Give Me Love (7:42) 5. Love Is Here (2:09) 6. Love Is The Answer (6:03) 7. Je Suis Music ...

13
янв
2011

Bruce Dickinson - Сollection (7 Albums) [1990-2005, Heavy Metal, APE]

Формат: FLAC, (image + .cue), lossless
Год выпуска: 1990-2005
Страна: England
Жанр: Heavy Metal
Продолжительность: 09:42:53
Описание: 1990 - Tattooed Millionaire (Extended Edition 2005 2 CD) 01 CD - 1 треклист 01. Son of a Gun 5:55 02. Tattooed Millionaire 4:28 03. Born in '58 3:40 04. Hell on Wheels 3:40 05. Gypsy Road 4:03 06. Dive! Dive! Dive! 4:41 07. All the Young Dudes 3:48 08. Lickin' the Gun 3:17 09. Zulu Lulu 3:27 10. No Lies 6:23 продолжительность: 43:20 CD - 2 треклист 01. Bring Your Daughter...to the Slaughter (Original Soundtrack Version) 5:01 02. Ballad of Mut ...

23
янв
2011

Dee D. Jackson - Сollection (4 Albums) [1978-2010, Disco, FLAC]

Формат: FLAC/APE, (image + .cue)/tracks, lossless
Год выпуска: 1978-2010
Страна: Germany
Жанр: Disco
Продолжительность: 03:41:39
Описание: 1978 Cosmic Curves (Remaistrer 2010) 00 треклист 01. Automatic Lover 02. Red Flight 03. Galaxy Of Love 04. Meteor Man 05. Venus, The Godess Of Love 06. Galaxy Police 07. Cosmic Curves 08. Falling Into Space Bonus Track 09. Fireball 10. Automatic Lover Rmx 11. Didn ' T Think You ' D Do It 1980 Thunder & Lightning 00 треклист 1. SOS (love to the rescue) 2. Which Way Is Up 3. Living In A Dream 4. Teach You How to Dance 5. Thunder & Lightning 6 ...

24
мая
2015

VA - Trance Сollection vol.10 [2015, Trance,Progressive Trance,Vocal Trance, Uplifting Trance,Electro/NRG Trance, MP3]

Формат: MP3, tracks, 320kbps
Год выпуска: 2015
Страна: All World
Жанр: Trance, Progressive Trance, Vocal Trance, Uplifting Trance, Electro/NRG Trance
Продолжительность: 11:13:49
Описание: Треклист1. 2nd Phase - The Game (Original Mix) 2. Abandoned Rainbow - I Want You Now (Original Mix) 3. Above & Beyond feat. Zoe Johnston vs. Talemono - Overload, Were All We Need (Angel Moreno Mashup Rework) 4. Abstract Vision & Aimoon - #Energy (Original Mix) 5. Alejandro Andaluz - Singularity (Original Mix) 6. Alexander Popov - Olympus (Original Mix) 7. Allen & Envy - Elixir (Original Mix) 8. Allen Farr - B ...

16
мар
2007

Slayer 10 Albums [mp3, 128256] (Thrash metal)

Страна: USA
Жанр: Thrash metal
Продолжительность: примерно 45 минут альбом
Формат: MP3
Битрейт аудио: 128-256 kbs
Трэклист:
Дискография: 1. Show No Mercy - 1983 (192 kbs) 2. Hell Awaits - 1985 (192 kbs) 3. Reign in Blood - 1986 (128 kbs) 4. South Of Heaven - 1988 (192 kbs) 5. Seasons In The Abyss - 1989 (192 kbs) 6. Divine Intervention - 1994 (192 kbs) 7. Undisputed Attitude - 1996 (160 kbs) 8. Diabolus In Musica - 2000 (192 kbs) 9. God Hates Us All - 2001 (192 kbs) 10. Christ Illusion - 2006 (256 Kbs)
Доп. информация: Эта американская трэшевая команда образовалась в Лос-Анджелесе (СЩА) в 198 ...

12
июн
2013

John Hiatt - 10 Albums (Mini LP SHM-CD) [2013, Blues, Rock, Blues Rock, Country Blues, FLAC]

Формат: FLAC, (image + .cue), lossless
Год выпуска: 2013
Страна: USA
Жанр: Blues, Rock, Blues Rock, Country Blues
Продолжительность: 07:59:29
Описание: 1979 Slug Line 00 01. You Used To Kiss The Girls 02. The Negroes Were Dancing 03. Slug Line 04. Madonna Road 05. (No More) Dancin' In The Street 06. Long Night 07. The Night That Kenny Died 08. Radio Girl 09. You're My Love Interest 10. Take Off Your Uniform 11. Sharon's Got A Drugstore 12. Washable Ink EACExact Audio Copy V1.0 beta 3 from 29. August 2011 EAC extraction logfile from 4. June 2013, 11:24 John Hiatt / Slug Line Used drive : PL ...

16
окт
2012

Emerson, Lake & Palmer - 10 Albums [1970-94, Progressive, Art-Rock, FLAC]

Формат: FLAC, (image + .cue), lossless
Год выпуска: 1970-94
Страна: UK
Жанр: Progressive, Art-Rock
Продолжительность: 09:37:29
Описание: 1970 Emerson, Lake & Palmer 41 1. The Barbarian 2. Take a Pebble 3. Knife Edge 4. The Three Fates I. Clotho II. Lachesis III. Atropos 5. Tank 6. Lucky Man EACExact Audio Copy V1.0 beta 3 from 29. August 2011 EAC extraction logfile from 10. October 2012, 21:33 Emerson, Lake & Palmer / Emerson, Lake & Palmer (2011, Sony Music. 88697830072) Used drive : Optiarc DVD RW AD-5200S Adapter: 2 ID: 0 Read mode : Secure Utilize accurate stream : Yes Defeat audio ca ...

17
дек
2016

Supertramp - 10 Albums 1970-1987 (Mini LP SHM) [2016, Rock, Progressive Rock, Pop Rock, FLAC]

Формат: FLAC, (image + .cue), lossless
Год выпуска: 2016
Страна: UK
Жанр: Rock, Progressive Rock, Pop Rock
Продолжительность: 08:14:50
Описание: 1970 Supertramp 0001. Surely 02. It's A Long Road 03. Aubade 04. And I Am Not Like Other Birds Of Prey 05. Words Unspoken 06. Maybe I'm A Beggar 07. Home Again 08. Nothing To Show 09. Shadow Song 10. Try Again 11. Surely eac Exact Audio Copy V1.1 from 23. June 2015 EAC extraction logfile from 14. December 2016, 19:59 Supertramp / Supertramp SHM-CD Used drive : PLEXTOR BD-R PX-B950SA Adapter: 1 ID: 1 Read mode : Secure Utilize accurate stream : Yes ...

05
янв
2012

M.I.K.E. - 10 Albums (Push,Plastic Boy,Absolute)[2000-2011, Trance, MP3]

Формат: MP3, tracks, 320kbps
Год выпуска: 2000-2011
Страна: All World
Жанр: Trance
Продолжительность: 16:03:11
Описание: 2000 . Push - From Beyond (01 01. Electro Fever (09:37) 02. Universal Nation (07:53) 03. Strange World (Original) (07:16) 04. Travelogue (08:30) 05. Cosmonautica (07:07) 06. Till We Meet Again... (08:33) 07. Tranzy State Of Mind (Original) (06:55) 08. The Legacy (Original) (08:46) 09. Live On (08:17) 10. Outro (00:48) 2002 . Push - Strange World (01 01. Intro (00:27) 02. Strange World (2000 Remake) (07:23) 03. The Legacy (Club Mix) (05:03) 04. Universal Nation (Tall Paul Rem ...

02
апр
2012

Sputnik - Favorite Songs Of The Soviet Cosmonauts [1988, Space Disco, Electro, Pop, MP3]

MP3, tracks, 192kbps
Год выпуска: 1998
Страна: USA
Жанр: Space Disco, Electro, Pop
Продолжительность: 01:02:33
Описание: 01. Цифрограмма (Digigram) 02. E=mC2 03. Олимпийская (Звездокиада) (Olympic) 04. Шум дождя (The Sound Of Rain) 05. Андромеда (Andromeda) 06. Электропоезд (Electric Train) 07. Мужчина и женщина (Landy and Gent) 08. Арктический рай (Белый остров) (Arctic Paradise) 09. Морской Круиз (Sea Cruise) (Bonus) (Из альбома "Лёгкая Зима 2001")
Доп. информация: РаскрытьА вот такой пластинки у вас точно нет. Это первый и единственный альбом группы, созданной 10 лет назад в Амстердаме вы ...

09
фев
2009

Oasis Discography (10 Albums and 22 Singles + Rare and Un-Released) [1994-2008, Rock/BritPop]

Формат: MP3, tracks, 320kbps
Год выпуска: 1994-2008
Страна: Великобритания
Жанр: Rock/BritPop
Продолжительность: 45:42:00
Описание: Раскрыть1994 - Definitely Maybe 01. Rock n Roll Star 02. Shakermaker 03. Live Forever 04. Up In The Sky 05. Columbia 06. Supersonic 07. Bring It On Down 08. Cigarettes & Alcohol 09. Digsy s Diner 10. Slide Away 11. Married With Children 1995 - (What's The Story) Morning Glory? 01. Hello 02. Roll With 03. Wonderwall 04. Dont Look Back In Anger 05. Hey Now 06. Some Might Say 07. Cast No Shadow 08. She s Electric 09. Morning Glory 10. Champagne Supernova 1997 - Be ...