20
мая
2011

Sade - The Ultimate Collection (2CD) [2011, Soul, R B, Smooth-Jazz, Pop, FLAC]

Sade - The Ultimate Collection (2CD)

Формат: FLAC, (tracks + .cue), lossless
Год выпуска: 2011
Страна: Nigeria
Жанр: Soul, R&B, Smooth-Jazz, Pop
Продолжительность: 02:13:04
Описание:

Доп. информация:
Треклист
CD-1 62:35

01. Your Love Is King
02. Smooth Operator
03. Hang On To Your Love
04. The Sweetest Taboo
05. Is It A Crime
06. Never As Good As The First Time
07. Jezebel
08. Love Is Stronger Than Pride
09. Paradise
10. Nothing Can Come Between Us
11. No Ordinary Love
12. Kiss Of Life
13. Feel No Pain
14. Bullet Proof Soul

CD-2 50:35

01. Cherish The Day
02. Pearls
03. By Your Side
04. Immigrant
05. Flow
06. King Of Sorrow
07. The Sweetest Gift
08. Soldier Of Love
09. The Moon And The Sky
10. Babyfather
11. Still In Love With You
12. Love Is Found
13. I Would Never Have Guessed
14. The Moon And The Sky (Remix Feat. Jay-Z)
15. By Your Side (Neptunes Remix)


Log EAC
CD 1

Exact Audio Copy V0.99 prebeta 5 from 4. May 2009

EAC extraction logfile from 3. May 2011, 19:41

Sade / The Ultimate Collection CD1

Used drive : Optiarc DVD RW AD-7260S Adapter: 3 ID: 0

Read mode : Secure
Utilize accurate stream : Yes
Defeat audio cache : Yes
Make use of C2 pointers : No

Read offset correction : 48
Overread into Lead-In and Lead-Out : No
Fill up missing offset samples with silence : Yes
Delete leading and trailing silent blocks : No
Null samples used in CRC calculations : Yes
Used interface : Installed external ASPI interface
Gap handling : Appended to previous track

Used output format : User Defined Encoder
Selected bitrate : 192 kBit/s
Quality : High
Add ID3 tag : No
Command line compressor : D:Program FilesExact Audio Copyflac-1.1.4-winbinflac.exe
Additional command line options : -8 -V -T "ARTIST=%a" -T "TITLE=%t" -T "ALBUM=%g" -T "DATE=%y" -T "TRACKNUMBER=%n" -T "TOTALTRACKS=%x" -T "GENRE=%m" -T "ALBUMARTIST=%v" -T "ALBUM ARTIST=%v" -T "COMMENT=EAC Secure Mode, Test & Copy, AccurateRip, FLAC -8" %s

TOC of the extracted CD

Track | Start | Length | Start sector | End sector
---------------------------------------------------------
1 | 0:00.00 | 3:42.18 | 0 | 16667
2 | 3:42.18 | 4:18.05 | 16668 | 36022
3 | 8:00.23 | 4:31.68 | 36023 | 56415
4 | 12:32.16 | 4:27.25 | 56416 | 76465
5 | 16:59.41 | 6:21.61 | 76466 | 105101
6 | 23:21.27 | 3:58.15 | 105102 | 122966
7 | 27:19.42 | 5:26.42 | 122967 | 147458
8 | 32:46.09 | 4:19.42 | 147459 | 166925
9 | 37:05.51 | 3:37.54 | 166926 | 183254
10 | 40:43.30 | 3:53.72 | 183255 | 200801
11 | 44:37.27 | 7:20.45 | 200802 | 233846
12 | 51:57.72 | 4:13.67 | 233847 | 252888
13 | 56:11.64 | 5:11.17 | 252889 | 276230
14 | 61:23.06 | 5:25.36 | 276231 | 300641

Track 1

Filename E:EACSade - The Ultimate Collection (2011) [FLAC]CD11 - Your love is king.wav

Pre-gap length 0:00:02.00

Peak level 90.2 %
Track quality 100.0 %
Test CRC 39571CFF
Copy CRC 39571CFF
Track not present in AccurateRip database
Copy OK

Track 2

Filename E:EACSade - The Ultimate Collection (2011) [FLAC]CD12 - Smooth operator.wav

Pre-gap length 0:00:00.94

Peak level 79.2 %
Track quality 100.0 %
Test CRC 139356EE
Copy CRC 139356EE
Track not present in AccurateRip database
Copy OK

Track 3

Filename E:EACSade - The Ultimate Collection (2011) [FLAC]CD13 - Hang on to your love.wav

Pre-gap length 0:00:01.92

Peak level 99.8 %
Track quality 100.0 %
Test CRC 217FDE5F
Copy CRC 217FDE5F
Track not present in AccurateRip database
Copy OK

Track 4

Filename E:EACSade - The Ultimate Collection (2011) [FLAC]CD14 - The sweetest taboo.wav

Pre-gap length 0:00:02.66

Peak level 81.2 %
Track quality 100.0 %
Test CRC DBC7788F
Copy CRC DBC7788F
Track not present in AccurateRip database
Copy OK

Track 5

Filename E:EACSade - The Ultimate Collection (2011) [FLAC]CD15 - Is it a crime.wav

Pre-gap length 0:00:02.14

Peak level 90.1 %
Track quality 100.0 %
Test CRC 8237E8BE
Copy CRC 8237E8BE
Track not present in AccurateRip database
Copy OK

Track 6

Filename E:EACSade - The Ultimate Collection (2011) [FLAC]CD16 - Never as good as the first time.wav

Pre-gap length 0:00:00.88

Peak level 98.8 %
Track quality 100.0 %
Test CRC 5CD4524E
Copy CRC 5CD4524E
Track not present in AccurateRip database
Copy OK

Track 7

Filename E:EACSade - The Ultimate Collection (2011) [FLAC]CD17 - Jezebel.wav

Pre-gap length 0:00:01.93

Peak level 95.1 %
Track quality 100.0 %
Test CRC A52FA03D
Copy CRC A52FA03D
Track not present in AccurateRip database
Copy OK

Track 8

Filename E:EACSade - The Ultimate Collection (2011) [FLAC]CD18 - Love is stronger than pride.wav

Pre-gap length 0:00:00.38

Peak level 92.3 %
Track quality 100.0 %
Test CRC BD49FA9A
Copy CRC BD49FA9A
Track not present in AccurateRip database
Copy OK

Track 9

Filename E:EACSade - The Ultimate Collection (2011) [FLAC]CD19 - Paradise.wav

Pre-gap length 0:00:01.92

Peak level 92.3 %
Track quality 100.0 %
Test CRC 3C4780FF
Copy CRC 3C4780FF
Track not present in AccurateRip database
Copy OK

Track 10

Filename E:EACSade - The Ultimate Collection (2011) [FLAC]CD110 - Nothing can come between us.wav

Pre-gap length 0:00:01.65

Peak level 99.9 %
Track quality 100.0 %
Test CRC D4BB5A2C
Copy CRC D4BB5A2C
Track not present in AccurateRip database
Copy OK

Track 11

Filename E:EACSade - The Ultimate Collection (2011) [FLAC]CD111 - No ordinary love.wav

Pre-gap length 0:00:01.29

Peak level 92.3 %
Track quality 100.0 %
Test CRC 39BD0E3E
Copy CRC 39BD0E3E
Track not present in AccurateRip database
Copy OK

Track 12

Filename E:EACSade - The Ultimate Collection (2011) [FLAC]CD112 - Kiss of life.wav

Pre-gap length 0:00:01.89

Peak level 88.9 %
Track quality 100.0 %
Test CRC D85BB069
Copy CRC D85BB069
Track not present in AccurateRip database
Copy OK

Track 13

Filename E:EACSade - The Ultimate Collection (2011) [FLAC]CD113 - Feel no pain.wav

Pre-gap length 0:00:03.24

Peak level 98.9 %
Track quality 100.0 %
Test CRC 8DFB1CDD
Copy CRC 8DFB1CDD
Track not present in AccurateRip database
Copy OK

Track 14

Filename E:EACSade - The Ultimate Collection (2011) [FLAC]CD114 - Bullet proof soul.wav

Pre-gap length 0:00:02.44

Peak level 90.0 %
Track quality 100.0 %
Test CRC 9D21C4EA
Copy CRC 9D21C4EA
Track not present in AccurateRip database
Copy OK

None of the tracks are present in the AccurateRip database

No errors occurred

End of status report


CD 2

Exact Audio Copy V0.99 prebeta 5 from 4. May 2009

EAC extraction logfile from 3. May 2011, 20:22

Sade / The Ultimate Collection CD2

Used drive : Optiarc DVD RW AD-7260S Adapter: 3 ID: 0

Read mode : Secure
Utilize accurate stream : Yes
Defeat audio cache : Yes
Make use of C2 pointers : No

Read offset correction : 48
Overread into Lead-In and Lead-Out : No
Fill up missing offset samples with silence : Yes
Delete leading and trailing silent blocks : No
Null samples used in CRC calculations : Yes
Used interface : Installed external ASPI interface
Gap handling : Appended to previous track

Used output format : User Defined Encoder
Selected bitrate : 192 kBit/s
Quality : High
Add ID3 tag : No
Command line compressor : D:Program FilesExact Audio Copyflac-1.1.4-winbinflac.exe
Additional command line options : -8 -V -T "ARTIST=%a" -T "TITLE=%t" -T "ALBUM=%g" -T "DATE=%y" -T "TRACKNUMBER=%n" -T "TOTALTRACKS=%x" -T "GENRE=%m" -T "ALBUMARTIST=%v" -T "ALBUM ARTIST=%v" -T "COMMENT=EAC Secure Mode, Test & Copy, AccurateRip, FLAC -8" %s

TOC of the extracted CD

Track | Start | Length | Start sector | End sector
---------------------------------------------------------
1 | 0:00.00 | 6:19.74 | 0 | 28498
2 | 6:19.74 | 4:34.05 | 28499 | 49053
3 | 10:54.04 | 4:40.59 | 49054 | 70112
4 | 15:34.63 | 3:49.71 | 70113 | 87358
5 | 19:24.59 | 4:34.05 | 87359 | 107913
6 | 23:58.64 | 4:47.24 | 107914 | 129462
7 | 28:46.13 | 2:20.72 | 129463 | 140034
8 | 31:07.10 | 5:58.29 | 140035 | 166913
9 | 37:05.39 | 4:29.27 | 166914 | 187115
10 | 41:34.66 | 4:40.26 | 187116 | 208141
11 | 46:15.17 | 4:26.35 | 208142 | 228126
12 | 50:41.52 | 4:10.41 | 228127 | 246917
13 | 54:52.18 | 2:57.15 | 246918 | 260207
14 | 57:49.33 | 4:27.24 | 260208 | 280256
15 | 62:16.57 | 3:59.07 | 280257 | 298188

Track 1

Filename E:EACSade - The Ultimate Collection (2011) [FLAC]CD21 - Cherish the day.wav

Pre-gap length 0:00:02.00

Peak level 98.9 %
Track quality 100.0 %
Test CRC 757CB161
Copy CRC 757CB161
Track not present in AccurateRip database
Copy OK

Track 2

Filename E:EACSade - The Ultimate Collection (2011) [FLAC]CD22 - Pearls.wav

Pre-gap length 0:00:01.36

Peak level 82.6 %
Track quality 100.0 %
Test CRC 3EE33137
Copy CRC 3EE33137
Track not present in AccurateRip database
Copy OK

Track 3

Filename E:EACSade - The Ultimate Collection (2011) [FLAC]CD23 - By your side.wav

Pre-gap length 0:00:01.52

Peak level 98.7 %
Track quality 99.9 %
Test CRC 5876C7C8
Copy CRC 5876C7C8
Track not present in AccurateRip database
Copy OK

Track 4

Filename E:EACSade - The Ultimate Collection (2011) [FLAC]CD24 - Immigrant.wav

Pre-gap length 0:00:01.04

Peak level 92.8 %
Track quality 100.0 %
Test CRC C6502DBD
Copy CRC C6502DBD
Track not present in AccurateRip database
Copy OK

Track 5

Filename E:EACSade - The Ultimate Collection (2011) [FLAC]CD25 - Flow.wav

Pre-gap length 0:00:02.08

Peak level 98.9 %
Track quality 100.0 %
Test CRC 4CA5D7BC
Copy CRC 4CA5D7BC
Track not present in AccurateRip database
Copy OK

Track 6

Filename E:EACSade - The Ultimate Collection (2011) [FLAC]CD26 - King of sorrow.wav

Pre-gap length 0:00:00.57

Peak level 92.5 %
Track quality 100.0 %
Test CRC 39729134
Copy CRC 39729134
Track not present in AccurateRip database
Copy OK

Track 7

Filename E:EACSade - The Ultimate Collection (2011) [FLAC]CD27 - The sweetest gift.wav

Pre-gap length 0:00:01.73

Peak level 86.7 %
Track quality 100.0 %
Test CRC 7BE61552
Copy CRC 7BE61552
Track not present in AccurateRip database
Copy OK

Track 8

Filename E:EACSade - The Ultimate Collection (2011) [FLAC]CD28 - Soldier of love.wav

Pre-gap length 0:00:01.52

Peak level 98.9 %
Track quality 100.0 %
Test CRC CD494BC0
Copy CRC CD494BC0
Track not present in AccurateRip database
Copy OK

Track 9

Filename E:EACSade - The Ultimate Collection (2011) [FLAC]CD29 - The moon and the sky.wav

Pre-gap length 0:00:01.50

Peak level 97.0 %
Track quality 99.9 %
Test CRC 6B5EC0B5
Copy CRC 6B5EC0B5
Track not present in AccurateRip database
Copy OK

Track 10

Filename E:EACSade - The Ultimate Collection (2011) [FLAC]CD210 - Babyfather.wav

Pre-gap length 0:00:02.10

Peak level 97.3 %
Track quality 100.0 %
Test CRC 370E8CC9
Copy CRC 370E8CC9
Track not present in AccurateRip database
Copy OK

Track 11

Filename E:EACSade - The Ultimate Collection (2011) [FLAC]CD211 - Still in love with you.wav

Pre-gap length 0:00:01.69

Peak level 98.9 %
Track quality 100.0 %
Test CRC 0DC31AC6
Copy CRC 0DC31AC6
Track not present in AccurateRip database
Copy OK

Track 12

Filename E:EACSade - The Ultimate Collection (2011) [FLAC]CD212 - Love is found.wav

Pre-gap length 0:00:02.22

Peak level 97.7 %
Track quality 100.0 %
Test CRC E3C35D1E
Copy CRC E3C35D1E
Track not present in AccurateRip database
Copy OK

Track 13

Filename E:EACSade - The Ultimate Collection (2011) [FLAC]CD213 - I would never have guessed.wav

Pre-gap length 0:00:02.17

Peak level 97.7 %
Track quality 100.0 %
Test CRC 308F4E37
Copy CRC 308F4E37
Track not present in AccurateRip database
Copy OK

Track 14

Filename E:EACSade - The Ultimate Collection (2011) [FLAC]CD214 - The moon and the sky (Remix feat. Jay-Z).wav

Pre-gap length 0:00:01.78

Peak level 97.7 %
Track quality 99.9 %
Test CRC D1AA6EFD
Copy CRC D1AA6EFD
Track not present in AccurateRip database
Copy OK

Track 15

Filename E:EACSade - The Ultimate Collection (2011) [FLAC]CD215 - By your side (Neptunes Remix).wav

Pre-gap length 0:00:01.00

Peak level 81.2 %
Track quality 99.9 %
Test CRC 1CA54651
Copy CRC 1CA54651
Track not present in AccurateRip database
Copy OK

None of the tracks are present in the AccurateRip database

No errors occurred

End of status report
Музыка / Lossless / Разное
СКАЧАТЬ БЕСПЛАТНО  [835.3 MB]

23
сен
2020
Серж, г. Северодвинск
Прекрасный восхитительный альбом .

цитировать | ответить
23-09-2020 18:57:14


07
мая
2011

Sade - The Ultimate Collection (2CD) [2011, Pop, MP3]

Формат: MP3, tracks, 191-267kbps VBR
Год выпуска: 2011
Страна: UK
Жанр: Pop
Продолжительность: 02:13:05
Описание: CD1 01. Your Love Is King 02. Smooth Operator 03. Hang On To Your Love 04. The Sweetest Taboo 05. Is It A Crime 06. Never As Good As The First Time 07. Jezebel 08. Love Is Stronger Than Pride 09. Paradise 10. Nothing Can Come Between Us 11. No Ordinary Love 12. Kiss Of Life 13. Feel No Pain 14. Bullet Proof Soul CD2 01. Cherish The Day 02. Pearls 03. By Your Side 04. Immigrant 05. Flow 06. King Of Sorrow 07. The Sweetest Gift 08. Soldier Of Love 09. The Moon And The Sky 10. Babyf ...

02
июл
2013

VA - Now: The Ultimate Collection (2CD) [2013, Pop, MP3]

Формат: MP3, tracks, 208-279kbps [VBR]
Год выпуска: 2013
Страна: All World
Жанр: Pop
Продолжительность: 02:28:57
Описание: CD1 (01 01.Coldplay - Yellow [04:30] 02.Fun - We Are Young [04:11] 03.Pink - Get the Party Started [03:12] 04.Robbie Williams - Rock DJ [04:17] 05.Maroon 5 - Payphone [03:52] 06.One Direction - One Thing [03:17] 07.Avril Lavigne - Complicated [04:05] 08.Gossip - Heavy Cross [04:04] 09.Kt Tunstall - Black Horse and the Cherry Tree [02:51] 10.Dandy Warhols - Bohemian Like You [03:30] 11.Outkast - Hey Ya! [03:58] 12.Fray - How to Save a Life [04:24] 13.Nickelback - How You Re ...

17
фев
2017

Black Sabbath - The Ultimate Collection (2CD) [2017, Hard Rock, Metal, MP3]

Формат: MP3, tracks, 320kbps
Год выпуска: 2017
Страна: UK
Жанр: Hard Rock, Metal
Продолжительность: 02:30:28
Описание: CD1 0101. Paranoid 02. Never Say Die 03. Iron Man 04. Black Sabbath 05. Children Of The Grave 06. Fairies Wear Boots 07. Changes 08. Rat Salad 09. Sweet Leaf 10. War Pigs 11. Sabbath Bloody Sabbath 12. Hole In The Sky 13. Symptom Of The Universe 14. Spiral Architect 15. Rock 'N' Roll DoctorCD2 0101. Dirty Women 02. Evil Woman, Don't Play Your Games With Me 03. A Hard Road 04. Lord Of This World 05. Into The Void 06. Behind The Wall Of Sleep 07. Snowblind 08. Tomorrow's Dream 0 ...

16
окт
2017

Sade - Collection (от ALEXnROCK) [2017, Pop-Jazz, FLAC]

Формат: FLAC, tracks, lossless
Год выпуска: 2017
Страна: British
Жанр: Pop-Jazz
Продолжительность: 01:26:07
Описание: 01. Paradise 02. Kiss Of Life 03. By Your Side 04. Is It A Crime 05. Soldier Of Love 06. No Ordinary Love 07. The Sweetest Taboo 08. Long Hard Road 09. Hang On To Your Love 10. King of Sorrow 11. Your Love Is King 12. Keep Looking 13. Smooth Operator 14. Nothing Can Come Between Us 15. Siempre Hay Esperanza 16. Love Is Stronger Than Pride (Mad Professor Remix) 17. Never As Good As The First Time Лог ЕАС DON'T MODIFY THIS FILE ----------------------- PERFORMER: auCDtect Ta ...

05
июн
2010

Sade - Grand Collection [2001, Pop, Soul, Funk, MP3]

Формат: MP3, tracks, 320kbps
Год выпуска: 2001
Страна: UK
Жанр: Pop, Soul, Funk
Продолжительность: 01:15:54
Трэклист: 01. Smooth Operator 02. Kiss Of Life 03. Your Love Is King 04. Paradise 05. The Sweetest Taboo 06. No Ordinary Love 07. Nothing Can Come Between Us 08. Love Is Stronger Than Pride 09. Jezebel 10. Like A Tattoo 11. Pearls 12. Why Can't We Live Together 13. Hang On To Your Love 14. Frankie's First Affair 15. Is It A Crime 16. Sally Не забывайте нажимать:

23
сен
2017

Sade - Collection от ALEXnROCK [2017, Pop-Jazz, MP3]

Формат: MP3, tracks, 320kbps
Год выпуска: 2017
Страна: Japan
Жанр: Pop-Jazz
Продолжительность: 01:26:07
Описание: 01 Sade - Paradise 02 Sade - Kiss Of Life 03 Sade - By Your Side 04 Sade - Is It A Crime 05 Sade - Soldier Of Love 06 Sade - No Ordinary Love 07 Sade - The Sweetest Taboo 08 Sade - Long Hard Road 09 Sade - Hang On To Your Love 10 Sade - King of Sorrow 11 Sade - Your Love Is King 12 Sade - Keep Looking 13 Sade - Smooth Operator 14 Sade - Nothing Can Come Between Us 15 Sade - Siempre Hay Esperanza 16 Sade - Love Is Stronger Than Pride (Mad Professor Remix) 17 Sade - Never As Good A ...

20
мая
2009

Prodigy - The Ultimate P (2CD) 2009 [2009, Breakbeat, Electronic, Electro]

Prodigy - The Ultimate P (2CD) 2009
Формат: MP3, tracks, 152 kbps avg
Год выпуска: 2009
Страна: U.K.
Жанр: Breakbeat, Electronic, Electro
Продолжительность: 1h 15minТрэклистDisc 1/2: 01. Prodigy - Intro 0:34 02. Mobb Deep - Bidadidat 2:02 03. Prodigy - People Talkin (Jay-Z Diss) 1:39 04. Prodigy - Hood Rich 1:06 05. Prodigy - So Ill 1:32 06. Prodigy - Dissin 1 (Interlude) 0:34 07. Mobb Deep - Know The Game (Frankie Cutlass Remix) Ft. M.O.P 3:11 08. Mobb Deep - Okay Dunn (Produced By Clinton Sparks) 2:26 09. Prodigy - Mobb Run The Rap Game 2:34 10. Prodigy - Power Rap Freestyle 2:03 11. Prodig ...

16
дек
2015

VA - OMG! The Ultimate Christmas Album (2CD) [2014, Pop, Vocal, Christmas, Classical, FLAC]

Формат: FLAC, (image + .cue), lossless
Год выпуска: 2014
Страна: All World
Жанр: Pop, Vocal, Christmas, Classical
Продолжительность: 01:35:18
Описание: CD 1 0001. Burl Ives - Jingle Bells (2:13) 02. Gene Autry - Frosty The Snowman (2:54) 03. Elvis Presley - Blue Christmas (2:10) 04. Roy Orbison - Pretty Paper (2:45) 05. Frank Sinatra - Have Yourself A Merry Little Christmas (2:34) 06. Andy Williams - White Christmas (2:31) 07. Harry Belafonte - Mary's Boy Child (4:22) 08. Jerry Vale - Silver Bells (3:22) 09. Tony Bennett - Christmasland (2:24) 10. Darlene Love - Christmas (Baby Please Come Ho ...

11
янв
2013

The Searchers-The Ultimate Collection [2000, Rock, MP3]

Формат: MP3, tracks, 320kbps
Год выпуска: 2000
Страна: England
Жанр: Rock
Продолжительность: 00:58:30
Описание: 01. Sweets For My Sweet 02. Sugar And Spice 03. Needles And Pins 04. Love Potion No. 9 05. Farmer John 06. Ain't Gonna Kiss Ya 07. Don't Throw Your Love Away 08. Someday We're Gonna Love Again 09. When You Walk In The Room 10. What HaveThey Done To The Rain? 11. Goodbye My Love 12. He's Got No Love 13. When I Get Home 14. Bumble Bee 15. Take Me For What I'm Worth 16. Take It Or Leave It 17. Have You Ever Loved Somebody 18. I Don't Want To Go On Without You 19. Since You Broke My Hea ...

17
окт
2011

Steps-The Ultimate Collection [2011, Pop, ElectroPop, Dance-pop, MP3]

Формат: MP3, tracks, 320kbps
Год выпуска: 2011
Страна: UK
Жанр: Pop, ElectroPop, Dance-pop
Продолжительность: 01:16:14
Описание: Трек-лист01. 5, 6, 7, 8 02. Last Thing On My Mind 03. One For Sorrow 04. Heartbeat 05. Tragedy 06. Better Best Forgotten 07. Love's Got A Hold On My Heart 08. After The Love Has Gone 09. Say You'll Be Mine 10. Better The Devil You Know 11. Deeper Shade Of Blue 12. When I Said Goodbye 13. Summer Of Love 14. Stomp 15. It's The Way You Make Me Feel 16. Here And Now 17. You'll Be Sorry 18. Chain Reaction 19. I Know Him So Well 20. Dancing Queen Доп. ин ...

06
ноя
2015

Anastacia - Ultimate Collection [2015, Pop, Dance, Pop-Rock, R B, Soul, MP3]

Формат: MP3, tracks, 320kbps
Год выпуска: 2015
Страна: США
Жанр: Pop, Dance, Pop-Rock, R&B, Soul
Продолжительность: 01:15:07
Описание: 01. I'm Outta Love 04:04 02. Left Outside Alone 04:18 03. Sick and Tired 03:30 04. Paid My Dues 03:21 05. Stupid Little Things 03:56 06. Not That Kind 03:21 07. Ben Moody - Everything Burns (feat. Anastacia) 03:42 08. Welcome to My Truth 04:04 09. You'll Never Be Alone 04:38 10. Pieces of a Dream 04:02 11. Best of You 04:21 12. Heavy on My Heart 04:27 13. One Day in Your Life (European Version) 03:28 14. Cowboys & Kisses 04:41 15. Why'd You Lie to Me 03:43 16. ...

24
мар
2012

Bisquit - The Ultimate Singles Collection [2003, Eurodisco, MP3]

Формат: MP3, tracks, 320kbps
Год выпуска: 2003
Страна: ESonCD, Russia
Жанр: Eurodisco
Продолжительность: 00:30:44
Описание: 01. Zoo Zoo (Maxi Version) 02. Zoo Zoo (Instrumental) 03. Roller Boogie 04. Roller Boogie (Instrumental) 05. Zoo Zoo (Version From New Syndicate Volume II) Bonus: 06. Pam N' Pat - It's All Music 07. Pam N' Pat - To Be Superman
Доп. информация: После распада Ottawan образовались два коллектива: Bisquit И Pam'n'Pat, которые и записали то всего по два хита, но это не помешало им войти в историю диско.

02
ноя
2015

Paul Simon - The Ultimate Collection [2015, Folk-Rock, FLAC]

Формат: FLAC, (tracks + .cue), lossless
Год выпуска: 2015
Страна: USA
Жанр: Folk-Rock
Продолжительность: 01:17:13
Описание: 01. You Can Call Me Al 02. Graceland 03. Simon & Garfunkel / Mrs. Robinson 04. Simon & Garfunkel / The Boxer 05. Diamonds On The Soles Of Her Shoes 06. 50 Ways To Leave Your Lover 07. Simon & Garfunkel / Cecilia 08. Me & Julio Down by The School Yard 09. The Boy In The Bubble 10. The Only Living Boy In New York 11. Mother & Child Reunion 12. Late In The Evening 13. Father & Daughter 14. The Obvious Child 15. Slip Slidin' Away 16. America 17. The Sound Of Silence 18. Still ...

19
мар
2008

Michael Jackson - The Ultimate Collection [2004,Popmusic,MP3]

Год выпуска: 2004
Жанр: Pop
Продолжительность: 02:24:00 +
Формат: MP3
Битрейт аудио: CBR 320 Kbps
Трэклист: Disc One 01. I Want You Back - The Jackson 5 (1969-Motown) 02. ABC – The Jackson 5 (1970 – Motown) 03. I'll Be There - The Jackson 5 (1970 –Motown) 04. Got To Be There (1971- Motown) 05. I Wanna Be Where You Are (1972- Motown) 06. Ben (1972- Motown) 07. Dancing Machine - The Jackson 5 (1974- Motown) 08. Enjoy Yourself - The Jacksons (single version) (1976-Phil. Int.) 09. Ease On Down The Road - Diana Ross & M.J. (The Wiz - Original Soundtrack) (1978 – MCA) 10. You Can't Win - The Wiz son ...

07
апр
2012

Patrick Cowley - The Ultimate Collection [1990, Electronic, Disco, Hi-NRG, MP3]

MP3, tracks, 320kbps
Год выпуска: 1990
Страна: Germany
Жанр: Electronic, Disco, Hi-NRG
Продолжительность: 00:54:19
Описание: 1. Megatron Man 06:37 2. Right on Target 06:07 3. Pushing Too Hard 04:31 4. Invasion 02:57 5. Menergy 05:37 6. Lift Off 06:24 7. Going Home 04:50 8. Do You Wanna Funk 06:08 9. Tech-No-Logical World 07:30 10. Get a Little 05:38