21
мар
2011

Robbie Williams - In And Out Of Consciousness (Greatest Hits 1990-2010) 3 CD [2010, Pop, Rock, FLAC]

Robbie Williams - In And Out Of Consciousness (Greatest Hits 1990-2010) 3 CD
Формат: FLAC, (image + .cue), lossless
Год выпуска: 2010
Страна: EU
Жанр: Pop, Rock
Продолжительность: 01:16:35 + 01:19:50 + 01:13:21

Доп. информация:
треклист CD 1
1. Shame
2. Heart And I
3. Morning Sun
4. You Know Me
5. Bodies
6. She's Madonna
7. Lovelight
8. Rudebox
9. Sin Sin Sin
10. Advertising Space
11. Make Me Pure
12. Tripping
13. Misunderstood
14. Radio
15. Sexed Up
16. Something Beautiful
17. Come Undone
18. Feel
19. Mr Bojangles

треклист CD 2
1. I Will Talk And Hollywood Will Listen
2. Somethin' Stupid
3. The Road To Mandalay
4. Eternity
5. Let Love Be Your Energy
6. Supreme
7. Kids
8. Rock DJ
9. It's Only Us
10. She's The One
11. Strong
12. No Regrets
13. Millennium
14. Let Me Entertain You
15. Angels
16. South Of The Border
17. Lazy Days
18. Old Before I Die
19. Freedom
20. Everything Changes

треклист CD 3
1. Often
2. Karaoke Star
3. Toxic
4. 1 Giant Leap feat. Robbie Williams & Maxi Jazz / My Culture
5. Nobody Someday
6. Get A Little High
7. One Fine Day
8. Coffee, Tea And Sympathy
9. Do Me Now
10. The Postcard
11. Meet The Stars
12. Don't Stop Talking
13. Don't Say No
14. Lonestar Rising
15. Lola
16. Mark Ronson feat. Robbie Williams / The Only One I Know
17. Elastik
18. Long Walk Home

EAC log file CD 1
Exact Audio Copy V0.99 prebeta 5 from 4. May 2009

Отчёт EAC об извлечении, выполненном 2. марта 2011, 19:33

Robbie Williams / In And Out Of Consciousness CD 1

Дисковод: PIONEER DVD-RW DVRKD08A Adapter: 2 ID: 0

Режим чтения : Достоверность
Использование точного потока : Да
Отключение кэша аудио : Да
Использование указателей C2 : Нет

Коррекция смещения при чтении : 48
Способность читать области Lead-in и Lead-out : Нет
Заполнение пропущенных сэмплов тишиной : Да
Удаление блоков с тишиной в начале и конце : Нет
При вычислениях CRC использовались нулевые сэмплы : Нет
Интерфейс : Встроенный Win32-интерфейс для Win NT/2000

Выходной формат : Пользовательский кодировщик
Выбранный битрейт : 768 kBit/s
Качество : Высокий
Добавление ID3-тэга : Нет
Утилита сжатия : C:Program FilesExact Audio CopyFLACFLAC.EXE
Дополнительные параметры : -6 -V -T "ARTIST=%a" -T "TITLE=%t" -T "ALBUM=%g" -T "DATE=%y" -T "TRACKNUMBER=%n" -T "GENRE=%m" -T "COMMENT=%e" %s -o %d

TOC извлечённого CD

Трек | Старт | Длительность | Начальный сектор | Конечный сектор
-----------------------------------------------------------------------
1 | 0:00.00 | 4:00.13 | 0 | 18012
2 | 4:00.13 | 4:41.55 | 18013 | 39142
3 | 8:41.68 | 4:06.55 | 39143 | 57647
4 | 12:48.48 | 4:20.52 | 57648 | 77199
5 | 17:09.25 | 4:02.52 | 77200 | 95401
6 | 21:12.02 | 4:00.30 | 95402 | 113431
7 | 25:12.32 | 4:02.21 | 113432 | 131602
8 | 29:14.53 | 3:47.44 | 131603 | 148671
9 | 33:02.22 | 4:03.21 | 148672 | 166917
10 | 37:05.43 | 4:38.18 | 166918 | 187785
11 | 41:43.61 | 3:48.15 | 187786 | 204900
12 | 45:32.01 | 4:03.55 | 204901 | 223180
13 | 49:35.56 | 4:00.01 | 223181 | 241181
14 | 53:35.57 | 3:51.08 | 241182 | 258514
15 | 57:26.65 | 4:10.02 | 258515 | 277266
16 | 61:36.67 | 4:01.64 | 277267 | 295405
17 | 65:38.56 | 3:54.67 | 295406 | 313022
18 | 69:33.48 | 3:41.68 | 313023 | 329665
19 | 73:15.41 | 3:20.19 | 329666 | 344684

Характеристики диапазона извлечения и сообщения об ошибках

Выбранный диапазон

Имя файла E:uTorrentRobbie WilliamsRobbie Williams - In And Out Of Consciousness CD 1.wav

Пиковый уровень 100.0 %
Качество диапазона 100.0 %
CRC копии AA6D101C
Копирование... OK

Ошибок не произошло

AccurateRip: сводка

Трек 1 нет в базе данных
Трек 2 нет в базе данных
Трек 3 нет в базе данных
Трек 4 нет в базе данных
Трек 5 нет в базе данных
Трек 6 нет в базе данных
Трек 7 нет в базе данных
Трек 8 нет в базе данных
Трек 9 нет в базе данных
Трек 10 нет в базе данных
Трек 11 нет в базе данных
Трек 12 нет в базе данных
Трек 13 нет в базе данных
Трек 14 нет в базе данных
Трек 15 нет в базе данных
Трек 16 нет в базе данных
Трек 17 нет в базе данных
Трек 18 нет в базе данных
Трек 19 нет в базе данных

Ни одного трека нет в базе AccurateRip

Конец отчёта

EAC log file CD 2
Exact Audio Copy V0.99 prebeta 5 from 4. May 2009

Отчёт EAC об извлечении, выполненном 2. марта 2011, 20:26

Robbie Williams / In And Out Of Consciousness CD 2

Дисковод: PIONEER DVD-RW DVRKD08A Adapter: 2 ID: 0

Режим чтения : Достоверность
Использование точного потока : Да
Отключение кэша аудио : Да
Использование указателей C2 : Нет

Коррекция смещения при чтении : 48
Способность читать области Lead-in и Lead-out : Нет
Заполнение пропущенных сэмплов тишиной : Да
Удаление блоков с тишиной в начале и конце : Нет
При вычислениях CRC использовались нулевые сэмплы : Нет
Интерфейс : Встроенный Win32-интерфейс для Win NT/2000

Выходной формат : Пользовательский кодировщик
Выбранный битрейт : 768 kBit/s
Качество : Высокий
Добавление ID3-тэга : Нет
Утилита сжатия : C:Program FilesExact Audio CopyFLACFLAC.EXE
Дополнительные параметры : -6 -V -T "ARTIST=%a" -T "TITLE=%t" -T "ALBUM=%g" -T "DATE=%y" -T "TRACKNUMBER=%n" -T "GENRE=%m" -T "COMMENT=%e" %s -o %d

TOC извлечённого CD

Трек | Старт | Длительность | Начальный сектор | Конечный сектор
-----------------------------------------------------------------------
1 | 0:00.00 | 3:15.17 | 0 | 14641
2 | 3:15.17 | 2:51.01 | 14642 | 27467
3 | 6:06.18 | 3:18.14 | 27468 | 42331
4 | 9:24.32 | 5:00.25 | 42332 | 64856
5 | 14:24.57 | 4:04.60 | 64857 | 83216
6 | 18:29.42 | 4:15.09 | 83217 | 102350
7 | 22:44.51 | 4:19.52 | 102351 | 121827
8 | 27:04.28 | 4:17.28 | 121828 | 141130
9 | 31:21.56 | 2:51.46 | 141131 | 154001
10 | 34:13.27 | 4:19.62 | 154002 | 173488
11 | 38:33.14 | 4:19.64 | 173489 | 192977
12 | 42:53.03 | 4:44.58 | 192978 | 214335
13 | 47:37.61 | 3:45.44 | 214336 | 231254
14 | 51:23.30 | 4:23.04 | 231255 | 250983
15 | 55:46.34 | 4:27.31 | 250984 | 271039
16 | 60:13.65 | 3:54.70 | 271040 | 288659
17 | 64:08.60 | 3:54.25 | 288660 | 306234
18 | 68:03.10 | 3:53.20 | 306235 | 323729
19 | 71:56.30 | 4:18.70 | 323730 | 343149
20 | 76:15.25 | 3:35.47 | 343150 | 359321

Характеристики диапазона извлечения и сообщения об ошибках

Выбранный диапазон

Имя файла E:uTorrentRobbie WilliamsRobbie Williams - In And Out Of Consciousness CD 2.wav

Пиковый уровень 100.0 %
Качество диапазона 100.0 %
CRC копии DEDBACE8
Копирование... OK

Ошибок не произошло

AccurateRip: сводка

Трек 1 нет в базе данных
Трек 2 нет в базе данных
Трек 3 нет в базе данных
Трек 4 нет в базе данных
Трек 5 нет в базе данных
Трек 6 нет в базе данных
Трек 7 нет в базе данных
Трек 8 нет в базе данных
Трек 9 нет в базе данных
Трек 10 нет в базе данных
Трек 11 нет в базе данных
Трек 12 нет в базе данных
Трек 13 нет в базе данных
Трек 14 нет в базе данных
Трек 15 нет в базе данных
Трек 16 нет в базе данных
Трек 17 нет в базе данных
Трек 18 нет в базе данных
Трек 19 нет в базе данных
Трек 20 нет в базе данных

Ни одного трека нет в базе AccurateRip

Конец отчёта

EAC log file CD 3
Exact Audio Copy V0.99 prebeta 5 from 4. May 2009

Отчёт EAC об извлечении, выполненном 2. марта 2011, 21:42

Robbie Williams / In And Out Of Consciousness CD 3

Дисковод: PIONEER DVD-RW DVRKD08A Adapter: 2 ID: 0

Режим чтения : Достоверность
Использование точного потока : Да
Отключение кэша аудио : Да
Использование указателей C2 : Нет

Коррекция смещения при чтении : 48
Способность читать области Lead-in и Lead-out : Нет
Заполнение пропущенных сэмплов тишиной : Да
Удаление блоков с тишиной в начале и конце : Нет
При вычислениях CRC использовались нулевые сэмплы : Нет
Интерфейс : Встроенный Win32-интерфейс для Win NT/2000

Выходной формат : Пользовательский кодировщик
Выбранный битрейт : 768 kBit/s
Качество : Высокий
Добавление ID3-тэга : Нет
Утилита сжатия : C:Program FilesExact Audio CopyFLACFLAC.EXE
Дополнительные параметры : -6 -V -T "ARTIST=%a" -T "TITLE=%t" -T "ALBUM=%g" -T "DATE=%y" -T "TRACKNUMBER=%n" -T "GENRE=%m" -T "COMMENT=%e" %s -o %d

TOC извлечённого CD

Трек | Старт | Длительность | Начальный сектор | Конечный сектор
-----------------------------------------------------------------------
1 | 0:00.00 | 2:47.54 | 0 | 12578
2 | 2:47.54 | 4:07.43 | 12579 | 31146
3 | 6:55.22 | 3:48.63 | 31147 | 48309
4 | 10:44.10 | 5:38.57 | 48310 | 73716
5 | 16:22.67 | 2:53.23 | 73717 | 86714
6 | 19:16.15 | 3:54.73 | 86715 | 104337
7 | 23:11.13 | 3:35.46 | 104338 | 120508
8 | 26:46.59 | 4:35.26 | 120509 | 141159
9 | 31:22.10 | 3:17.42 | 141160 | 155976
10 | 34:39.52 | 3:11.07 | 155977 | 170308
11 | 37:50.59 | 4:27.56 | 170309 | 190389
12 | 42:18.40 | 4:46.74 | 190390 | 211913
13 | 47:05.39 | 4:24.45 | 211914 | 231758
14 | 51:30.09 | 3:52.64 | 231759 | 249222
15 | 55:22.73 | 4:11.71 | 249223 | 268118
16 | 59:34.69 | 3:57.63 | 268119 | 285956
17 | 63:32.57 | 4:36.18 | 285957 | 306674
18 | 68:09.00 | 5:12.60 | 306675 | 330134

Характеристики диапазона извлечения и сообщения об ошибках

Выбранный диапазон

Имя файла E:uTorrentRobbie WilliamsRobbie Williams - In And Out Of Consciousness CD 3.wav

Пиковый уровень 99.6 %
Качество диапазона 100.0 %
CRC копии 9834FEE1
Копирование... OK

Ошибок не произошло

AccurateRip: сводка

Трек 1 нет в базе данных
Трек 2 нет в базе данных
Трек 3 нет в базе данных
Трек 4 нет в базе данных
Трек 5 нет в базе данных
Трек 6 нет в базе данных
Трек 7 нет в базе данных
Трек 8 нет в базе данных
Трек 9 нет в базе данных
Трек 10 нет в базе данных
Трек 11 нет в базе данных
Трек 12 нет в базе данных
Трек 13 нет в базе данных
Трек 14 нет в базе данных
Трек 15 нет в базе данных
Трек 16 нет в базе данных
Трек 17 нет в базе данных
Трек 18 нет в базе данных

Ни одного трека нет в базе AccurateRip

Конец отчёта
Музыка / Lossless / Разное
СКАЧАТЬ БЕСПЛАТНО  [1.6 GB]


10
окт
2010

Robbie Williams - In And Out Of Consciousnesspic (Greatest Hits 1990-2010) (3CD) [2010, Pop, MP3]

Формат: MP3, tracks, 181-256kbps [VBR]
Год выпуска: 2010
Страна: UK
Жанр: Pop
Продолжительность: 03:49:56
Описание: CD1 01. Shame 02. Heart and I 03. Morning Sun 04. You Know Me 05. Bodies 06. She’s Madonna 07. Lovelight 08. Rudebox 09. Sin Sin Sin 10. Advertising Space 11. Make Me Pure 12. Tripping 13. Misunderstood 14. Radio 15. Sexed Up 16. Something Beautiful 17. Come Undone 18. Feel 19. Mr Bojangles CD2 01. I Will Talk and Hollywood Will Listen 02. Somethin’ Stupid 03. The Road To Mandalay 04. Eternity 05. Let Love Be Your Energy 06. Supreme 07. Kids 08. Rock DJ 09. It’s Only Us 10. She ...

02
мар
2007

Robbie Williams - Rudebox / Greatest Hits [2006,Popmusic,MP3]

Год выпуска: 2006
Жанр: popmusic
Продолжительность: 1:55:42
Формат: MP3
Битрейт аудио: 320kbps
Трэклист: Greates Hits 1. Old Before I Die (3:53) 2. Lazy Days (3:53) 3. Angels (4:27) 4. Let Me Entertain You (4:22) 5. Millennium (3:46) 6. No Regrets (4:43) 7. Strong (4:19) 8. She's The One (4:19) 9. Rock DJ (4:16) 10. Kids feat. Kylie Minogue (4:19) 11. Supreme (4:15) 12. Let Love Be Your Energy (4:06) 13. Eternity (5:00) 14. The Road To Mandalay (3:18 ) 15. Feel (3:43) 16. Come Undone (3:54) 17. Sexed Up (4:10) 18. Radio (3:51) 19. Misunderstood (4:01) Rudebox 1. Rudebox (4:45) 2. Viva Life ...

06
янв
2011

Deep Purple - Platinum: The Greatest Hits 1970-1990 (3 CD) [1998, Rock, MP3]

Формат: MP3, tracks, 318-320 kbps
Год выпуска: 1970-1998
Страна: Великобритания
Жанр: Rock
Продолжительность: 03:40:44 CD1 1970-1972 01 1. Highway star 2. Fireball 3. Speed king 4. When a blind man cries 5. Child in time 6. Smoke on the water 7. Flight of the rat 8. Demons eye 9. Space truckin 10. Black night 11. Hard lovin woman 12. Lazy 13. Blood sucker CD2 1972-1975 011. Burn 2. Pictures of home 3. Stormbringer 4. Rat pat blue 5. Comin home 6. Soldier of fortune 7. Mistreated 8. Maybe im a leo 9. Love child 10. Sail away 11. Lady double dealer 12. Smooth dancer 13. Never before 14. Whats go ...

25
сен
2010

Elvis Presley - 100 Greatest Hits. 3 CD [2004, Rock'n'Roll, MP3]

Формат: MP3, tracks, 320kbps
Год выпуска: 2004
Страна: США
Жанр: Rock'n'Roll
Продолжительность: 03:56:55
Описание: CD-1 01 01. (You're The) Devil In Disguise 02. A Big Hunk O'Love 03. Can't Help Falling In Love 04. What A Wonderful Life 05. Love Me 06. Don't Be Cruel 07. In The Ghetto 08. Fairytale 09. Wear Me Ring Around Your Neck 10. Fame And Fortune 11. It Keeps Right On A-Hurtin' 12. King Kreole 13. Ain't That Loving You Baby 14. Father Along 15. G.I. Blues 16. Good Luck Charm 17. Green, Green Grass Of Home 18. She's Not You 19. He'll Have To Go 20. I Beg Of You 21. All Shook Up 22. I Be ...

18
окт
2012

The Teens - Greatest Hits 1976-1996 (3 CD) [2011, Rock, Pop-Rock, Glam-Rock, MP3]

Формат: MP3, tracks, 320kbps
Год выпуска: 2011
Страна: Germany
Жанр: Rock, Pop-Rock, Glam-Rock
Продолжительность: 03:54:31
Описание: CD 1 01. Watch Out 02. Shakin' All Over 03. Feelin' Right [ 04. Gimme Gimme Gimme Gimme Gimme Your Love 05. Hey Mr.Bluebird 06. Hey Tonight 07. I Got A Latter Form Mary 08. It's Good To Have A Friend 09. On The Radio 10. Hot Love 11. We Are The Teens [ 12. I Don't Wanna Know 13. Rollerball 14. Little Girl 15. Never Gonna Tell No Lie To You 16. Baby Blue 17. Sailor 18. She Ain't Mine Anymore 19. Don't Lovers Love No More 20. Troubles In My Min ...

10
июн
2008

Robbie Williams - Feel [2002, Поп, VOB]

Исполнитель: Robbie Williams
Песня: Feel
Страна: Великобритания
Год выпуска: 2002
Продолжительность: 4:21
Жанр: Поп
Язык: Английский
Доп. информация: Раздаю во второй половине дня
Качество: DVD5
Формат: DVD Video - VOB
Видео кодек: MPEG2
Аудио кодек: AC3
Видео: MPEG2 Video 720x576 (16:9) 25.00fps 9800Kbps
Аудио: Dolby AC3 48000Hz 6ch 448Kbps

13
окт
2009

Robbie Williams - Songbook [2009, Popmusic, MP3]

Формат: MP3, tracks, 196-231kbps [VBR]
Год выпуска: 2009
Страна: UK
Жанр: Pop
Продолжительность: 00:59:41
Описание: 01. Let Me Entertain You (Live From Knebworth) 02. Feel (Live From Knebworth) 03. Come Undone 04. Viva Life On Mars 05. The Trouble With me 06. Man Machine 07. Me And My Monkey 08. No Regrets (Live From Slane Castle) 09. Phoenix From The Flames 10. Nan's Song 11. Rock DJ (Live From Koln) 12. Angels (Live From London)
Доп. информация: Роберт Питер Максимилиан Уильямс (р. 13 февраля 1974 года в графстве Стаффордшир) — по результатам опросов, считается самым популярным британским, ...

21
ноя
2012

Robbie Williams - Discography [1997-2012, Pop, Pop-Rock, MP3]

Формат: MP3, tracks, 320kbps
Год выпуска: 1997-2012
Страна: UK
Жанр: Pop, Pop-Rock
Продолжительность: 18:25:10
Описание: 1997 - Life Thru A Lens 0001.Lazy days 02.Life true a lens 03.Ego go go 04.Angels 05.South of the border 06.Old before I die 07.One of god's better people 08.Let me entertain you 09.Killing me 10.Clean 11.Baby girl window 12. поэма Hello Sir (Hidden Track) 1998 - I've Been Expecting You 0101. Strong 02. No Regrets 03. Millenium 04. Phoenix From the Flames 05. Win Some Lose Some 06. Grace 07. Jesus In A Camper Van 08. Heaven From Here 09. Karma Killer 10. She's The One 11. ...

27
ноя
2006

Robbie Williams - Дискография [1997-2003, Popmusic, MP3]

Формат: MP3, tracks, 192kbps
Год выпуска: 1997-2003
Страна: World
Жанр: Popmusic
Продолжительность: 06:40:00 Life Thru A Lens (29.09.1997) 1.Lazy days 2.Life true a lens 3.Ego go go 4.Angels 5.South of the border 6.Old before I die 7.One of god's better people 8.Let me entertain you 9.Killing me 10.Clean 11.Baby girl window I've been expecting you (26.10.1998) 1.Strong 2.No regrets 3.Millennium 4.Phoenix from the flames 5.Win some lose some 6.Grace 7.Jesus in a camper van 8.Heaven from here 9.Karma killer 10.She's the one 11.Man machine 12.These dreams 13.Stand your ground 14.Stalkers day off ...

16
янв
2015

Robbie Williams - Live in Tallinn [2013, Pop Rock, Soft Rock, Dance, Britpop, BDRemux 1080i]

Формат: BDRemux, MKV, H.264, AC3
Песня: Live in Tallinn
Жанр: Pop Rock, Soft Rock, Dance, Britpop
Продолжительность: 01:57:46
Год выпуска: 2013
Видео: 1920x1080i (16/9), 29,970 fps, MPEG4 AVC (x264), High@L4.1 ~29,0 Mbps avg, 0.467 bit/pixel
Аудио: 48 kHz, AC3, 2 ch ~ 224 Kbps
Доп. информация:
Треклист: 01. Hey Wow Yeah Yeah 02. Let Me Entertain You 03. Monsoon 04. Not Like The Others 05. Minnie the Moocher 06. Kids 07. Sin Sin Sin 08. Bodies 09. Come Undone 10. Strong 11. Gospel 12. Be A Boy 13. Millennium 14. Better Man 15. Sexed Up 16. Me And My Monkey 17. Candy 18. Hot ...

08
апр
2011

Robbie Williams - Live in London [2009, Pop-Rock, DVD5]

Формат: DVD5, DVD Video, MPEG2, AC3
Песня: Live in London
Жанр: Pop-Rock
Продолжительность: 01:32:17
Год выпуска: 2009
Видео: 704x576, PAL 16:9, MPEG2, 25fps, 5500kbps, 0,543bit/pixel
Аудио: Audio#1 48.0khz, AC3, 2channels, 256kbps. Audio#2 48.0khz, AC3, 6channels, 448kbps
Доп. информация: Роберт Питер Максимилиан Уильямс (р. 13 февраля 1974 года в графстве Стаффордшир) — по результатам опросов, считается самым популярным британским певцом, исполняющим песни в таких жанрах, как поп, поп-рок, софт-рок, брит-поп и т. п., автор песен. За характерный тембр голоса и манеру исполнения был назван Эл ...

17
ноя
2013

Robbie Williams - Swings Both Ways (Deluxe Edition) [2013, Pop, MP3]

Формат: MP3, tracks, 320kbps
Год выпуска: 2013
Страна: UK
Жанр: Pop
Продолжительность: 00:56:34
Описание: 01. Shine My Shoes 02. Go Gentle 03. I Wan'na Be Like You (feat. Olly Murs) 04. Swing Supreme 05. Swings Both Ways (feat. Rufus Wainwright) 06. Dream A Little Dream (feat. Lily Allen) 07. Soda Pop (feat. Michael Buble) 08. Snowblind 09. Puttin' On The Ritz 10. Little Green Apples (feat. Kelly Clarkson) 11. Minnie The Moocher 12. If I Only Had A Brain 13. No One Likes A Fat Pop Star 14. Where There's Muck 15. 16 Tons 16. Wedding Bells

05
ноя
2016

Robbie Williams - The Heavy Entertainment Show (Deluxe Edition) [2016, Pop, MP3]

Формат: MP3, tracks, 320kbps
Год выпуска: 2016
Страна: UK
Жанр: Pop
Продолжительность: 01:01:03
Описание: 01. The Heavy Entertainment Show 02. Party Like a Russian 03. Mixed Signals 04. Love My Life 05. Motherfucker 06. Bruce Lee 07. Sensitive 08. David's Song 09. Pretty Woman 10. Hotel Crazy 11. Sensational 12. When You Know 13. Time On Earth 14. I Don't Want to Hurt You 15. Best Intentions 16. Marry Me

03
ноя
2016

Robbie Williams - Heavy Entertainment Show (Deluxe Edition) [2016, Pop, MP3]

Формат: MP3, tracks, 320kbps
Год выпуска: 2016
Страна: United Kingdom
Жанр: Pop
Продолжительность: 01:01:13
Описание: 01. Heavy Entertainment Show 03:22 02. Party Like A Russian 03:02 03. Mixed Signals 03:58 04. Love My Life 03:28 05. Motherfucker 04:17 06. Bruce Lee 03:13 07. Sensitive 03:16 08. David's Song 04:14 09. Pretty Woman 02:55 10. Hotel Crazy 04:25 11. Sensational 03:47 12. When You Know 04:20 13. Time On Earth 04:51 14. I Don't Want To Hurt You 04:19 15. Best Intentions 03:44 16. Marry Me 03:53

07
дек
2014

Robbie Williams Under The Radar Vol. 1 [2014, Pop, MP3]

Формат: MP3, tracks, 320kbps
Год выпуска: 2014
Страна: UK
Жанр: Pop
Продолжительность: 00:58:53
Описание: 01. Bully 02. Raver 03. H.E.S. 04. The Edge 05. Climb On 06. Surrender 07. Love Is You 08. The Cure 09. The Pilot 10. The BRITS 11. National Treasure 12. Super Tony 13. Greenlight 14. Bullet