23
дек
2011

Ricchi E Poveri - Collection [1981 - 1999, Pop, Disco, FLAC]

Ricchi E Poveri - Collection

Формат: FLAC, (image + .cue), lossless
Год выпуска: 1981 - 1999
Страна: Italia
Жанр: Pop, Disco
Продолжительность: 07:30:26
Описание:
1980 - La Stagione dell'Amore 1981 - E Penso A Te (CDMAXIMUM) 01
Ricchi E Poveri - Collection
01. Jungle Beat
02. Walking Love
03. Amare, Ricominciare, No No No
04. Good-bye My Love
05. E No E No (Et Maintentant)
06. Somebody to Love
07. La Stagione Dell'amore
08. Jungle Beat Special
09. Piccolina
10. What Now My Love
11. M'innamoro di Te
12. Sara' Perche' Ti Amo
13. Come Vorrei
14. Made in Italy
15. Stasera Canto
16. ... E Penso a Te
17. Questa Sera
18. Ninna Nanna
19. Bello l'Amore
20. Alla Faccia di Belzebu'


1-10 (p) 1980

11-20 (p) 1981
EAC
Exact Audio Copy V0.99 prebeta 5 from 4. May 2009

Отчёт EAC об извлечении, выполненном 19. декабря 2011, 1:07

Ricchi & Povery / La Stagione dell'Amore (1-10, 1980)+...E Penso a Te (11-20, 1981)

Дисковод: PIONEER DVD-RW DVR-219L Adapter: 5 ID: 0

Режим чтения : Достоверность
Использование точного потока : Да
Отключение кэша аудио : Да
Использование указателей C2 : Нет

Коррекция смещения при чтении : 6
Способность читать области Lead-in и Lead-out : Нет
Заполнение пропущенных сэмплов тишиной : Да
Удаление блоков с тишиной в начале и конце : Нет
При вычислениях CRC использовались нулевые сэмплы : Да
Интерфейс : Встроенный Win32-интерфейс для Win NT/2000

Выходной формат : Пользовательский кодировщик
Выбранный битрейт : 1024 kBit/s
Качество : Высокий
Добавление ID3-тэга : Нет
Утилита сжатия : C:Program Files (x86)Exact Audio CopyFlacflac.exe
Дополнительные параметры : -8 -V -T "ARTIST=%a" -T "TITLE=%t" -T "ALBUM=%g" -T "DATE=%y" -T "TRACKNUMBER=%n" -T "GENRE=%m" -T "COMMENT=EAC FLAC -8" %s

TOC извлечённого CD

Трек | Старт | Длительность | Начальный сектор | Конечный сектор
---------------------------------------------------------------------
1 | 0:00.00 | 4:20.41 | 0 | 19540
2 | 4:20.41 | 3:40.41 | 19541 | 36081
3 | 8:01.07 | 3:30.50 | 36082 | 51881
4 | 11:31.57 | 3:04.12 | 51882 | 65693
5 | 14:35.69 | 3:58.01 | 65694 | 83544
6 | 18:33.70 | 4:05.61 | 83545 | 101980
7 | 22:39.56 | 3:36.49 | 101981 | 118229
8 | 26:16.30 | 3:55.29 | 118230 | 135883
9 | 30:11.59 | 3:37.65 | 135884 | 152223
10 | 33:49.49 | 4:09.74 | 152224 | 170972
11 | 37:59.48 | 3:17.53 | 170973 | 185800
12 | 41:17.26 | 3:11.16 | 185801 | 200141
13 | 44:28.42 | 2:56.65 | 200142 | 213406
14 | 47:25.32 | 3:30.38 | 213407 | 229194
15 | 50:55.70 | 2:18.64 | 229195 | 239608
16 | 53:14.59 | 3:09.41 | 239609 | 253824
17 | 56:24.25 | 2:41.13 | 253825 | 265912
18 | 59:05.38 | 3:31.43 | 265913 | 281780
19 | 62:37.06 | 3:20.34 | 281781 | 296814
20 | 65:57.40 | 3:06.36 | 296815 | 310800

Характеристики диапазона извлечения и сообщения об ошибках

Выбранный диапазон

Имя файла F:СВОИ РЕЛИЗЫRicchi E PoveriCDM EditionRicchi E Poveri 1980 ''La Stagione Dell' Amore'', 1981 ''...E Penso A Te''Ricchi & Povery - La Stagione dell'Amore (1-10, 1980)+...E Penso a Te (11-20, 1981).wav

Пиковый уровень 100.0 %
Качество диапазона 100.0 %
CRC теста 90A07C22
CRC копии 90A07C22
Копирование... OK

Ошибок не произошло

AccurateRip: сводка

Трек 1 точное извлечение (доверие 4) [0CEE0492]
Трек 2 точное извлечение (доверие 4) [A77BB35D]
Трек 3 точное извлечение (доверие 4) [BDA48C8B]
Трек 4 точное извлечение (доверие 4) [97BAF27E]
Трек 5 точное извлечение (доверие 4) [C93852D5]
Трек 6 точное извлечение (доверие 4) [E3044986]
Трек 7 точное извлечение (доверие 3) [E5BDDAD9]
Трек 8 точное извлечение (доверие 4) [3DEE643F]
Трек 9 точное извлечение (доверие 4) [E6B3031E]
Трек 10 точное извлечение (доверие 4) [28BEA2B8]
Трек 11 точное извлечение (доверие 4) [0A44E607]
Трек 12 точное извлечение (доверие 4) [6C3DD573]
Трек 13 точное извлечение (доверие 4) [3E4AD891]
Трек 14 точное извлечение (доверие 4) [49F83A73]
Трек 15 точное извлечение (доверие 4) [68F2E224]
Трек 16 точное извлечение (доверие 4) [19D66EF4]
Трек 17 точное извлечение (доверие 4) [24770ACE]
Трек 18 точное извлечение (доверие 4) [4B92BD83]
Трек 19 точное извлечение (доверие 4) [740C32DF]
Трек 20 точное извлечение (доверие 4) [E8C7068C]

Все треки извлечены точно

Конец отчёта

1981 - E Penso A Te 0
Ricchi E Poveri - Collection
01. M'innamoro di Te
02. Sara' Perche' Ti Amo
03. Come Vorrei
04. Made in Italy
05. Stasera Canto
06. ... E Penso a Te
07. Questa Sera
08. Ninna Nanna
09. Bello l'Amore
10. Alla Faccia di Belzebu'

EAC
Exact Audio Copy V0.99 prebeta 5 from 4. May 2009

Отчёт EAC об извлечении, выполненном 17. декабря 2011, 23:27

Ricchie E Poveri / E Penso A Te

Дисковод: PIONEER DVD-RW DVR-219L Adapter: 5 ID: 0

Режим чтения : Достоверность
Использование точного потока : Да
Отключение кэша аудио : Да
Использование указателей C2 : Нет

Коррекция смещения при чтении : 6
Способность читать области Lead-in и Lead-out : Нет
Заполнение пропущенных сэмплов тишиной : Да
Удаление блоков с тишиной в начале и конце : Нет
При вычислениях CRC использовались нулевые сэмплы : Да
Интерфейс : Встроенный Win32-интерфейс для Win NT/2000

Выходной формат : Пользовательский кодировщик
Выбранный битрейт : 1024 kBit/s
Качество : Высокий
Добавление ID3-тэга : Нет
Утилита сжатия : C:Program Files (x86)Exact Audio CopyFlacflac.exe
Дополнительные параметры : -8 -V -T "ARTIST=%a" -T "TITLE=%t" -T "ALBUM=%g" -T "DATE=%y" -T "TRACKNUMBER=%n" -T "GENRE=%m" -T "COMMENT=EAC FLAC -8" %s

TOC извлечённого CD

Трек | Старт | Длительность | Начальный сектор | Конечный сектор
---------------------------------------------------------------------
1 | 0:00.00 | 3:19.53 | 0 | 14977
2 | 3:19.53 | 3:13.16 | 14978 | 29468
3 | 6:32.69 | 2:58.65 | 29469 | 42883
4 | 9:31.59 | 3:32.38 | 42884 | 58821
5 | 13:04.22 | 2:20.64 | 58822 | 69385
6 | 15:25.11 | 3:11.41 | 69386 | 83751
7 | 18:36.52 | 2:43.13 | 83752 | 95989
8 | 21:19.65 | 3:33.43 | 95990 | 112007
9 | 24:53.33 | 3:22.34 | 112008 | 127191
10 | 28:15.67 | 3:06.36 | 127192 | 141177

Характеристики диапазона извлечения и сообщения об ошибках

Выбранный диапазон

Имя файла F:Ricchi E PoveriRicchi E Poveri 1981 ''...E Penso A Te''Ricchie E Poveri - E Penso A Te.wav

Пиковый уровень 99.5 %
Качество диапазона 100.0 %
CRC теста 1E44CDBA
CRC копии 1E44CDBA
Копирование... OK

Ошибок не произошло

AccurateRip: сводка

Трек 1 нет в базе данных
Трек 2 нет в базе данных
Трек 3 нет в базе данных
Трек 4 нет в базе данных
Трек 5 нет в базе данных
Трек 6 нет в базе данных
Трек 7 нет в базе данных
Трек 8 нет в базе данных
Трек 9 нет в базе данных
Трек 10 нет в базе данных

Ни одного трека нет в базе AccurateRip

Конец отчёта

1982 - Mamma Maria 0
Ricchi E Poveri - Collection
01. Mamma Maria
02. Poveri
03. Magnifica Serata
04. Malinteso
05. Venezia
06. Piccolo Amore
07. Amarsi Un Po'
08. C'e Che Sto Bene
09. Fortissimo
10. Perche Ci Vuole L'Amore

EAC
Exact Audio Copy V0.99 prebeta 5 from 4. May 2009

Отчёт EAC об извлечении, выполненном 18. декабря 2011, 0:32

Ricchi E Poveri / Mamma Maria

Дисковод: PIONEER DVD-RW DVR-219L Adapter: 5 ID: 0

Режим чтения : Достоверность
Использование точного потока : Да
Отключение кэша аудио : Да
Использование указателей C2 : Нет

Коррекция смещения при чтении : 6
Способность читать области Lead-in и Lead-out : Нет
Заполнение пропущенных сэмплов тишиной : Да
Удаление блоков с тишиной в начале и конце : Нет
При вычислениях CRC использовались нулевые сэмплы : Да
Интерфейс : Встроенный Win32-интерфейс для Win NT/2000

Выходной формат : Пользовательский кодировщик
Выбранный битрейт : 1024 kBit/s
Качество : Высокий
Добавление ID3-тэга : Нет
Утилита сжатия : C:Program Files (x86)Exact Audio CopyFlacflac.exe
Дополнительные параметры : -8 -V -T "ARTIST=%a" -T "TITLE=%t" -T "ALBUM=%g" -T "DATE=%y" -T "TRACKNUMBER=%n" -T "GENRE=%m" -T "COMMENT=EAC FLAC -8" %s

TOC извлечённого CD

Трек | Старт | Длительность | Начальный сектор | Конечный сектор
---------------------------------------------------------------------
1 | 0:00.00 | 2:58.37 | 0 | 13386
2 | 2:58.37 | 3:22.70 | 13387 | 28606
3 | 6:21.32 | 3:13.13 | 28607 | 43094
4 | 9:34.45 | 3:19.40 | 43095 | 58059
5 | 12:54.10 | 3:24.53 | 58060 | 73412
6 | 16:18.63 | 3:21.52 | 73413 | 88539
7 | 19:40.40 | 3:27.38 | 88540 | 104102
8 | 23:08.03 | 3:23.41 | 104103 | 119368
9 | 26:31.44 | 4:08.13 | 119369 | 137981
10 | 30:39.57 | 2:54.32 | 137982 | 151063

Характеристики диапазона извлечения и сообщения об ошибках

Выбранный диапазон

Имя файла F:СВОИ РЕЛИЗЫRicchi E PoveriRicchi E Poveri 1982 ''Mamma Maria''Ricchi E Poveri - Mamma Maria.wav

Пиковый уровень 100.0 %
Качество диапазона 100.0 %
CRC теста 3AF544CB
CRC копии 3AF544CB
Копирование... OK

Ошибок не произошло

AccurateRip: сводка

Трек 1 нет в базе данных
Трек 2 нет в базе данных
Трек 3 нет в базе данных
Трек 4 нет в базе данных
Трек 5 нет в базе данных
Трек 6 нет в базе данных
Трек 7 нет в базе данных
Трек 8 нет в базе данных
Трек 9 нет в базе данных
Трек 10 нет в базе данных

Ни одного трека нет в базе AccurateRip

Конец отчёта

1982 - Voulez Vous Danser 0
Ricchi E Poveri - Collection
01. Voulez Vous Danser
02. Hasta La Vista
03. Acapulco
04. Sei La Sola Che Amo
05. Dan Dan (E Una Canzone D'amore)
06. Cosa Sei
07. Ciao Italy, Ciao Amore
08. E Io Mi Sono Innamorato
09. Un Altro Lui Un'altra Lei
10. Vento Caldo

EAC
Exact Audio Copy V0.99 prebeta 5 from 4. May 2009

Отчёт EAC об извлечении, выполненном 18. декабря 2011, 14:24

Ricchi E Poveri / Voulez Vous Danser

Дисковод: PIONEER DVD-RW DVR-219L Adapter: 5 ID: 0

Режим чтения : Достоверность
Использование точного потока : Да
Отключение кэша аудио : Да
Использование указателей C2 : Нет

Коррекция смещения при чтении : 6
Способность читать области Lead-in и Lead-out : Нет
Заполнение пропущенных сэмплов тишиной : Да
Удаление блоков с тишиной в начале и конце : Нет
При вычислениях CRC использовались нулевые сэмплы : Да
Интерфейс : Встроенный Win32-интерфейс для Win NT/2000

Выходной формат : Пользовательский кодировщик
Выбранный битрейт : 1024 kBit/s
Качество : Высокий
Добавление ID3-тэга : Нет
Утилита сжатия : C:Program Files (x86)Exact Audio CopyFlacflac.exe
Дополнительные параметры : -8 -V -T "ARTIST=%a" -T "TITLE=%t" -T "ALBUM=%g" -T "DATE=%y" -T "TRACKNUMBER=%n" -T "GENRE=%m" -T "COMMENT=EAC FLAC -8" %s

TOC извлечённого CD

Трек | Старт | Длительность | Начальный сектор | Конечный сектор
---------------------------------------------------------------------
1 | 0:00.00 | 3:47.55 | 0 | 17079
2 | 3:47.55 | 5:45.11 | 17080 | 42965
3 | 9:32.66 | 3:46.24 | 42966 | 59939
4 | 13:19.15 | 3:07.11 | 59940 | 73975
5 | 16:26.26 | 3:19.54 | 73976 | 88954
6 | 19:46.05 | 3:20.59 | 88955 | 104013
7 | 23:06.64 | 3:04.18 | 104014 | 117831
8 | 26:11.07 | 3:35.14 | 117832 | 133970
9 | 29:46.21 | 2:57.56 | 133971 | 147301
10 | 32:44.02 | 3:36.51 | 147302 | 163552

Характеристики диапазона извлечения и сообщения об ошибках

Выбранный диапазон

Имя файла F:СВОИ РЕЛИЗЫRicchi E PoveriRicchi E Poveri 1983 ''Voulez Vous Danser''Ricchi E Poveri - Voulez Vous Danser.wav

Пиковый уровень 100.0 %
Качество диапазона 100.0 %
CRC теста B60E2418
CRC копии B60E2418
Копирование... OK

Ошибок не произошло

AccurateRip: сводка

Трек 1 нет в базе данных
Трек 2 нет в базе данных
Трек 3 нет в базе данных
Трек 4 нет в базе данных
Трек 5 нет в базе данных
Трек 6 нет в базе данных
Трек 7 нет в базе данных
Трек 8 нет в базе данных
Трек 9 нет в базе данных
Трек 10 нет в базе данных

Ни одного трека нет в базе AccurateRip

Конец отчёта

1985 - Dimmi Quando 0
Ricchi E Poveri - Collection
01. Dimmi Quando
02. Buonanotte Fiorellino
03. L'Anno Che Verra
04. Scende La Pioggia
05. Come Vorrei
06. Se M'Innamoro
07. Samarcanda
08. La Luce Dell'Est
09. Azzurro
10. Casa Mia
11. Cosa Sei
12. Mami Mami

EAC
Exact Audio Copy V0.99 prebeta 5 from 4. May 2009

Отчёт EAC об извлечении, выполненном 18. декабря 2011, 15:36

Ricchi E Poveri / Dimmi Quando

Дисковод: PIONEER DVD-RW DVR-219L Adapter: 5 ID: 0

Режим чтения : Достоверность
Использование точного потока : Да
Отключение кэша аудио : Да
Использование указателей C2 : Нет

Коррекция смещения при чтении : 6
Способность читать области Lead-in и Lead-out : Нет
Заполнение пропущенных сэмплов тишиной : Да
Удаление блоков с тишиной в начале и конце : Нет
При вычислениях CRC использовались нулевые сэмплы : Да
Интерфейс : Встроенный Win32-интерфейс для Win NT/2000

Выходной формат : Пользовательский кодировщик
Выбранный битрейт : 1024 kBit/s
Качество : Высокий
Добавление ID3-тэга : Нет
Утилита сжатия : C:Program Files (x86)Exact Audio CopyFlacflac.exe
Дополнительные параметры : -8 -V -T "ARTIST=%a" -T "TITLE=%t" -T "ALBUM=%g" -T "DATE=%y" -T "TRACKNUMBER=%n" -T "GENRE=%m" -T "COMMENT=EAC FLAC -8" %s

TOC извлечённого CD

Трек | Старт | Длительность | Начальный сектор | Конечный сектор
---------------------------------------------------------------------
1 | 0:00.00 | 3:30.36 | 0 | 15785
2 | 3:30.36 | 3:04.18 | 15786 | 29603
3 | 6:34.54 | 4:07.11 | 29604 | 48139
4 | 10:41.65 | 3:51.64 | 48140 | 65528
5 | 14:33.54 | 2:58.65 | 65529 | 78943
6 | 17:32.44 | 3:32.40 | 78944 | 94883
7 | 21:05.09 | 3:27.62 | 94884 | 110470
8 | 24:32.71 | 4:08.68 | 110471 | 129138
9 | 28:41.64 | 3:28.20 | 129139 | 144758
10 | 32:10.09 | 3:33.00 | 144759 | 160733
11 | 35:43.09 | 3:20.59 | 160734 | 175792
12 | 39:03.68 | 3:42.41 | 175793 | 192483

Характеристики диапазона извлечения и сообщения об ошибках

Выбранный диапазон

Имя файла F:СВОИ РЕЛИЗЫRicchi E PoveriRicchi E Poveri 1985 ''Dimmi Quando''Ricchi E Poveri - Dimmi Quando.wav

Пиковый уровень 100.0 %
Качество диапазона 100.0 %
CRC теста B5E958C3
CRC копии B5E958C3
Копирование... OK

Ошибок не произошло

AccurateRip: сводка

Трек 1 нет в базе данных
Трек 2 нет в базе данных
Трек 3 нет в базе данных
Трек 4 нет в базе данных
Трек 5 нет в базе данных
Трек 6 нет в базе данных
Трек 7 нет в базе данных
Трек 8 нет в базе данных
Трек 9 нет в базе данных
Трек 10 нет в базе данных
Трек 11 нет в базе данных
Трек 12 нет в базе данных

Ни одного трека нет в базе AccurateRip

Конец отчёта

1983 - Voulez Vous Danser 1985 - Dimmi Quando (CDMAXIMUM) 01
Ricchi E Poveri - Collection
01. Voulez Vous Danser
02. Hasta La Vista
03. Acapulco
04. Sei La Sola Che Amo
05. Dan Dan (E Una Canzone D'amore)
06. Cosa Sei
07. Ciao Italy, Ciao Amore
08. E Io Mi Sono Innamorato
09. Un Altro Lui Un'altra Lei
10. Vento Caldo
11. Dimmi Quando
12. Buonanotte Fiorellino
13. L'anno Che Verrа
14. Scende La Pioggia
15. Come Vorrei
16. Se M'innamoro
17. Samarcanda
18. La Luce Dell' Est
19. Azzurro
20. Casa Mia
21. Cosa Sei
22. Mami Mami


1-10 (p) 1983

11-22 (p) 1985
EAC
Exact Audio Copy V0.99 prebeta 5 from 4. May 2009

Отчёт EAC об извлечении, выполненном 19. декабря 2011, 0:06

Ricchi & Poveri / Voulez Vous Danser (1-10, 1983)+Dimmi Quando (11-22, 1985)

Дисковод: PIONEER DVD-RW DVR-219L Adapter: 5 ID: 0

Режим чтения : Достоверность
Использование точного потока : Да
Отключение кэша аудио : Да
Использование указателей C2 : Нет

Коррекция смещения при чтении : 6
Способность читать области Lead-in и Lead-out : Нет
Заполнение пропущенных сэмплов тишиной : Да
Удаление блоков с тишиной в начале и конце : Нет
При вычислениях CRC использовались нулевые сэмплы : Да
Интерфейс : Встроенный Win32-интерфейс для Win NT/2000

Выходной формат : Пользовательский кодировщик
Выбранный битрейт : 1024 kBit/s
Качество : Высокий
Добавление ID3-тэга : Нет
Утилита сжатия : C:Program Files (x86)Exact Audio CopyFlacflac.exe
Дополнительные параметры : -8 -V -T "ARTIST=%a" -T "TITLE=%t" -T "ALBUM=%g" -T "DATE=%y" -T "TRACKNUMBER=%n" -T "GENRE=%m" -T "COMMENT=EAC FLAC -8" %s

TOC извлечённого CD

Трек | Старт | Длительность | Начальный сектор | Конечный сектор
---------------------------------------------------------------------
1 | 0:00.00 | 3:45.55 | 0 | 16929
2 | 3:45.55 | 3:56.07 | 16930 | 34636
3 | 7:41.62 | 3:44.24 | 34637 | 51460
4 | 11:26.11 | 3:05.11 | 51461 | 65346
5 | 14:31.22 | 3:17.54 | 65347 | 80175
6 | 17:49.01 | 3:18.59 | 80176 | 95084
7 | 21:07.60 | 3:02.18 | 95085 | 108752
8 | 24:10.03 | 3:33.14 | 108753 | 124741
9 | 27:43.17 | 2:55.56 | 124742 | 137922
10 | 30:38.73 | 3:36.51 | 137923 | 154173
11 | 34:15.49 | 3:28.36 | 154174 | 169809
12 | 37:44.10 | 3:02.18 | 169810 | 183477
13 | 40:46.28 | 4:05.11 | 183478 | 201863
14 | 44:51.39 | 3:49.64 | 201864 | 219102
15 | 48:41.28 | 2:56.65 | 219103 | 232367
16 | 51:38.18 | 3:30.40 | 232368 | 248157
17 | 55:08.58 | 3:25.62 | 248158 | 263594
18 | 58:34.45 | 4:06.68 | 263595 | 282112
19 | 62:41.38 | 3:26.20 | 282113 | 297582
20 | 66:07.58 | 3:29.19 | 297583 | 313276
21 | 69:37.02 | 3:18.59 | 313277 | 328185
22 | 72:55.61 | 3:42.41 | 328186 | 344876

Характеристики диапазона извлечения и сообщения об ошибках

Выбранный диапазон

Имя файла F:СВОИ РЕЛИЗЫRicchi E PoveriCDM EditionRicchi E Poveri 1983 ''Voulez Vous Danser'', 1985 ''Dimmi Quando''Ricchi & Poveri - Voulez Vous Danser (1-10, 1983)+Dimmi Quando (11-22, 1985).wav

Пиковый уровень 100.0 %
Качество диапазона 100.0 %
CRC теста 37743DCD
CRC копии 37743DCD
Копирование... OK

Ошибок не произошло

AccurateRip: сводка

Трек 1 нет в базе данных
Трек 2 нет в базе данных
Трек 3 нет в базе данных
Трек 4 нет в базе данных
Трек 5 нет в базе данных
Трек 6 нет в базе данных
Трек 7 нет в базе данных
Трек 8 нет в базе данных
Трек 9 нет в базе данных
Трек 10 нет в базе данных
Трек 11 нет в базе данных
Трек 12 нет в базе данных
Трек 13 нет в базе данных
Трек 14 нет в базе данных
Трек 15 нет в базе данных
Трек 16 нет в базе данных
Трек 17 нет в базе данных
Трек 18 нет в базе данных
Трек 19 нет в базе данных
Трек 20 нет в базе данных
Трек 21 нет в базе данных
Трек 22 нет в базе данных

Ни одного трека нет в базе AccurateRip

Конец отчёта

1987 - Pubblicita 0
Ricchi E Poveri - Collection
01. Cocco bello Africa
02. Pubblicita
03. Voglio stringerti ancora
04. Non dire no
05. C'e che luna c'e che mare
06. Lascia libero il cello
07. New york
08. Bocce
09. E io mi sono innamorato
10. Canzone d'amore

EAC
Exact Audio Copy V0.99 prebeta 5 from 4. May 2009

Отчёт EAC об извлечении, выполненном 18. декабря 2011, 17:17

Ricchi e Poveri / Pubblicita

Дисковод: PIONEER DVD-RW DVR-219L Adapter: 5 ID: 0

Режим чтения : Достоверность
Использование точного потока : Да
Отключение кэша аудио : Да
Использование указателей C2 : Нет

Коррекция смещения при чтении : 6
Способность читать области Lead-in и Lead-out : Нет
Заполнение пропущенных сэмплов тишиной : Да
Удаление блоков с тишиной в начале и конце : Нет
При вычислениях CRC использовались нулевые сэмплы : Да
Интерфейс : Встроенный Win32-интерфейс для Win NT/2000

Выходной формат : Пользовательский кодировщик
Выбранный битрейт : 1024 kBit/s
Качество : Высокий
Добавление ID3-тэга : Нет
Утилита сжатия : C:Program Files (x86)Exact Audio CopyFlacflac.exe
Дополнительные параметры : -8 -V -T "ARTIST=%a" -T "TITLE=%t" -T "ALBUM=%g" -T "DATE=%y" -T "TRACKNUMBER=%n" -T "GENRE=%m" -T "COMMENT=EAC FLAC -8" %s

TOC извлечённого CD

Трек | Старт | Длительность | Начальный сектор | Конечный сектор
---------------------------------------------------------------------
1 | 0:00.00 | 3:15.00 | 0 | 14624
2 | 3:15.00 | 3:15.40 | 14625 | 29289
3 | 6:30.40 | 4:11.30 | 29290 | 48144
4 | 10:41.70 | 3:38.10 | 48145 | 64504
5 | 14:20.05 | 3:28.50 | 64505 | 80154
6 | 17:48.55 | 4:11.40 | 80155 | 99019
7 | 22:00.20 | 3:21.12 | 99020 | 114106
8 | 25:21.32 | 3:04.28 | 114107 | 127934
9 | 28:25.60 | 3:07.07 | 127935 | 141966
10 | 31:32.67 | 4:03.33 | 141967 | 160224

Характеристики диапазона извлечения и сообщения об ошибках

Выбранный диапазон

Имя файла F:СВОИ РЕЛИЗЫRicchi E PoveriRicchi E Poveri 1987 ''Pubblicita''Ricchi e Poveri - Pubblicita.wav

Пиковый уровень 97.7 %
Качество диапазона 100.0 %
CRC теста 4D2EBF07
CRC копии 4D2EBF07
Копирование... OK

Ошибок не произошло

AccurateRip: сводка

Трек 1 точность не определена (достоверность 2) [F52863E7], AccurateRip вернул [F7C63769]
Трек 2 точность не определена (достоверность 2) [11D5D35F], AccurateRip вернул [658567E3]
Трек 3 точность не определена (достоверность 2) [F823C03D], AccurateRip вернул [6CA237B3]
Трек 4 точность не определена (достоверность 2) [743C9677], AccurateRip вернул [C153E403]
Трек 5 точность не определена (достоверность 2) [E2638CD3], AccurateRip вернул [8DEBEF57]
Трек 6 точность не определена (достоверность 2) [80382958], AccurateRip вернул
Трек 7 точность не определена (достоверность 2) [7DE25D36], AccurateRip вернул [BEFB153E]
Трек 8 точность не определена (достоверность 2) [1576DF58], AccurateRip вернул [0DE53810]
Трек 9 точность не определена (достоверность 2) [2C292A17], AccurateRip вернул [BFCA6731]
Трек 10 точность не определена (достоверность 2) [AF08027B], AccurateRip вернул [1549107F]

Ни один трек не прошёл проверки на точность
В вашей базе может быть иной вариант штамповки диска

Конец отчёта

1982 - Mamma Maria 1987 - Pubblicitа (CDMAXIMUM) 01
Ricchi E Poveri - Collection
01. Mamma Maria
02. Poveri
03. Magnifica Serata
04. Malinteso
05. Venezia
06. Piccolo Amore
07. Amarsi Un Po'
08. C'e Che Sto Bene
09. Fortissimo
10. Perche Ci Vuole L'Amore
11. Pubblicitа
12. Cocco Bello Africa
13. Volio Stringerti Ancora
14. Non Dire No
15. C'e Che Luna, C'e Che Mare
16. Lascia Libero Il Cielo
17. New York
18. Bocce
19. E Io Mi Sono Innamorato
20. Canzone D'Amore


1-10 (p) 1983

11-22 (p) 1985

EAC
Exact Audio Copy V0.99 prebeta 5 from 4. May 2009

Отчёт EAC об извлечении, выполненном 19. декабря 2011, 12:20

Ricchi & Poveri / Mamma Maria (1-10, 1982)+Pubblicitа (11-20, 1987)

Дисковод: PIONEER DVD-RW DVR-219L Adapter: 5 ID: 0

Режим чтения : Достоверность
Использование точного потока : Да
Отключение кэша аудио : Да
Использование указателей C2 : Нет

Коррекция смещения при чтении : 6
Способность читать области Lead-in и Lead-out : Нет
Заполнение пропущенных сэмплов тишиной : Да
Удаление блоков с тишиной в начале и конце : Нет
При вычислениях CRC использовались нулевые сэмплы : Да
Интерфейс : Встроенный Win32-интерфейс для Win NT/2000

Выходной формат : Пользовательский кодировщик
Выбранный битрейт : 1024 kBit/s
Качество : Высокий
Добавление ID3-тэга : Нет
Утилита сжатия : C:Program Files (x86)Exact Audio CopyFlacflac.exe
Дополнительные параметры : -8 -V -T "ARTIST=%a" -T "TITLE=%t" -T "ALBUM=%g" -T "DATE=%y" -T "TRACKNUMBER=%n" -T "GENRE=%m" -T "COMMENT=EAC FLAC -8" %s

TOC извлечённого CD

Трек | Старт | Длительность | Начальный сектор | Конечный сектор
---------------------------------------------------------------------
1 | 0:00.00 | 2:56.37 | 0 | 13236
2 | 2:56.37 | 3:20.33 | 13237 | 28269
3 | 6:16.70 | 3:10.36 | 28270 | 42555
4 | 9:27.31 | 3:17.48 | 42556 | 57378
5 | 12:45.04 | 3:21.00 | 57379 | 72453
6 | 16:06.04 | 3:19.28 | 72454 | 87406
7 | 19:25.32 | 3:23.72 | 87407 | 102703
8 | 22:49.29 | 3:21.41 | 102704 | 117819
9 | 26:10.70 | 4:04.43 | 117820 | 136162
10 | 30:15.38 | 2:52.33 | 136163 | 149095
11 | 33:07.71 | 3:13.55 | 149096 | 163625
12 | 36:21.51 | 3:13.13 | 163626 | 178113
13 | 39:34.64 | 4:09.31 | 178114 | 196819
14 | 43:44.20 | 3:36.26 | 196820 | 213045
15 | 47:20.46 | 3:27.19 | 213046 | 228589
16 | 50:47.65 | 4:08.35 | 228590 | 247224
17 | 54:56.25 | 3:19.69 | 247225 | 262218
18 | 58:16.19 | 3:02.68 | 262219 | 275936
19 | 61:19.12 | 3:06.28 | 275937 | 289914
20 | 64:25.40 | 4:01.57 | 289915 | 308046

Характеристики диапазона извлечения и сообщения об ошибках

Выбранный диапазон

Имя файла F:СВОИ РЕЛИЗЫRicchi E PoveriCDM EditionRicchi E Poveri 1982 ''Mamma Maria'', 1987 ''Pubblicita''Ricchi & Poveri - Mamma Maria (1-10, 1982)+Pubblicitа (11-20, 1987).wav

Пиковый уровень 100.0 %
Качество диапазона 99.9 %
CRC теста 51EA5734
CRC копии 51EA5734
Копирование... OK

Ошибок не произошло

AccurateRip: сводка

Трек 1 точное извлечение (доверие 3) [FEDAE25C]
Трек 2 точное извлечение (доверие 3) [E5A41156]
Трек 3 точное извлечение (доверие 3)
Трек 4 точное извлечение (доверие 3) [C161A829]
Трек 5 точное извлечение (доверие 3) [237D7B82]
Трек 6 точное извлечение (доверие 3) [3685A60C]
Трек 7 точное извлечение (доверие 3) [AAD8047B]
Трек 8 точное извлечение (доверие 3) [7DEE5553]
Трек 9 точное извлечение (доверие 3) [7CF364C0]
Трек 10 точное извлечение (доверие 3) [94919397]
Трек 11 точное извлечение (доверие 3) [7A06B335]
Трек 12 точное извлечение (доверие 3) [C0687E00]
Трек 13 точное извлечение (доверие 3) [D2AE2A57]
Трек 14 точное извлечение (доверие 3) [BEE0FA85]
Трек 15 точное извлечение (доверие 3) [2863B954]
Трек 16 точное извлечение (доверие 3) [80DA8F8C]
Трек 17 точное извлечение (доверие 3) [65EAF79B]
Трек 18 точное извлечение (доверие 3) [8159E76C]
Трек 19 точное извлечение (доверие 3) [EBB55A4A]
Трек 20 точное извлечение (доверие 3) [81A4269B]

Все треки извлечены точно

Конец отчёта

1999 - Parla Col Cuore 0
Ricchi E Poveri - Collection
01. Ciao Ciao
02. Se mi innamoro
03. Il meglio di noi
04. Come vorrei
05. Mamma Maria
06. Parla col cuore
07. La prima cosa bella
08. Se mi ami
09. Che sera
10. Sarа perche ti amo
11. Mi innamoro di te
12. Mai dire mai
13. Made in Italy
14. La stella che vuoi

EAC
Exact Audio Copy V0.99 prebeta 5 from 4. May 2009

Отчёт EAC об извлечении, выполненном 18. декабря 2011, 18:11

Ricchi E Poveri / Parla Col Cuore

Дисковод: PIONEER DVD-RW DVR-219L Adapter: 5 ID: 0

Режим чтения : Достоверность
Использование точного потока : Да
Отключение кэша аудио : Да
Использование указателей C2 : Нет

Коррекция смещения при чтении : 6
Способность читать области Lead-in и Lead-out : Нет
Заполнение пропущенных сэмплов тишиной : Да
Удаление блоков с тишиной в начале и конце : Нет
При вычислениях CRC использовались нулевые сэмплы : Да
Интерфейс : Встроенный Win32-интерфейс для Win NT/2000

Выходной формат : Пользовательский кодировщик
Выбранный битрейт : 1024 kBit/s
Качество : Высокий
Добавление ID3-тэга : Нет
Утилита сжатия : C:Program Files (x86)Exact Audio CopyFlacflac.exe
Дополнительные параметры : -8 -V -T "ARTIST=%a" -T "TITLE=%t" -T "ALBUM=%g" -T "DATE=%y" -T "TRACKNUMBER=%n" -T "GENRE=%m" -T "COMMENT=EAC FLAC -8" %s

TOC извлечённого CD

Трек | Старт | Длительность | Начальный сектор | Конечный сектор
---------------------------------------------------------------------
1 | 0:00.00 | 3:58.63 | 0 | 17912
2 | 3:58.63 | 4:41.34 | 17913 | 39021
3 | 8:40.22 | 3:49.71 | 39022 | 56267
4 | 12:30.18 | 4:30.60 | 56268 | 76577
5 | 17:01.03 | 3:05.60 | 76578 | 90512
6 | 20:06.63 | 4:20.53 | 90513 | 110065
7 | 24:27.41 | 3:31.27 | 110066 | 125917
8 | 27:58.68 | 4:34.63 | 125918 | 146530
9 | 32:33.56 | 3:15.62 | 146531 | 161217
10 | 35:49.43 | 4:02.30 | 161218 | 179397
11 | 39:51.73 | 4:43.28 | 179398 | 200650
12 | 44:35.26 | 4:07.50 | 200651 | 219225
13 | 48:43.01 | 3:52.42 | 219226 | 236667
14 | 52:35.43 | 4:03.37 | 236668 | 254929

Характеристики диапазона извлечения и сообщения об ошибках

Выбранный диапазон

Имя файла F:СВОИ РЕЛИЗЫRicchi E PoveriRicchi E Poveri 1999 ''Parla Col Cuore''Ricchi E Poveri - Parla Col Cuore.wav

Пиковый уровень 100.0 %
Качество диапазона 100.0 %
CRC теста F4F1B425
CRC копии F4F1B425
Копирование... OK

Ошибок не произошло

AccurateRip: сводка

Трек 1 нет в базе данных
Трек 2 нет в базе данных
Трек 3 нет в базе данных
Трек 4 нет в базе данных
Трек 5 нет в базе данных
Трек 6 нет в базе данных
Трек 7 нет в базе данных
Трек 8 нет в базе данных
Трек 9 нет в базе данных
Трек 10 нет в базе данных
Трек 11 нет в базе данных
Трек 12 нет в базе данных
Трек 13 нет в базе данных
Трек 14 нет в базе данных

Ни одного трека нет в базе AccurateRip

Конец отчёта
Музыка / Lossless / Разное
СКАЧАТЬ БЕСПЛАТНО  [3.2 GB]


17
дек
2015

Ricchi e Poveri - Video Collection [1978, Pop, DVDRip-AVC]

Формат: DVDRip-AVC, MKV, H.264, AC3
Песня: Video Collection
Жанр: Pop
Продолжительность: 01:04:04
Год выпуска: 1978
Видео: 720x528 (4:3), 23,976 fps, MPEG4 AVC (x264), High@L4.1 ~2400 Kbps avg, 0.263 bit/pixel
Аудио: 48 kHz, AC3, 2 ch ~ 256 Kbps
Дополнительная информация: Треклист 01. Voulez Vous Danser 02. Mamma Maria 03. Piccolo amore 04. Cosa sei 05. Se Mi Innamoro 06. Come vorrei 07. Sara perche ti amo 08. Hasta la vista 09. Made in Italy 10. Canzone D'Amore 11. M'innamoro di te 12. Che Sara' 13. Voulez Vous Danser 14. Buona Giornata 15. Questa sera 16. Acapulco 17. E p ...

13
мая
2015

Ricchi e Poveri - Super Hits Collection [2015, Pop, Dance, Eurodance, Disco, MP3]

Формат: MP3, tracks, 320kbps
Год выпуска: 2015
Страна: Italy
Жанр: Pop, Dance, Eurodance, Disco
Продолжительность: 01:07:42
Описание: 01. Piccolina 02. Mamma Maria 03. Piccolo Amore 04. Magnifica Serata 05. Voulez Vous Danser 06. Hasta La Vista 07. Acapulco 08. Cosa Sei 09. Dan Dan (E Una Canzone D'amore) 10. C'e Che Sto Bene 11. Amarti Un Po' 12. Seilla Sala Che Amo 13. Ciao Italy, Ciao Amore 14. Sara Perche Ti Amo 15. Se M'innamoro 16. Come Vorrei 17. Made In Italy 18. ...E Penso A Te 19. Azzurro 20. M`innamoro Di Te

16
июн
2016

Ricchi e Poveri - The Best Of... [1970 - 1998, Pop, DVD5]

Формат: DVD5, DVD Video, MPEG2, AC3
Песня: The Best Of...
Жанр: Pop
Продолжительность: 01:01:16
Год выпуска: 1970 - 1998
Видео: 720х576 (PAL 16:9), 25,000 fps, MPEG-2, ~7887 kbps avg, 0.761 bit/pixel
Аудио: 48.0 КГц, Audio Coding 3, 2 ch, 192 kbps
Доп. информация: Ricchi e Poveri — итальянская поп-группа, популярная в начале-середине 80-х годов XX века. Первоначально была квартетом, в 1981 году превратилась в трио, а в мае 2016 стала дуэтом.
Треклист: 01. Made in Italy 02. Mamma Maria 03. Acapulco 04. Ciao Italy, Ciao Amore 05. Ninna Nanna 06. Come Vorrei 07. Alla Faccia Di Belzebu 08. Se M ...

22
мар
2008

Ricchi E Poveri - Дискография [2003,Popmusic,MP3]

Страна: Италия
Год выпуска: 2003
Жанр: Disco Music,Pop Music
Продолжительность: 5ч.27мин.
Формат: MP3
Битрейт аудио: 256kbps-320kbps
Трэклист: 01-La Stragione Dell' Amore (1980) 320kbps 02-...E Penso A Te (1981) 320kbps 03-Mamma Maria (1982) 320kbps 04-Voulez Vous Dancer (1983) 320kbps 05-Dimmi Quando (1985) 320kbps 06-Pubblicita (1987) 320kbps 07-Hasta La Vista, Signora-Le Grand Ricchi E Poveri (1990) 256kbps 08-Collection (1998) 256kbps Доп. информация Рикки э Повери", одна из наиболее разносторонних и выдающихся групп Италии, существует на европейской музыкальной сцене уже долгое время. Кар ...

20
ноя
2012

Ricchi E Poveri - Discography [1970-2008, Pop, MP3]

Формат: MP3, tracks, 160-320 kbps
Год выпуска: 1970-2008
Страна: Italy
Жанр: Pop
Продолжительность: 23:55:33
Описание: Albums1970 - Ricchi E Poveri 0001-In Questa Citta 02-Ciao Duca 03-Oceano 04-Un'immagine 05-Due Gocce D'acqua 06-Ma Se Ghe Penso 07-Al Molo 08-La Prima Cosa Bella 09-C'era Lei 10-L'amore E Una Cosa Meravigliosa 11-Carla E Gino 12-L'amore E Quello Che E 1971 - Amici Miei 0001-Che Sara 02-Con L'aiuto Del Signore 03-Monna Lisa E Messer Duca 04-Souvenir Del Primo Amore 05-La Mia Strada Sara Breve 06-Amici Miei 07-Favola 08-Addio Mamma Addio Papa 09-Limpido Fiume Del Sud 10-2+2=5 ...

18
ноя
2015

Ricchi e Poveri - Super Live [1968 1991, Pop, Disco, DVD5]

Формат: DVD5, DVD Video, MPEG2, AC3
Песня: Super Live
Жанр: Pop, Disco
Продолжительность: 00:45:38
Год выпуска: 1968—1991
Видео: 720х576 (PAL 16:9), 25 fps, MPEG-2, ~8243 kbps avg, 0.795 bit/pixel
Аудио: 48.0 КГц, Audio Coding 3, 2 ch, 192 kbps
Доп. информация: Музыкальная карьера коллектива началась в Генуе в 1968 году, когда он принял участие в фестивале «Кантаджиро» с песней L’Ultimo Amore («Последняя любовь»), в которой было заметно влияние американской группы Mamas & Papas. В 1970 году группа впервые принимает участие в фестивале в Сан-Ремо с песней La Prima Cosa Bella («Первая прекрасн ...

26
ноя
2012

Ricchi E Poveri - Perdutamente Amore [2012, Pop, MP3]

Формат: MP3, tracks, 320kbps
Год выпуска: 2012
Страна: Italia
Жанр: Pop
Продолжительность: 00:41:37
Описание: 01. Amore E Odio (3:27) 02. Mamma Maria (version 2012) (2:59) 03. Cosa Sei (version 2012) (3:59) 04. Dimmi Che Mi Ami (3:14) 05. Voulez-Vous Dancer (version 2012) (3:49) 06. Made In Italy (version 2012) (3:01) 07. Musica Vita Mia (3:23) 08. Piccolo Amore (version 2012) (3:39) 09. Acapulco (version 2012) (3:42) 10. Sara Perche Ti Amo (version 2012) (3:36) 11. Perdutamente Amore (3:07) 12. Come Vorrei (version 2012) (3:35)
Доп. информация: Ricchi E Poveri (рус. богатые и бедные) — попу ...

15
ноя
2018

Ricchi E Poveri - Любимые песни [2018, Pop, Disco, MP3]

Формат: MP3, tracks, 320kbps
Год выпуска: 2018
Страна: Italy
Жанр: Pop, Disco
Продолжительность: 02:16:49
Описание: Треклист01. Voulez Vous Danser 3:48 02. Hasta La Vista 5:45 03. Acapulco 3:46 04. Sei La Sola Che Amo 3:07 05. Dan Dan (E Una Canzone D'amore) 3:20 06. Ciao Italy, Ciao Amore 3:04 07. E Io Mi Sono Innamorato 3:35 08. Un Altro Lui Un'altra Lei 2:58 09. Vento Caldo 3:37 10. Sara' Perche' Ti Amo 3:05 11. M'innamoro Di Te 3:17 12. Mamma Maria 2:56 13. Se M'innamoro 3:28 14. Questa Sera 2:41 15. Canzone D'amore 4:03 16. Dimmi Quando 3:29 17. Come Vorrei 2:58 18. Cosa Sei (Que Sere) 3: ...

20
июл
2012

Ricchi E Poveri - Perdutamente Amore [2012, Pop, HDTV 1080p]

Формат: HDTV, MP4, AVC, AAC
Песня: Perdutamente Amore
Жанр: Pop
Продолжительность: 00:03:02
Год выпуска: 2012
Видео: 1920x1080 (16x9), 25fps, AVC, ~ 4.336 Kbps avg, 0.084 bit/pixel
Аудио: 44.1 KHz, 2 ch, stereo, AAC, ~ 152 Kbps avg
Доп. информация: Википедия Ricchi E Poveri (произносится: ри́кки э по́вери; итал. богатые и бедные) — Итальянская поп-группа, популярная в начале-середине 80-хх гг.Музыкальная карьера коллектива началась в Генуе в 1968 году, когда он принял участие в фестивале «Кантаджиро» с песней L’ultimo amore («Последняя любовь»), в которой было заметно влияние америк ...

29
мар
2012

Ricchi e Poveri - Концерт в Москве [1986, Disco, SATRip]

Формат: SATRip, MPG, MPEG-2, MP2
Песня: Концерт в Москве
Жанр: Disco
Продолжительность: 01:03:04
Год выпуска: 1986
Видео: 720*576(4:3) PAL MPEG (Video Version 2), ~ 2767 Кбит/сек (10000 Кбит/сек), ~ 25,000 кадр/сек,
Бит/Пиксели: 0.267
Аудио: 48 КГц, 2 канала(ов), 192 кбит/сек., MP2
Дополнительная информация: Треклист 01. Questa sera 02. Made in Italy 03. Dimmi guando 04. Come vorrei 05. Piccolo amore 06. Stasera canto 07. E no e no 08. Hasta la vista 09. Sara perche ti amo 10. Venezia 11. E penso a to 12. Se m'innamoro 13. Cosa sei 14. Acapulco 15. Azzurro 16. La prima cosa bella 17. Che s ...

14
дек
2015

Ricchi e Poveri - Мелодии и ритмы зарубежной эстрады [1981, Pop, TVRip-AVC]

Формат: TVRip-AVC, MKV, H.264, AC3
Песня: Мелодии и ритмы зарубежной эстрады
Жанр: Pop
Продолжительность: 00:31:31
Год выпуска: 1981
Видео: 720x528 (4:3), 23,976 fps, MPEG4 AVC (x264), High@L4.1 ~1800 Kbps avg, 0.197 bit/pixel
Аудио: 48 kHz, AC3, 2 ch ~ 192 Kbps
Дополнительная информация: Треклист 01. Bello l'amore 02. Alla faccia di Belzebu 03. E penso a te 04. Ninna nanna 05. Questa sera 06. Come vorrei 07. Made in Italy 08. M'innamoro di te 09. Stasera canto 10. Sara perche ti amo MediaInfo Общее Уникальный идентификатор : 213055702399858251219822920902927636299 (0xA04909241F5 ...

20
мая
2015

E-Type - Super Hits Collection [2015, Pop, Dance, Eurodance, Disco, MP3]

Формат: MP3, tracks, 320kbps
Год выпуска: 2015
Страна: Sweden
Жанр: Pop, Dance, Eurodance, Disco
Продолжительность: 01:12:47
Описание: 01. Angels Crying 02. The Explorer 03. Calling Your Name 04. Back In The Loop 05. I Just Wanna Be With You 06. You Know 07. Fall Fom The Sky 08. You Will Always Be A Part Of Me 09. Made In Sweeden 10. Set The World Of Fire 11. This Is The Way 12. So Dem A Com 13. Fight It Bak 14. Until The End 15. When Religion Comes To Town 16. Will I See You Again? 17. Do You Always 18. Russian Lullaby 19. Set The World (Unplugged) 20. Angels Crying 98 (New-Unplugged) 19. Se ...

01
мая
2012

VA-Назад в 80-e Collection [2012, Disco,Pop,Rock, MP3]

Формат: MP3, tracks, 320kbps
Год выпуска: 2012
Страна: All World
Жанр: Disco, Pop, Rock
Продолжительность: 29:16:20
Описание: Треклист 001. After The Fire - Der Kommissar 002. Los Lobos - La Bamba 003. Jan Hammer - Miami Vice Theme 004. The Go-Gos - We Got The Beat 005. Devo - Whip It 006. Bow Wow Wow - I Want Candy 007. David Lee Roth - California Girls 008. The Romantics - What I Like About You 009. Rick Springfield - Don't Talk To Strangers 010. Matthew Wilder - Break My Stride 011. Eddie Rabbitt - I Love A Rainy Night 012. Mike Post featuring Larry Carl - The Theme from Hill Street Blu 01 ...

30
апр
2012

VA - L.O.V.E. Vol.6: Chillout Music Collection [2012, Chillout, Lounge, MP3]

Формат: MP3, tracks, 320kbps
Год выпуска: 2012
Страна: All World
Жанр: Chillout, Lounge
Продолжительность: 04:35:52
Описание: Tracklist01. Armin Van Buuren Vs. Sophie Ellis Bextor - Not Giving Up On Love (Acoustic Version) [03:04] 02. Heiko - Miles Away [05:04] 03. Kevin Sunray - Stories Untold feat Gaia Barbero (Acoustic Dubstep Mix) [03:46] 04. Ciara Feat. Justin Timberlake - Love Sex Magic (Chillout Mix) [05:38] 05. Pochill - Constanta 78 [03:47] 06. The Shapeshifters - Lola's Theme (Lola's Loungin' Mix) [04:40] 07. Митя Фомин - OK! (feat. Kirill Clash) (River Piano Version) [03:33] ...

10
мар
2012

VA - L.O.V.E. Vol.4: Chillout Music Collection [2012, Chillout, Lounge, MP3]

Формат: MP3, tracks, 320kbps
Год выпуска: 2012
Страна: All World
Жанр: Chillout, Lounge
Продолжительность: 04:45:25
Описание: Треклист01. Envio - Touched By The Sun (Rusch & Elusive's Chillout Mix) 02. Above & Beyond Feat Richard Bedford - Sun & Moon (Paul Hills Sunset 2 Moonrise Mix) 03. Tornike - Night Steps (Original Mix) 04. Eventual Groove - The Writer (Lokitas Remix) 05. Mark Knight & Funkagenda - Shogun (Mark Knight & Funkagenda's Average House Band Remix) 06. Renato - Floating Thoughts (Original Mix) 07. Diddy feat. Keyshia Cole & B-Star - Last Night (Slow Version) 08. Funkagenda - Bre ...