26
дек
2011

John Lennon - The Complete Lost Lennon Tapes (22CD Box Set) [1996-98, Rock, FLAC]

John Lennon - The Complete Lost Lennon Tapes (22CD Box Set)

Формат: FLAC, (image + .cue), lossless
Год выпуска: 1996-98
Страна: UK
Жанр: Rock
Продолжительность: 27:13:00
Описание:

Volume 1 & 2
John Lennon - The Complete Lost Lennon Tapes
Disc One (01

Трeклист:

01. Strawberry Fields Forever 03:05
02. The Happy Rishikesh Song 01:54
03. Rock Island Line 02:34
04. John Henry 01:39
05. Surprise, Surprise (Sweet Bird of Paradox) 01:24
06. Keep Right on To the End of the Road 00:41
07. Goodnight Vienna 02:54
08. Tennessee (Takes 1 & 4) 01:58
09. God Save Oz 03:09
10. With A Little Help From My Friends 00:38
11. Power to the People 02:31
12. Here We Go Again 01:23
13. Mucho Mungo 02:13
14. God 01:27
15. Life Begins At Forty 02:04
16. Woman 03:08
17. Girls And Boys 02:22
18. Clean-Up Time 03:11
19. Beautiful Boy 02:48
20. Revolution 03:54
21. Child of Nature 02:31
22. He Said He Said/She Said She Said 01:08
23. I'm the Greatest (Early Demo) 01:23
24. Make Love Not War 03:15
25. How Do You Sleep? 08:10
26. Daddy's Little Sunshine Boy 00:30
Log EAC
X Lossless Decoder version 20110703 (135.1)

XLD extraction logfile from 2011-07-23 08:15:32 +0100

John Lennon / Complete Lost Lennon Tapes 01

Used drive : HL-DT-ST DVDRW GS22N (revision CP08)

Ripper mode : CDParanoia III 10.2
Disable audio cache : OK for the drive with a cache less than 2750KiB
Make use of C2 pointers : YES
Read offset correction : 667
Max retry count : 100
Gap status : Analyzed, Appended

TOC of the extracted CD
Track | Start | Length | Start sector | End sector
---------------------------------------------------------
1 | 00:00:00 | 03:05:40 | 0 | 13914
2 | 03:05:40 | 01:54:34 | 13915 | 22498
3 | 04:59:74 | 02:34:41 | 22499 | 34089
4 | 07:34:40 | 01:39:55 | 34090 | 41569
5 | 09:14:20 | 01:24:10 | 41570 | 47879
6 | 10:38:30 | 00:41:55 | 47880 | 51009
7 | 11:20:10 | 02:54:10 | 51010 | 64069
8 | 14:14:20 | 01:58:55 | 64070 | 72974
9 | 16:13:00 | 03:09:05 | 72975 | 87154
10 | 19:22:05 | 00:38:60 | 87155 | 90064
11 | 20:00:65 | 02:30:62 | 90065 | 101376
12 | 22:31:52 | 01:23:43 | 101377 | 107644
13 | 23:55:20 | 02:12:65 | 107645 | 117609
14 | 26:08:10 | 01:27:65 | 117610 | 124199
15 | 27:36:00 | 02:04:45 | 124200 | 133544
16 | 29:40:45 | 03:08:50 | 133545 | 147694
17 | 32:49:20 | 02:22:20 | 147695 | 158364
18 | 35:11:40 | 03:11:10 | 158365 | 172699
19 | 38:22:50 | 02:48:25 | 172700 | 185324
20 | 41:11:00 | 03:54:20 | 185325 | 202894
21 | 45:05:20 | 02:35:00 | 202895 | 214519
22 | 47:40:20 | 01:09:00 | 214520 | 219694
23 | 48:49:20 | 01:23:05 | 219695 | 225924
24 | 50:12:25 | 03:15:50 | 225925 | 240599
25 | 53:28:00 | 08:10:00 | 240600 | 277349
26 | 61:38:00 | 00:28:60 | 277350 | 279509

AccurateRip Summary
Disc not found in AccurateRip DB.

All Tracks
Filename : Complete Lost Lennon Tapes 01.flac
CRC32 hash : C89BF0DE
CRC32 hash (skip zero) : CE2E32B9
Statistics
Read error : 0
Skipped (treated as error) : 0
Edge jitter error (maybe fixed) : 0
Atom jitter error (maybe fixed) : 0
Drift error (maybe fixed) : 0
Dropped bytes error (maybe fixed) : 0
Duplicated bytes error (maybe fixed) : 0
Inconsistency in error sectors : 0

Track 01
Pre-gap length : 00:02:00

CRC32 hash : B1AD0C79
CRC32 hash (skip zero) : 93B92F1B
AccurateRip signature : 7DCDD3B4
- Track not present in AccurateRip database.
Statistics
Read error : 0
Skipped (treated as error) : 0
Edge jitter error (maybe fixed) : 0
Atom jitter error (maybe fixed) : 0
Drift error (maybe fixed) : 0
Dropped bytes error (maybe fixed) : 0
Duplicated bytes error (maybe fixed) : 0
Inconsistency in error sectors : 0

Track 02
Pre-gap length : 00:01:60

CRC32 hash : 2A6E7B95
CRC32 hash (skip zero) : F6FCAE95
AccurateRip signature : 8E7FAC68
- Track not present in AccurateRip database.
Statistics
Read error : 0
Skipped (treated as error) : 0
Edge jitter error (maybe fixed) : 0
Atom jitter error (maybe fixed) : 0
Drift error (maybe fixed) : 0
Dropped bytes error (maybe fixed) : 0
Duplicated bytes error (maybe fixed) : 0
Inconsistency in error sectors : 0

Track 03
Pre-gap length : 00:01:44

CRC32 hash : 4218696A
CRC32 hash (skip zero) : 6373BD77
AccurateRip signature : 9B7F3516
- Track not present in AccurateRip database.
Statistics
Read error : 0
Skipped (treated as error) : 0
Edge jitter error (maybe fixed) : 0
Atom jitter error (maybe fixed) : 0
Drift error (maybe fixed) : 0
Dropped bytes error (maybe fixed) : 0
Duplicated bytes error (maybe fixed) : 0
Inconsistency in error sectors : 0

Track 04
Pre-gap length : 00:01:40

CRC32 hash : DC31AB0C
CRC32 hash (skip zero) : D44AC942
AccurateRip signature : AE320DFD
- Track not present in AccurateRip database.
Statistics
Read error : 0
Skipped (treated as error) : 0
Edge jitter error (maybe fixed) : 0
Atom jitter error (maybe fixed) : 0
Drift error (maybe fixed) : 0
Dropped bytes error (maybe fixed) : 0
Duplicated bytes error (maybe fixed) : 0
Inconsistency in error sectors : 0

Track 05
Pre-gap length : 00:01:50

CRC32 hash : CA6B7622
CRC32 hash (skip zero) : 9F99879D
AccurateRip signature : CC9E3EE6
- Track not present in AccurateRip database.
Statistics
Read error : 0
Skipped (treated as error) : 0
Edge jitter error (maybe fixed) : 0
Atom jitter error (maybe fixed) : 0
Drift error (maybe fixed) : 0
Dropped bytes error (maybe fixed) : 0
Duplicated bytes error (maybe fixed) : 0
Inconsistency in error sectors : 0

Track 06
Pre-gap length : 00:01:55

CRC32 hash : C303E4B5
CRC32 hash (skip zero) : 63693DEB
AccurateRip signature : 14EA90ED
- Track not present in AccurateRip database.
Statistics
Read error : 0
Skipped (treated as error) : 0
Edge jitter error (maybe fixed) : 0
Atom jitter error (maybe fixed) : 0
Drift error (maybe fixed) : 0
Dropped bytes error (maybe fixed) : 0
Duplicated bytes error (maybe fixed) : 0
Inconsistency in error sectors : 0

Track 07
Pre-gap length : 00:01:40

CRC32 hash : CFD593A5
CRC32 hash (skip zero) : 8626571B
AccurateRip signature : 6E63137C
- Track not present in AccurateRip database.
Statistics
Read error : 0
Skipped (treated as error) : 0
Edge jitter error (maybe fixed) : 0
Atom jitter error (maybe fixed) : 0
Drift error (maybe fixed) : 0
Dropped bytes error (maybe fixed) : 0
Duplicated bytes error (maybe fixed) : 0
Inconsistency in error sectors : 0

Track 08
Pre-gap length : 00:01:40

CRC32 hash : 4CEABE12
CRC32 hash (skip zero) : 49540AE9
AccurateRip signature : 062EF7CC
- Track not present in AccurateRip database.
Statistics
Read error : 0
Skipped (treated as error) : 0
Edge jitter error (maybe fixed) : 0
Atom jitter error (maybe fixed) : 0
Drift error (maybe fixed) : 0
Dropped bytes error (maybe fixed) : 0
Duplicated bytes error (maybe fixed) : 0
Inconsistency in error sectors : 0

Track 09
Pre-gap length : 00:01:40

CRC32 hash : FC72053F
CRC32 hash (skip zero) : 8F0ACFBD
AccurateRip signature : 83BB2106
- Track not present in AccurateRip database.
Statistics
Read error : 0
Skipped (treated as error) : 0
Edge jitter error (maybe fixed) : 0
Atom jitter error (maybe fixed) : 0
Drift error (maybe fixed) : 0
Dropped bytes error (maybe fixed) : 0
Duplicated bytes error (maybe fixed) : 0
Inconsistency in error sectors : 0

Track 10
Pre-gap length : 00:01:40

CRC32 hash : 1A4F90CF
CRC32 hash (skip zero) : 2EF46CF7
AccurateRip signature : 0B2092C6
- Track not present in AccurateRip database.
Statistics
Read error : 0
Skipped (treated as error) : 0
Edge jitter error (maybe fixed) : 0
Atom jitter error (maybe fixed) : 0
Drift error (maybe fixed) : 0
Dropped bytes error (maybe fixed) : 0
Duplicated bytes error (maybe fixed) : 0
Inconsistency in error sectors : 0

Track 11
Pre-gap length : 00:01:50

CRC32 hash : 55C24201
CRC32 hash (skip zero) : A0A05E0E
AccurateRip signature : 4FF203E7
- Track not present in AccurateRip database.
Statistics
Read error : 0
Skipped (treated as error) : 0
Edge jitter error (maybe fixed) : 0
Atom jitter error (maybe fixed) : 0
Drift error (maybe fixed) : 0
Dropped bytes error (maybe fixed) : 0
Duplicated bytes error (maybe fixed) : 0
Inconsistency in error sectors : 0

Track 12
Pre-gap length : 00:01:37

CRC32 hash : 953F0FA2
CRC32 hash (skip zero) : D50F0FFB
AccurateRip signature : A47F3B81
- Track not present in AccurateRip database.
Statistics
Read error : 0
Skipped (treated as error) : 0
Edge jitter error (maybe fixed) : 0
Atom jitter error (maybe fixed) : 0
Drift error (maybe fixed) : 0
Dropped bytes error (maybe fixed) : 0
Duplicated bytes error (maybe fixed) : 0
Inconsistency in error sectors : 0

Track 13
Pre-gap length : 00:01:50

CRC32 hash : FCB35ED7
CRC32 hash (skip zero) : D7823377
AccurateRip signature : 2BF049E1
- Track not present in AccurateRip database.
Statistics
Read error : 0
Skipped (treated as error) : 0
Edge jitter error (maybe fixed) : 0
Atom jitter error (maybe fixed) : 0
Drift error (maybe fixed) : 0
Dropped bytes error (maybe fixed) : 0
Duplicated bytes error (maybe fixed) : 0
Inconsistency in error sectors : 0

Track 14
Pre-gap length : 00:01:40

CRC32 hash : 67405C96
CRC32 hash (skip zero) : 2D20D5AF
AccurateRip signature : 77A5FC05
- Track not present in AccurateRip database.
Statistics
Read error : 0
Skipped (treated as error) : 0
Edge jitter error (maybe fixed) : 0
Atom jitter error (maybe fixed) : 0
Drift error (maybe fixed) : 0
Dropped bytes error (maybe fixed) : 0
Duplicated bytes error (maybe fixed) : 0
Inconsistency in error sectors : 0

Track 15
Pre-gap length : 00:01:50

CRC32 hash : 945AC6DA
CRC32 hash (skip zero) : CD12137F
AccurateRip signature : A7AD7F96
- Track not present in AccurateRip database.
Statistics
Read error : 0
Skipped (treated as error) : 0
Edge jitter error (maybe fixed) : 0
Atom jitter error (maybe fixed) : 0
Drift error (maybe fixed) : 0
Dropped bytes error (maybe fixed) : 0
Duplicated bytes error (maybe fixed) : 0
Inconsistency in error sectors : 0

Track 16
Pre-gap length : 00:01:45

CRC32 hash : AAC9035E
CRC32 hash (skip zero) : A59E2E81
AccurateRip signature : F9FBA9A6
- Track not present in AccurateRip database.
Statistics
Read error : 0
Skipped (treated as error) : 0
Edge jitter error (maybe fixed) : 0
Atom jitter error (maybe fixed) : 0
Drift error (maybe fixed) : 0
Dropped bytes error (maybe fixed) : 0
Duplicated bytes error (maybe fixed) : 0
Inconsistency in error sectors : 0

Track 17
Pre-gap length : 00:01:50

CRC32 hash : 65B1CCBD
CRC32 hash (skip zero) : C2DD9957
AccurateRip signature : 815BF3A3
- Track not present in AccurateRip database.
Statistics
Read error : 0
Skipped (treated as error) : 0
Edge jitter error (maybe fixed) : 0
Atom jitter error (maybe fixed) : 0
Drift error (maybe fixed) : 0
Dropped bytes error (maybe fixed) : 0
Duplicated bytes error (maybe fixed) : 0
Inconsistency in error sectors : 0

Track 18
Pre-gap length : 00:01:45

CRC32 hash : 1AFB8081
CRC32 hash (skip zero) : 8F90965C
AccurateRip signature : B9C98113
- Track not present in AccurateRip database.
Statistics
Read error : 0
Skipped (treated as error) : 0
Edge jitter error (maybe fixed) : 0
Atom jitter error (maybe fixed) : 0
Drift error (maybe fixed) : 0
Dropped bytes error (maybe fixed) : 0
Duplicated bytes error (maybe fixed) : 0
Inconsistency in error sectors : 0

Track 19
Pre-gap length : 00:01:55

CRC32 hash : FC656855
CRC32 hash (skip zero) : 64B1A07D
AccurateRip signature : 7B4F6FFB
- Track not present in AccurateRip database.
Statistics
Read error : 0
Skipped (treated as error) : 0
Edge jitter error (maybe fixed) : 0
Atom jitter error (maybe fixed) : 0
Drift error (maybe fixed) : 0
Dropped bytes error (maybe fixed) : 0
Duplicated bytes error (maybe fixed) : 0
Inconsistency in error sectors : 0

Track 20
Pre-gap length : 00:01:43

CRC32 hash : DBA591D9
CRC32 hash (skip zero) : 94319046
AccurateRip signature : 93816BF6
- Track not present in AccurateRip database.
Statistics
Read error : 0
Skipped (treated as error) : 0
Edge jitter error (maybe fixed) : 0
Atom jitter error (maybe fixed) : 0
Drift error (maybe fixed) : 0
Dropped bytes error (maybe fixed) : 0
Duplicated bytes error (maybe fixed) : 0
Inconsistency in error sectors : 0

Track 21
Pre-gap length : 00:01:40

CRC32 hash : 3EF60996
CRC32 hash (skip zero) : AC1DAD02
AccurateRip signature : 670FC823
- Track not present in AccurateRip database.
Statistics
Read error : 0
Skipped (treated as error) : 0
Edge jitter error (maybe fixed) : 0
Atom jitter error (maybe fixed) : 0
Drift error (maybe fixed) : 0
Dropped bytes error (maybe fixed) : 0
Duplicated bytes error (maybe fixed) : 0
Inconsistency in error sectors : 0

Track 22
Pre-gap length : 00:01:40

CRC32 hash : C0546D4C
CRC32 hash (skip zero) : 2C42B179
AccurateRip signature : 76A402C0
- Track not present in AccurateRip database.
Statistics
Read error : 0
Skipped (treated as error) : 0
Edge jitter error (maybe fixed) : 0
Atom jitter error (maybe fixed) : 0
Drift error (maybe fixed) : 0
Dropped bytes error (maybe fixed) : 0
Duplicated bytes error (maybe fixed) : 0
Inconsistency in error sectors : 0

Track 23
Pre-gap length : 00:01:65

CRC32 hash : FE8C61FD
CRC32 hash (skip zero) : 778719C5
AccurateRip signature : AFBFEBBC
- Track not present in AccurateRip database.
Statistics
Read error : 0
Skipped (treated as error) : 0
Edge jitter error (maybe fixed) : 0
Atom jitter error (maybe fixed) : 0
Drift error (maybe fixed) : 0
Dropped bytes error (maybe fixed) : 0
Duplicated bytes error (maybe fixed) : 0
Inconsistency in error sectors : 0

Track 24
Pre-gap length : 00:01:65

CRC32 hash : D117C979
CRC32 hash (skip zero) : 05C4FD80
AccurateRip signature : C811AF61
- Track not present in AccurateRip database.
Statistics
Read error : 0
Skipped (treated as error) : 0
Edge jitter error (maybe fixed) : 0
Atom jitter error (maybe fixed) : 0
Drift error (maybe fixed) : 0
Dropped bytes error (maybe fixed) : 0
Duplicated bytes error (maybe fixed) : 0
Inconsistency in error sectors : 0

Track 25
Pre-gap length : 00:01:45

CRC32 hash : C8AB30B8
CRC32 hash (skip zero) : 7466EC78
AccurateRip signature : 3A17E0A9
- Track not present in AccurateRip database.
Statistics
Read error : 0
Skipped (treated as error) : 0
Edge jitter error (maybe fixed) : 0
Atom jitter error (maybe fixed) : 0
Drift error (maybe fixed) : 0
Dropped bytes error (maybe fixed) : 0
Duplicated bytes error (maybe fixed) : 0
Inconsistency in error sectors : 0

Track 26
Pre-gap length : 00:01:40

CRC32 hash : D213D07E
CRC32 hash (skip zero) : F5E17092
AccurateRip signature : 00C64C38
- Track not present in AccurateRip database.
Statistics
Read error : 0
Skipped (treated as error) : 0
Edge jitter error (maybe fixed) : 0
Atom jitter error (maybe fixed) : 0
Drift error (maybe fixed) : 0
Dropped bytes error (maybe fixed) : 0
Duplicated bytes error (maybe fixed) : 0
Inconsistency in error sectors : 0

No errors occurred

End of status report
Disc Two (01

Трeклист:

01. I'm The Greatest 02:53
02. The Luck of the Irish 03:13
03. Every Man Has a Woman Who Loves Him 03:19
04. Starting Over 04:55
05. I Promise 01:58
06. Sea Ditty/Leaning On A Lamp Post 02:36
07. Grow Old With Me 03:21
08. Strawberry Fields Forever 02:44
09. What's The New Mary Jane? 02:37
10. Julia 03:41
11. Across the Universe 03:48
12. You Know My Name (Look Up The Number) 01:02
13. Help! 00:44
14. Whatever Gets You Thru The Night 05:30
15. We Must Not Forget The General Erection 00:34
16. The Wumberlog (or The Magic Dog) 00:32
17. Dear John 04:17
18. Whatever Happened To 04:57
19. Cookin' (In The Kitchen of Love) 02:30
20. Peggy Sue 00:56
21. Watching The Wheels #1 00:39
22. Watching The Wheels #2 01:47
23. I'm Losing You 00:48
24. Beautiful Boy 01:42
25. Clean-Up Time 02:25
Log EAC
X Lossless Decoder version 20110703 (135.1)

XLD extraction logfile from 2011-07-30 12:58:50 +0100

Various Artists / Complete Lost Lennon Tapes 02

Used drive : HL-DT-ST DVDRW GS22N (revision CP08)

Ripper mode : CDParanoia III 10.2
Disable audio cache : OK for the drive with a cache less than 2750KiB
Make use of C2 pointers : YES
Read offset correction : 667
Max retry count : 100
Gap status : Analyzed, Appended

TOC of the extracted CD
Track | Start | Length | Start sector | End sector
---------------------------------------------------------
1 | 00:00:00 | 02:53:10 | 0 | 12984
2 | 02:53:10 | 03:13:45 | 12985 | 27504
3 | 06:06:55 | 03:19:05 | 27505 | 42434
4 | 09:25:60 | 04:55:20 | 42435 | 64579
5 | 14:21:05 | 01:58:15 | 64580 | 73444
6 | 16:19:20 | 02:36:25 | 73445 | 85169
7 | 18:55:45 | 03:21:65 | 85170 | 100309
8 | 22:17:35 | 02:44:55 | 100310 | 112664
9 | 25:02:15 | 02:37:45 | 112665 | 124484
10 | 27:39:60 | 03:41:50 | 124485 | 141109
11 | 31:21:35 | 03:48:15 | 141110 | 158224
12 | 35:09:50 | 01:01:45 | 158225 | 162844
13 | 36:11:20 | 00:44:55 | 162845 | 166199
14 | 36:56:00 | 05:30:30 | 166200 | 190979
15 | 42:26:30 | 00:32:25 | 190980 | 193404
16 | 42:58:55 | 00:35:00 | 193405 | 196029
17 | 43:33:55 | 04:16:70 | 196030 | 215299
18 | 47:50:50 | 04:57:25 | 215300 | 237599
19 | 52:48:00 | 02:30:55 | 237600 | 248904
20 | 55:18:55 | 00:56:20 | 248905 | 253124
21 | 56:15:00 | 00:39:00 | 253125 | 256049
22 | 56:54:00 | 01:47:35 | 256050 | 264109
23 | 58:41:35 | 00:48:35 | 264110 | 267744
24 | 59:29:70 | 01:42:60 | 267745 | 275454
25 | 61:12:55 | 02:26:00 | 275455 | 286404
26 | 63:38:55 | 01:23:45 | 286405 | 292674

All Tracks
Filename : Complete Lost Lennon Tapes 02.flac
CRC32 hash : 466DC555
CRC32 hash (skip zero) : ACB31547
Statistics
Read error : 0
Skipped (treated as error) : 0
Edge jitter error (maybe fixed) : 0
Atom jitter error (maybe fixed) : 0
Drift error (maybe fixed) : 0
Dropped bytes error (maybe fixed) : 0
Duplicated bytes error (maybe fixed) : 0
Inconsistency in error sectors : 0

Track 01
Pre-gap length : 00:02:00

CRC32 hash : 9DFEE2F3
CRC32 hash (skip zero) : C96CCA57
Statistics
Read error : 0
Skipped (treated as error) : 0
Edge jitter error (maybe fixed) : 0
Atom jitter error (maybe fixed) : 0
Drift error (maybe fixed) : 0
Dropped bytes error (maybe fixed) : 0
Duplicated bytes error (maybe fixed) : 0
Inconsistency in error sectors : 0

Track 02
Pre-gap length : 00:01:60

CRC32 hash : 02A1DEEF
CRC32 hash (skip zero) : 2D2D82B7
Statistics
Read error : 0
Skipped (treated as error) : 0
Edge jitter error (maybe fixed) : 0
Atom jitter error (maybe fixed) : 0
Drift error (maybe fixed) : 0
Dropped bytes error (maybe fixed) : 0
Duplicated bytes error (maybe fixed) : 0
Inconsistency in error sectors : 0

Track 03
Pre-gap length : 00:01:65

CRC32 hash : 5252A9B1
CRC32 hash (skip zero) : 8B560D9F
Statistics
Read error : 0
Skipped (treated as error) : 0
Edge jitter error (maybe fixed) : 0
Atom jitter error (maybe fixed) : 0
Drift error (maybe fixed) : 0
Dropped bytes error (maybe fixed) : 0
Duplicated bytes error (maybe fixed) : 0
Inconsistency in error sectors : 0

Track 04
Pre-gap length : 00:01:61

CRC32 hash : A011CD94
CRC32 hash (skip zero) : 6E97F899
Statistics
Read error : 0
Skipped (treated as error) : 0
Edge jitter error (maybe fixed) : 0
Atom jitter error (maybe fixed) : 0
Drift error (maybe fixed) : 0
Dropped bytes error (maybe fixed) : 0
Duplicated bytes error (maybe fixed) : 0
Inconsistency in error sectors : 0

Track 05
Pre-gap length : 00:02:05

CRC32 hash : E62F90BA
CRC32 hash (skip zero) : 08F72A7E
Statistics
Read error : 0
Skipped (treated as error) : 0
Edge jitter error (maybe fixed) : 0
Atom jitter error (maybe fixed) : 0
Drift error (maybe fixed) : 0
Dropped bytes error (maybe fixed) : 0
Duplicated bytes error (maybe fixed) : 0
Inconsistency in error sectors : 0

Track 06
Pre-gap length : 00:01:65

CRC32 hash : 4C8D8470
CRC32 hash (skip zero) : 569BD8D0
Statistics
Read error : 0
Skipped (treated as error) : 0
Edge jitter error (maybe fixed) : 0
Atom jitter error (maybe fixed) : 0
Drift error (maybe fixed) : 0
Dropped bytes error (maybe fixed) : 0
Duplicated bytes error (maybe fixed) : 0
Inconsistency in error sectors : 0

Track 07
Pre-gap length : 00:01:65

CRC32 hash : 0113F324
CRC32 hash (skip zero) : CCC0A5DE
Statistics
Read error : 0
Skipped (treated as error) : 0
Edge jitter error (maybe fixed) : 0
Atom jitter error (maybe fixed) : 0
Drift error (maybe fixed) : 0
Dropped bytes error (maybe fixed) : 0
Duplicated bytes error (maybe fixed) : 0
Inconsistency in error sectors : 0

Track 08
Pre-gap length : 00:01:60

CRC32 hash : 6C4122C1
CRC32 hash (skip zero) : 2F2502C4
Statistics
Read error : 0
Skipped (treated as error) : 0
Edge jitter error (maybe fixed) : 0
Atom jitter error (maybe fixed) : 0
Drift error (maybe fixed) : 0
Dropped bytes error (maybe fixed) : 0
Duplicated bytes error (maybe fixed) : 0
Inconsistency in error sectors : 0

Track 09
Pre-gap length : 00:01:55

CRC32 hash : 0F50F7B9
CRC32 hash (skip zero) : A31D122D
Statistics
Read error : 0
Skipped (treated as error) : 0
Edge jitter error (maybe fixed) : 0
Atom jitter error (maybe fixed) : 0
Drift error (maybe fixed) : 0
Dropped bytes error (maybe fixed) : 0
Duplicated bytes error (maybe fixed) : 0
Inconsistency in error sectors : 0

Track 10
Pre-gap length : 00:01:65

CRC32 hash : 7A28D457
CRC32 hash (skip zero) : B785F680
Statistics
Read error : 0
Skipped (treated as error) : 0
Edge jitter error (maybe fixed) : 0
Atom jitter error (maybe fixed) : 0
Drift error (maybe fixed) : 0
Dropped bytes error (maybe fixed) : 0
Duplicated bytes error (maybe fixed) : 0
Inconsistency in error sectors : 0

Track 11
Pre-gap length : 00:01:65

CRC32 hash : 200C6C80
CRC32 hash (skip zero) : 1DF80A5C
Statistics
Read error : 0
Skipped (treated as error) : 0
Edge jitter error (maybe fixed) : 0
Atom jitter error (maybe fixed) : 0
Drift error (maybe fixed) : 0
Dropped bytes error (maybe fixed) : 0
Duplicated bytes error (maybe fixed) : 0
Inconsistency in error sectors : 0

Track 12
Pre-gap length : 00:02:05

CRC32 hash : DA01BE03
CRC32 hash (skip zero) : CF8396B0
Statistics
Read error : 0
Skipped (treated as error) : 0
Edge jitter error (maybe fixed) : 0
Atom jitter error (maybe fixed) : 0
Drift error (maybe fixed) : 0
Dropped bytes error (maybe fixed) : 0
Duplicated bytes error (maybe fixed) : 0
Inconsistency in error sectors : 0

Track 13
Pre-gap length : 00:01:50

CRC32 hash : C14B3202
CRC32 hash (skip zero) : 51FCD3B2
Statistics
Read error : 0
Skipped (treated as error) : 0
Edge jitter error (maybe fixed) : 0
Atom jitter error (maybe fixed) : 0
Drift error (maybe fixed) : 0
Dropped bytes error (maybe fixed) : 0
Duplicated bytes error (maybe fixed) : 0
Inconsistency in error sectors : 0

Track 14
Pre-gap length : 00:01:65

CRC32 hash : E3BC263B
CRC32 hash (skip zero) : 89D9B493
Statistics
Read error : 0
Skipped (treated as error) : 0
Edge jitter error (maybe fixed) : 0
Atom jitter error (maybe fixed) : 0
Drift error (maybe fixed) : 0
Dropped bytes error (maybe fixed) : 0
Duplicated bytes error (maybe fixed) : 0
Inconsistency in error sectors : 0

Track 15
Pre-gap length : 00:01:65

CRC32 hash : AF5FDB8E
CRC32 hash (skip zero) : 13932647
Statistics
Read error : 0
Skipped (treated as error) : 0
Edge jitter error (maybe fixed) : 0
Atom jitter error (maybe fixed) : 0
Drift error (maybe fixed) : 0
Dropped bytes error (maybe fixed) : 0
Duplicated bytes error (maybe fixed) : 0
Inconsistency in error sectors : 0

Track 16

CRC32 hash : CD99B993
CRC32 hash (skip zero) : E98E03B8
Statistics
Read error : 0
Skipped (treated as error) : 0
Edge jitter error (maybe fixed) : 0
Atom jitter error (maybe fixed) : 0
Drift error (maybe fixed) : 0
Dropped bytes error (maybe fixed) : 0
Duplicated bytes error (maybe fixed) : 0
Inconsistency in error sectors : 0

Track 17
Pre-gap length : 00:02:05

CRC32 hash : B86739B7
CRC32 hash (skip zero) : 250294C3
Statistics
Read error : 0
Skipped (treated as error) : 0
Edge jitter error (maybe fixed) : 0
Atom jitter error (maybe fixed) : 0
Drift error (maybe fixed) : 0
Dropped bytes error (maybe fixed) : 0
Duplicated bytes error (maybe fixed) : 0
Inconsistency in error sectors : 0

Track 18
Pre-gap length : 00:01:60

CRC32 hash : 4562F245
CRC32 hash (skip zero) : D845604C
Statistics
Read error : 0
Skipped (treated as error) : 0
Edge jitter error (maybe fixed) : 0
Atom jitter error (maybe fixed) : 0
Drift error (maybe fixed) : 0
Dropped bytes error (maybe fixed) : 0
Duplicated bytes error (maybe fixed) : 0
Inconsistency in error sectors : 0

Track 19
Pre-gap length : 00:01:60

CRC32 hash : 93DDE5B8
CRC32 hash (skip zero) : 07354DFF
Statistics
Read error : 0
Skipped (treated as error) : 0
Edge jitter error (maybe fixed) : 0
Atom jitter error (maybe fixed) : 0
Drift error (maybe fixed) : 0
Dropped bytes error (maybe fixed) : 0
Duplicated bytes error (maybe fixed) : 0
Inconsistency in error sectors : 0

Track 20
Pre-gap length : 00:01:65

CRC32 hash : 83F8E91F
CRC32 hash (skip zero) : 61A35943
Statistics
Read error : 0
Skipped (treated as error) : 0
Edge jitter error (maybe fixed) : 0
Atom jitter error (maybe fixed) : 0
Drift error (maybe fixed) : 0
Dropped bytes error (maybe fixed) : 0
Duplicated bytes error (maybe fixed) : 0
Inconsistency in error sectors : 0

Track 21
Pre-gap length : 00:01:70

CRC32 hash : A69D56B1
CRC32 hash (skip zero) : A5BFCF56
Statistics
Read error : 0
Skipped (treated as error) : 0
Edge jitter error (maybe fixed) : 0
Atom jitter error (maybe fixed) : 0
Drift error (maybe fixed) : 0
Dropped bytes error (maybe fixed) : 0
Duplicated bytes error (maybe fixed) : 0
Inconsistency in error sectors : 0

Track 22
Pre-gap length : 00:01:60

CRC32 hash : 2C21A0D0
CRC32 hash (skip zero) : 6B871C06
Statistics
Read error : 0
Skipped (treated as error) : 0
Edge jitter error (maybe fixed) : 0
Atom jitter error (maybe fixed) : 0
Drift error (maybe fixed) : 0
Dropped bytes error (maybe fixed) : 0
Duplicated bytes error (maybe fixed) : 0
Inconsistency in error sectors : 0

Track 23
Pre-gap length : 00:01:70

CRC32 hash : 3486DFDA
CRC32 hash (skip zero) : 45051537
Statistics
Read error : 0
Skipped (treated as error) : 0
Edge jitter error (maybe fixed) : 0
Atom jitter error (maybe fixed) : 0
Drift error (maybe fixed) : 0
Dropped bytes error (maybe fixed) : 0
Duplicated bytes error (maybe fixed) : 0
Inconsistency in error sectors : 0

Track 24
Pre-gap length : 00:01:65

CRC32 hash : CE1C4FEC
CRC32 hash (skip zero) : C229527F
Statistics
Read error : 0
Skipped (treated as error) : 0
Edge jitter error (maybe fixed) : 0
Atom jitter error (maybe fixed) : 0
Drift error (maybe fixed) : 0
Dropped bytes error (maybe fixed) : 0
Duplicated bytes error (maybe fixed) : 0
Inconsistency in error sectors : 0

Track 25
Pre-gap length : 00:01:65

CRC32 hash : 4E31513C
CRC32 hash (skip zero) : 8ECCE4A4
Statistics
Read error : 0
Skipped (treated as error) : 0
Edge jitter error (maybe fixed) : 0
Atom jitter error (maybe fixed) : 0
Drift error (maybe fixed) : 0
Dropped bytes error (maybe fixed) : 0
Duplicated bytes error (maybe fixed) : 0
Inconsistency in error sectors : 0

Track 26
Pre-gap length : 00:01:65

CRC32 hash : 000E0567
CRC32 hash (skip zero) : D58EE1AE
Statistics
Read error : 0
Skipped (treated as error) : 0
Edge jitter error (maybe fixed) : 0
Atom jitter error (maybe fixed) : 0
Drift error (maybe fixed) : 0
Dropped bytes error (maybe fixed) : 0
Duplicated bytes error (maybe fixed) : 0
Inconsistency in error sectors : 0

No errors occurred

End of status report
Volume 3 & 4
John Lennon - The Complete Lost Lennon Tapes
Disc One (01

Трeклист:

01. Revolution (Remix) 03:23
02. Power To The People (Early Alternate Take) 02:46
03. Attica State 03:36
04. The Luck Of The Irish 03:36
05. John Sinclair (3-5 Free John Sinclair Rally Ann Arbor, Dec 10 '71) 03:08
06. I'm A Man (Dakota Tape) 01:51
07. 'Twas A Night Like Ethel Merman
08. Medley: Beyond The Sea/Blue Moon/Young Love (Dacota tape) 05:10
09. Clean Up Time (Unreleased Mix) 03:23
10. Good Morning, Good Morning (Original Demo '67) 01:01
11. Everybody's Got Something To Hide Except Me And My Monkey (Demo) 02:57
12. Everyone Had A Hard Year (Demo '68 ) 01:33
13. Brown-Eyed Handsome Man (Demo '68 ) 02:14
14. Serve Yourself (John's Bob Dylan parodies) 05:26
15. Lord, Take This Make-Up Off Me (John's Bob Dylan parodies)
16. The News Of The Day (From Reuters) (John's Bob Dylan parodies) 06:44
17. Dear Pruence (Demo '68 ) 04:43
18. Jealous Guy (Outtake) 04:06
19. God Save Oz (Early Outtake) 01:56
20. Rock And Roll People (Early Outtake) 02:10
21. Rock Island Line (Dakota Tape) 02:48
22. Real Life (Dakota Tape) 04:51
23. My Life (Take #1)(Dakota Tape) 01:02
24. My Life (Take #3)(Dakota Tape) 02:32
25. Don't Be Crazy (Dakota Tape) 01:37
26. The Worst Is Over (Dakota Tape) 03:29
Log EAC
X Lossless Decoder version 20110703 (135.1)

XLD extraction logfile from 2011-07-30 13:10:03 +0100

Various Artists / Complete Lost Lennon Tapes 03

Used drive : HL-DT-ST DVDRW GS22N (revision CP08)

Ripper mode : CDParanoia III 10.2
Disable audio cache : OK for the drive with a cache less than 2750KiB
Make use of C2 pointers : YES
Read offset correction : 667
Max retry count : 100
Gap status : Analyzed, Appended

TOC of the extracted CD
Track | Start | Length | Start sector | End sector
---------------------------------------------------------
1 | 00:00:00 | 03:25:57 | 0 | 15431
2 | 03:25:57 | 02:47:63 | 15432 | 28019
3 | 06:13:45 | 03:35:37 | 28020 | 44181
4 | 09:49:07 | 03:36:48 | 44182 | 60429
5 | 13:25:55 | 03:10:50 | 60430 | 74729
6 | 16:36:30 | 01:53:55 | 74730 | 83259
7 | 18:30:10 | 05:12:70 | 83260 | 106729
8 | 23:43:05 | 03:25:32 | 106730 | 122136
9 | 27:08:37 | 01:03:33 | 122137 | 126894
10 | 28:11:70 | 02:58:20 | 126895 | 140264
11 | 31:10:15 | 01:35:47 | 140265 | 147436
12 | 32:45:62 | 02:16:08 | 147437 | 157644
13 | 35:01:70 | 05:28:05 | 157645 | 182249
14 | 40:30:00 | 06:47:17 | 182250 | 212791
15 | 47:17:17 | 04:44:13 | 212792 | 234104
16 | 52:01:30 | 04:07:45 | 234105 | 252674
17 | 56:09:00 | 01:57:50 | 252675 | 261499
18 | 58:06:50 | 02:12:12 | 261500 | 271411
19 | 60:18:62 | 02:49:18 | 271412 | 284104
20 | 63:08:05 | 04:54:10 | 284105 | 306164
21 | 68:02:15 | 01:01:65 | 306165 | 310804
22 | 69:04:05 | 02:32:72 | 310805 | 322276
23 | 71:37:02 | 01:37:65 | 322277 | 329616
24 | 73:14:67 | 03:28:08 | 329617 | 345224

All Tracks
Filename : Complete Lost Lennon Tapes 03.flac
CRC32 hash : FD5B4AD5
CRC32 hash (skip zero) : 362BA84B
Statistics
Read error : 0
Skipped (treated as error) : 0
Edge jitter error (maybe fixed) : 0
Atom jitter error (maybe fixed) : 0
Drift error (maybe fixed) : 0
Dropped bytes error (maybe fixed) : 0
Duplicated bytes error (maybe fixed) : 0
Inconsistency in error sectors : 0

Track 01
Pre-gap length : 00:02:00

CRC32 hash : 0C806512
CRC32 hash (skip zero) : 9B8946F3
Statistics
Read error : 0
Skipped (treated as error) : 0
Edge jitter error (maybe fixed) : 0
Atom jitter error (maybe fixed) : 0
Drift error (maybe fixed) : 0
Dropped bytes error (maybe fixed) : 0
Duplicated bytes error (maybe fixed) : 0
Inconsistency in error sectors : 0

Track 02
Pre-gap length : 00:02:42

CRC32 hash : 01C987EE
CRC32 hash (skip zero) : 01F6ACF2
Statistics
Read error : 0
Skipped (treated as error) : 0
Edge jitter error (maybe fixed) : 0
Atom jitter error (maybe fixed) : 0
Drift error (maybe fixed) : 0
Dropped bytes error (maybe fixed) : 0
Duplicated bytes error (maybe fixed) : 0
Inconsistency in error sectors : 0

Track 03
Pre-gap length : 00:01:51

CRC32 hash : 1C7374BA
CRC32 hash (skip zero) : 60A61C00
Statistics
Read error : 0
Skipped (treated as error) : 0
Edge jitter error (maybe fixed) : 0
Atom jitter error (maybe fixed) : 0
Drift error (maybe fixed) : 0
Dropped bytes error (maybe fixed) : 0
Duplicated bytes error (maybe fixed) : 0
Inconsistency in error sectors : 0

Track 04

CRC32 hash : 6467059A
CRC32 hash (skip zero) : B1BC9B89
Statistics
Read error : 0
Skipped (treated as error) : 0
Edge jitter error (maybe fixed) : 0
Atom jitter error (maybe fixed) : 0
Drift error (maybe fixed) : 0
Dropped bytes error (maybe fixed) : 0
Duplicated bytes error (maybe fixed) : 0
Inconsistency in error sectors : 0

Track 05

CRC32 hash : 9FC14A08
CRC32 hash (skip zero) : 421D56D1
Statistics
Read error : 0
Skipped (treated as error) : 0
Edge jitter error (maybe fixed) : 0
Atom jitter error (maybe fixed) : 0
Drift error (maybe fixed) : 0
Dropped bytes error (maybe fixed) : 0
Duplicated bytes error (maybe fixed) : 0
Inconsistency in error sectors : 0

Track 06
Pre-gap length : 00:03:03

CRC32 hash : 434E8508
CRC32 hash (skip zero) : B246751C
Statistics
Read error : 0
Skipped (treated as error) : 0
Edge jitter error (maybe fixed) : 0
Atom jitter error (maybe fixed) : 0
Drift error (maybe fixed) : 0
Dropped bytes error (maybe fixed) : 0
Duplicated bytes error (maybe fixed) : 0
Inconsistency in error sectors : 0

Track 07
Pre-gap length : 00:02:13

CRC32 hash : 9B738AF8
CRC32 hash (skip zero) : 7730F884
Statistics
Read error : 0
Skipped (treated as error) : 0
Edge jitter error (maybe fixed) : 0
Atom jitter error (maybe fixed) : 0
Drift error (maybe fixed) : 0
Dropped bytes error (maybe fixed) : 0
Duplicated bytes error (maybe fixed) : 0
Inconsistency in error sectors : 0

Track 08
Pre-gap length : 00:02:63

CRC32 hash : 1962211F
CRC32 hash (skip zero) : B7DDF7D6
Statistics
Read error : 0
Skipped (treated as error) : 0
Edge jitter error (maybe fixed) : 0
Atom jitter error (maybe fixed) : 0
Drift error (maybe fixed) : 0
Dropped bytes error (maybe fixed) : 0
Duplicated bytes error (maybe fixed) : 0
Inconsistency in error sectors : 0

Track 09
Pre-gap length : 00:02:00

CRC32 hash : AA3096C3
CRC32 hash (skip zero) : F4826BE1
Statistics
Read error : 0
Skipped (treated as error) : 0
Edge jitter error (maybe fixed) : 0
Atom jitter error (maybe fixed) : 0
Drift error (maybe fixed) : 0
Dropped bytes error (maybe fixed) : 0
Duplicated bytes error (maybe fixed) : 0
Inconsistency in error sectors : 0

Track 10
Pre-gap length : 00:02:05

CRC32 hash : 70F5347C
CRC32 hash (skip zero) : 58E52087
Statistics
Read error : 0
Skipped (treated as error) : 0
Edge jitter error (maybe fixed) : 0
Atom jitter error (maybe fixed) : 0
Drift error (maybe fixed) : 0
Dropped bytes error (maybe fixed) : 0
Duplicated bytes error (maybe fixed) : 0
Inconsistency in error sectors : 0

Track 11
Pre-gap length : 00:02:05

CRC32 hash : A38AB490
CRC32 hash (skip zero) : F6C17EAC
Statistics
Read error : 0
Skipped (treated as error) : 0
Edge jitter error (maybe fixed) : 0
Atom jitter error (maybe fixed) : 0
Drift error (maybe fixed) : 0
Dropped bytes error (maybe fixed) : 0
Duplicated bytes error (maybe fixed) : 0
Inconsistency in error sectors : 0

Track 12
Pre-gap length : 00:02:20

CRC32 hash : EDB90056
CRC32 hash (skip zero) : 9B802814
Statistics
Read error : 0
Skipped (treated as error) : 0
Edge jitter error (maybe fixed) : 0
Atom jitter error (maybe fixed) : 0
Drift error (maybe fixed) : 0
Dropped bytes error (maybe fixed) : 0
Duplicated bytes error (maybe fixed) : 0
Inconsistency in error sectors : 0

Track 13
Pre-gap length : 00:02:15

CRC32 hash : C26ED2F5
CRC32 hash (skip zero) : D4064E30
Statistics
Read error : 0
Skipped (treated as error) : 0
Edge jitter error (maybe fixed) : 0
Atom jitter error (maybe fixed) : 0
Drift error (maybe fixed) : 0
Dropped bytes error (maybe fixed) : 0
Duplicated bytes error (maybe fixed) : 0
Inconsistency in error sectors : 0

Track 14
Pre-gap length : 00:02:35

CRC32 hash : C3673B9B
CRC32 hash (skip zero) : 73CA2582
Statistics
Read error : 0
Skipped (treated as error) : 0
Edge jitter error (maybe fixed) : 0
Atom jitter error (maybe fixed) : 0
Drift error (maybe fixed) : 0
Dropped bytes error (maybe fixed) : 0
Duplicated bytes error (maybe fixed) : 0
Inconsistency in error sectors : 0

Track 15
Pre-gap length : 00:02:47

CRC32 hash : FC6F75C9
CRC32 hash (skip zero) : 1A43774D
Statistics
Read error : 0
Skipped (treated as error) : 0
Edge jitter error (maybe fixed) : 0
Atom jitter error (maybe fixed) : 0
Drift error (maybe fixed) : 0
Dropped bytes error (maybe fixed) : 0
Duplicated bytes error (maybe fixed) : 0
Inconsistency in error sectors : 0

Track 16
Pre-gap length : 00:01:28

CRC32 hash : 662CE5E4
CRC32 hash (skip zero) : 1DCE42CD
Statistics
Read error : 0
Skipped (treated as error) : 0
Edge jitter error (maybe fixed) : 0
Atom jitter error (maybe fixed) : 0
Drift error (maybe fixed) : 0
Dropped bytes error (maybe fixed) : 0
Duplicated bytes error (maybe fixed) : 0
Inconsistency in error sectors : 0

Track 17
Pre-gap length : 00:01:33

CRC32 hash : F0097985
CRC32 hash (skip zero) : FE5EEED7
Statistics
Read error : 0
Skipped (treated as error) : 0
Edge jitter error (maybe fixed) : 0
Atom jitter error (maybe fixed) : 0
Drift error (maybe fixed) : 0
Dropped bytes error (maybe fixed) : 0
Duplicated bytes error (maybe fixed) : 0
Inconsistency in error sectors : 0

Track 18
Pre-gap length : 00:01:35

CRC32 hash : 3A3B54E9
CRC32 hash (skip zero) : EC2F7C05
Statistics
Read error : 0
Skipped (treated as error) : 0
Edge jitter error (maybe fixed) : 0
Atom jitter error (maybe fixed) : 0
Drift error (maybe fixed) : 0
Dropped bytes error (maybe fixed) : 0
Duplicated bytes error (maybe fixed) : 0
Inconsistency in error sectors : 0

Track 19
Pre-gap length : 00:02:12

CRC32 hash : 2D96BF33
CRC32 hash (skip zero) : 270D958C
Statistics
Read error : 0
Skipped (treated as error) : 0
Edge jitter error (maybe fixed) : 0
Atom jitter error (maybe fixed) : 0
Drift error (maybe fixed) : 0
Dropped bytes error (maybe fixed) : 0
Duplicated bytes error (maybe fixed) : 0
Inconsistency in error sectors : 0

Track 20
Pre-gap length : 00:01:55

CRC32 hash : DDB1457C
CRC32 hash (skip zero) : 3D913614
Statistics
Read error : 0
Skipped (treated as error) : 0
Edge jitter error (maybe fixed) : 0
Atom jitter error (maybe fixed) : 0
Drift error (maybe fixed) : 0
Dropped bytes error (maybe fixed) : 0
Duplicated bytes error (maybe fixed) : 0
Inconsistency in error sectors : 0

Track 21
Pre-gap length : 00:02:40

CRC32 hash : 80AEA350
CRC32 hash (skip zero) : 49C4A6FD
Statistics
Read error : 0
Skipped (treated as error) : 0
Edge jitter error (maybe fixed) : 0
Atom jitter error (maybe fixed) : 0
Drift error (maybe fixed) : 0
Dropped bytes error (maybe fixed) : 0
Duplicated bytes error (maybe fixed) : 0
Inconsistency in error sectors : 0

Track 22

CRC32 hash : 023D8391
CRC32 hash (skip zero) : 774DC9A0
Statistics
Read error : 0
Skipped (treated as error) : 0
Edge jitter error (maybe fixed) : 0
Atom jitter error (maybe fixed) : 0
Drift error (maybe fixed) : 0
Dropped bytes error (maybe fixed) : 0
Duplicated bytes error (maybe fixed) : 0
Inconsistency in error sectors : 0

Track 23
Pre-gap length : 00:00:50

CRC32 hash : DF092B86
CRC32 hash (skip zero) : D5676224
Statistics
Read error : 0
Skipped (treated as error) : 0
Edge jitter error (maybe fixed) : 0
Atom jitter error (maybe fixed) : 0
Drift error (maybe fixed) : 0
Dropped bytes error (maybe fixed) : 0
Duplicated bytes error (maybe fixed) : 0
Inconsistency in error sectors : 0

Track 24
Pre-gap length : 00:00:47

CRC32 hash : D55BA5DD
CRC32 hash (skip zero) : 8C88B2CF
Statistics
Read error : 0
Skipped (treated as error) : 0
Edge jitter error (maybe fixed) : 0
Atom jitter error (maybe fixed) : 0
Drift error (maybe fixed) : 0
Dropped bytes error (maybe fixed) : 0
Duplicated bytes error (maybe fixed) : 0
Inconsistency in error sectors : 0

No errors occurred

End of status report
Disc Two (01

Трeклист:

01. In The Studio (Dakota tape) 06:52
02. Starting Over (Vocal Booth) (Dakota tape)
03. Starting Over (Early Outtake) 04:15
04. Maggie Mae (Hitfactory)
05. Honey Don't (Recorded During Making of Plastic Ono Band LP)
06. Don't be Cruel (Same)
07. Matchbox (Same) 05:22
08. Dear Prudence (Demo) 03:56
09. Cold Turkey (Demo) 03:36
10. Here We Go Again (Take #2)(Demo) 03:01
11. Woman (Demo) 03:28
12. The Neville Club 03:01
13. Rock And Roll People (Unreleased work version with Phil Spector)
14. Not Fade Away (Jam with Elephant's Memory Band) 06:00
15. Sweet Little Sixteen (Unreleased Work Version With Phil Spector) 05:15
16. You Can't Catch Me (Unreleased Work Version With Phil Spector) 03:29
17. Mirror, Mirror (Take #1) (Unreleased Demo)
18. Mirror, Mirror (Take #5) (Unreleased Demo) 05:13
19. Mind Games (Alternate Take) 04:04
20. Cold Turkey (From Acetate) 04:56
21. One Of The Boys (Dakota Tape) 03:12
22. Tight A$ (Original Demo) 03:34
23. Studio Banter
24. Woman (Vocal Booth) 04:56
25. Dear Yoko (Demo) 03:45
26. I Don't Wanna Face It (Demo) 02:05
Log EAC
X Lossless Decoder version 20110703 (135.1)

XLD extraction logfile from 2011-07-30 13:24:32 +0100

Various Artists / Complete Lost Lennon Tapes 04

Used drive : HL-DT-ST DVDRW GS22N (revision CP08)

Ripper mode : CDParanoia III 10.2
Disable audio cache : OK for the drive with a cache less than 2750KiB
Make use of C2 pointers : YES
Read offset correction : 667
Max retry count : 100
Gap status : Analyzed, Appended

TOC of the extracted CD
Track | Start | Length | Start sector | End sector
---------------------------------------------------------
1 | 00:00:00 | 06:54:37 | 0 | 31086
2 | 06:54:37 | 04:17:48 | 31087 | 50409
3 | 11:12:10 | 05:24:25 | 50410 | 74734
4 | 16:36:35 | 03:58:67 | 74735 | 92651
5 | 20:35:27 | 03:39:03 | 92652 | 109079
6 | 24:14:30 | 03:03:45 | 109080 | 122849
7 | 27:18:00 | 03:30:65 | 122850 | 138664
8 | 30:48:65 | 00:40:35 | 138665 | 141699
9 | 31:29:25 | 06:00:57 | 141700 | 168756
10 | 37:30:07 | 05:15:43 | 168757 | 192424
11 | 42:45:50 | 03:31:47 | 192425 | 208296
12 | 46:17:22 | 05:16:15 | 208297 | 232011
13 | 51:33:37 | 04:07:38 | 232012 | 250574
14 | 55:41:00 | 04:58:02 | 250575 | 272926
15 | 60:39:02 | 03:16:43 | 272927 | 287669
16 | 63:55:45 | 03:36:00 | 287670 | 303869
17 | 67:31:45 | 04:58:10 | 303870 | 326229
18 | 72:29:55 | 03:46:30 | 326230 | 343209
19 | 76:16:10 | 02:05:10 | 343210 | 352594

All Tracks
Filename : Complete Lost Lennon Tapes 04.flac
CRC32 hash : 5BB3CF45
CRC32 hash (skip zero) : 4C369651
Statistics
Read error : 0
Skipped (treated as error) : 0
Edge jitter error (maybe fixed) : 0
Atom jitter error (maybe fixed) : 0
Drift error (maybe fixed) : 0
Dropped bytes error (maybe fixed) : 0
Duplicated bytes error (maybe fixed) : 0
Inconsistency in error sectors : 0

Track 01
Pre-gap length : 00:02:00

CRC32 hash : 34D8CD55
CRC32 hash (skip zero) : 3244D5B0
Statistics
Read error : 0
Skipped (treated as error) : 0
Edge jitter error (maybe fixed) : 0
Atom jitter error (maybe fixed) : 0
Drift error (maybe fixed) : 0
Dropped bytes error (maybe fixed) : 0
Duplicated bytes error (maybe fixed) : 0
Inconsistency in error sectors : 0

Track 02
Pre-gap length : 00:01:47

CRC32 hash : 70BB1085
CRC32 hash (skip zero) : 4AE8CB2C
Statistics
Read error : 0
Skipped (treated as error) : 0
Edge jitter error (maybe fixed) : 0
Atom jitter error (maybe fixed) : 0
Drift error (maybe fixed) : 0
Dropped bytes error (maybe fixed) : 0
Duplicated bytes error (maybe fixed) : 0
Inconsistency in error sectors : 0

Track 03
Pre-gap length : 00:02:40

CRC32 hash : 2B49EE08
CRC32 hash (skip zero) : 76DDC256
Statistics
Read error : 0
Skipped (treated as error) : 0
Edge jitter error (maybe fixed) : 0
Atom jitter error (maybe fixed) : 0
Drift error (maybe fixed) : 0
Dropped bytes error (maybe fixed) : 0
Duplicated bytes error (maybe fixed) : 0
Inconsistency in error sectors : 0

Track 04
Pre-gap length : 00:01:55

CRC32 hash : 7FE3F227
CRC32 hash (skip zero) : 5201DE4D
Statistics
Read error : 0
Skipped (treated as error) : 0
Edge jitter error (maybe fixed) : 0
Atom jitter error (maybe fixed) : 0
Drift error (maybe fixed) : 0
Dropped bytes error (maybe fixed) : 0
Duplicated bytes error (maybe fixed) : 0
Inconsistency in error sectors : 0

Track 05
Pre-gap length : 00:02:35

CRC32 hash : 2DB7F6CF
CRC32 hash (skip zero) : 85EFB805
Statistics
Read error : 0
Skipped (treated as error) : 0
Edge jitter error (maybe fixed) : 0
Atom jitter error (maybe fixed) : 0
Drift error (maybe fixed) : 0
Dropped bytes error (maybe fixed) : 0
Duplicated bytes error (maybe fixed) : 0
Inconsistency in error sectors : 0

Track 06
Pre-gap length : 00:02:38

CRC32 hash : 691F097E
CRC32 hash (skip zero) : 2FBDA409
Statistics
Read error : 0
Skipped (treated as error) : 0
Edge jitter error (maybe fixed) : 0
Atom jitter error (maybe fixed) : 0
Drift error (maybe fixed) : 0
Dropped bytes error (maybe fixed) : 0
Duplicated bytes error (maybe fixed) : 0
Inconsistency in error sectors : 0

Track 07
Pre-gap length : 00:02:33

CRC32 hash : F00D3740
CRC32 hash (skip zero) : 8CF7B46F
Statistics
Read error : 0
Skipped (treated as error) : 0
Edge jitter error (maybe fixed) : 0
Atom jitter error (maybe fixed) : 0
Drift error (maybe fixed) : 0
Dropped bytes error (maybe fixed) : 0
Duplicated bytes error (maybe fixed) : 0
Inconsistency in error sectors : 0

Track 08
Pre-gap length : 00:02:30

CRC32 hash : E8ACDE6C
CRC32 hash (skip zero) : 8D4DD8B3
Statistics
Read error : 0
Skipped (treated as error) : 0
Edge jitter error (maybe fixed) : 0
Atom jitter error (maybe fixed) : 0
Drift error (maybe fixed) : 0
Dropped bytes error (maybe fixed) : 0
Duplicated bytes error (maybe fixed) : 0
Inconsistency in error sectors : 0

Track 09
Pre-gap length : 00:03:43

CRC32 hash : AAC61E09
CRC32 hash (skip zero) : C8EE5088
Statistics
Read error : 0
Skipped (treated as error) : 0
Edge jitter error (maybe fixed) : 0
Atom jitter error (maybe fixed) : 0
Drift error (maybe fixed) : 0
Dropped bytes error (maybe fixed) : 0
Duplicated bytes error (maybe fixed) : 0
Inconsistency in error sectors : 0

Track 10
Pre-gap length : 00:00:67

CRC32 hash : A0CB4E52
CRC32 hash (skip zero) : 26A62E4A
Statistics
Read error : 0
Skipped (treated as error) : 0
Edge jitter error (maybe fixed) : 0
Atom jitter error (maybe fixed) : 0
Drift error (maybe fixed) : 0
Dropped bytes error (maybe fixed) : 0
Duplicated bytes error (maybe fixed) : 0
Inconsistency in error sectors : 0

Track 11
Pre-gap length : 00:00:43

CRC32 hash : 2A858260
CRC32 hash (skip zero) : B4A01CFF
Statistics
Read error : 0
Skipped (treated as error) : 0
Edge jitter error (maybe fixed) : 0
Atom jitter error (maybe fixed) : 0
Drift error (maybe fixed) : 0
Dropped bytes error (maybe fixed) : 0
Duplicated bytes error (maybe fixed) : 0
Inconsistency in error sectors : 0

Track 12
Pre-gap length : 00:02:32

CRC32 hash : 397BD745
CRC32 hash (skip zero) : 4C276E5D
Statistics
Read error : 0
Skipped (treated as error) : 0
Edge jitter error (maybe fixed) : 0
Atom jitter error (maybe fixed) : 0

No errors occurred

End of status report
Музыка / Lossless / Разное
СКАЧАТЬ БЕСПЛАТНО  [8.6 GB]


29
окт
2010

John Lennon - Signature Box Set [Box-Set, Original Recording Remastered] [2010, Rock, MP3]

Формат: MP3, tracks, 214-282kbps [VBR]
Год выпуска: 2010
Страна: USA
Жанр: Rock
Продолжительность: 07:30:45
Описание: Disc 1 1. Mother (5:36) 2. Hold On (1:52) 3. I Found Out (3:38) 4. Working Class Hero (3:47) 5. Isolation (2:52) 6. Remember (4:32) 7. Love (3:22) 8. Well Well Well (5:57) 9. Look At Me (2:53) 10. God (4:12) 11. My Mummy's Dead (0:51) Disc 2 1. Imagine (3:07) 2. Crippled Inside (3:52) 3. Jealous Guy (4:17) 4. It's So Hard (2:29) 5. I Don't Want To Be A Soldier Mama (6:08) 6. Give Me Some Truth (3:17) 7. Oh My Love (2:48) 8. How Do You Sleep? (5:39) 9. How? (3:46) 10. Oh Yoko! ...

19
окт
2010

John Lennon - Gimme Some Truth (4CD Box Set) [2010, Classic Rock, FLAC]

Формат: FLAC, (tracks + .cue), lossless
Год выпуска: 2010
Страна: UK
Жанр: Classic Rock
Продолжительность: 04:30:02
Описание: Disc 1 (Working Class Hero) 01
Трэклист: 01. Working Class Hero 03:49 02. Instant Karma! (We Shall Shine On) 03:25 03. Power To The People 03:22 04. God 04:11 05. I Don't Wanna Be A Soldier Mama I Don't Wanna Die 06:06 06. Gimme Some Truth 03:14 07. Sunday Bloody Sunday 05:02 08. Steel And Glass 04:39 09. Meat City 02:52 10. I Don't Wanna Face It 03:23 11. Remember 04:35 12. Woman Is The Nigger Of The World 05:17 13. I Found Out 03:37 14. Isolation 02:53 15. Imagine 0 ...

31
окт
2010

John Lennon - Anthology (4 CD Box Set) [1998, Rock, FLAC]

Формат: FLAC, (tracks + .cue), lossless
Год выпуска: 1998
Страна: EU
Жанр: Rock
Продолжительность: 04:27:44
Описание: John Lennon - Anthology (4 CD Box Set) Треклист CD 1 - Ascot ------------------------------------------------------------ 01. Working Class Hero [04:21] 02. God [03:33] 03. I Found Out [03:48] 04. Hold On [00:44] 05. Isolation [03:47] 06. Love [02:45] 07. Mother [03:49] 08. Remember [02:46] 09. Imagine (take 1) [03:23] 10. 'Fortunately' - vignette from bed-in [00:19] 11. Baby Please Don't Go [04:05] 12. Oh My Love [02:56] 13. Jealous Guy [04:11] 14. Maggie Mae [0 ...

07
янв
2011

John Lennon - Home Tapes (Studio outtakes Home Recording) [2010, Rock, WAVPack]

Формат: WAVPack, (image + .cue), lossless
Год выпуска: 2010
Страна: UK
Жанр: Rock
Продолжительность: 0:48:26
Описание: 01. Mother 4:25 02. Love 2:38 03. God 4:35 04. I Found Out 4:32 05. Nobody Told Me 3:14 06. Honey Don't 1:41 07. One Of The Boys 2:37 08. India, India 3:07 09. Serve Yourself 5:20 10. Isolation 3:09 11. Remember 5:28 12. Beautiful Boy (Darling Boy) 4:09 13. I Don't Wanna Be A Soldier Mama I Don't Wanna Die 3:31
Доп. информация: Релиз представлен группой: Log EAC Exact Audio Copy V1.0 beta 1 from 15. November 2010 EAC extraction logfile from 1. January 2011, 17:14 John Le ...

19
ноя
2010

John Lennon - Signature Box [2010, Rock, FLAC]

Формат: FLAC, (tracks + .cue), lossless
Год выпуска: 2010
Страна: UK
Жанр: Rock
Продолжительность: 07:31:48 Описание 1970 - Plastic Ono Band 00
Трэклист: 01. Mother 05:36 02. Hold On 01:52 03. I Found Out 03:38 04. Working Class Hero 03:47 05. Isolation 02:52 06. Remember 04:32 07. Love 03:22 08. Well Well Well 05:57 09. Look At Me 02:53 10. God 04:12 11. My Mummy's Dead 00:51 Log XLD John Lennon - Plastic Ono Band X Lossless Decoder version 20100926 (123.1) XLD extraction logfile from 2010-10-08 19:36:22 +0600 John Lennon / Plastic Ono Band Used drive : HL-DT-ST DVDRW GS23N (revi ...

28
мая
2017

John Lennon - Complete Promo Clip Collection [2016, Rock, 4xDVD5]

Формат: 4xDVD5, DVD Video, MPEG2, AC3
Песня: Complete Promo Clip Collection
Жанр: Rock
Продолжительность: 06:06:20
Год выпуска: 2016 DVD 1
Видео: 720 x 480 (NTSC 16:9) at 29.970 fps, MPEG-2, ~ 5573 Kbps DVD 2
Видео: 720 x 480 (NTSC 16:9) at 29.970 fps, MPEG-2, ~ 5294 Kbps DVD 3
Видео: 720 x 480 (NTSC 16:9) at 29.970 fps, MPEG-2, ~ 6539 Kbps DVD 4
Видео: 720 x 480 (NTSC 16:9) at 29.970 fps, MPEG-2, ~ 6386 Kbps
Аудио: AC3 , 192 Kbps, 48.0 KHz, 2 ch
Доп. информация: Треклист DVD 1 01. Give Peace A Chance #1 (1969) 02. Give Peace A Chance #2 (1969) 03. Give Peace A Chance #3 (1992) 04. Gi ...

09
дек
2014

John Lennon - Lennon Legend: The very best of John Lennon [1998, Classic Rock, FLAC]

Формат: FLAC, (image + .cue), lossless
Год выпуска: 1998
Страна: UK
Жанр: Classic Rock
Продолжительность: 01:17:31
Описание: 01. Imagine - 00:03:04 02. Instant Karma - 00:03:21 03. Mother [Single Edit] - 00:03:55 04. Jealous Guy - 00:04:16 05. Power To The People - 00:03:19 06. Cold Turkey - 00:05:01 07. Love - 00:03:23 08. Mind Games - 00:04:14 09. Whatever Gets You Thru The Night - 00:03:21 10. #9 Dream - 00:04:48 11. Stand By Me - 00:03:28 12. (Just Like) Starting Over - 00:03:57 13. Woman - 00:03:28 14. Beautiful Boy (Darling Boy) - 00:04:01 15. Watching The Wheels - 00:03:32 16. Nobody To ...

26
фев
2009

John Lennon - Lennon Legend: The Very Best of John Lennon [1988, Rock]

Формат: MP3, tracks, 320kbps
Год выпуска: 1988
Страна: England
Жанр: Rock
Продолжительность: 00:57:04
Трэклист: 1. Imagine 2. Instant Karma! 3. Mother 4. Jealous Guy 5. Power to the People 6. Cold Turkey 7. Love Listen 8. Mind Games 9. Whatever Gets You Thru the Night 10. #9 Dream 11. Stand by Me 12. Starting Over, (Just Like) 13. Woman 14. Beautiful Boy (Darling Boy) 15. Watching the Wheels
Доп. информация: Внимание! По интернету гуляет фальшивка "John Lennon - Legendary Hits (2009)".Такого альбома нет- это копия с альбома 1988, в трэклисте указаны только 12 композиций, которые полностью не ...

02
сен
2010

Lennon Legend: The very best of John Lennon [1998, Classic Rock, MP3]

Формат: MP3, tracks, 320kbps
Год выпуска: 1998
Страна: USA
Жанр: Classic Rock
Продолжительность: 01:17:31
Описание: 01. Imagine - 00:03:04 02. Instant Karma - 00:03:21 03. Mother [Single Edit] - 00:03:55 04. Jealous Guy - 00:04:16 05. Power To The People - 00:03:19 06. Cold Turkey - 00:05:01 07. Love - 00:03:23 08. Mind Games - 00:04:14 09. Whatever Gets You Thru The Night - 00:03:21 10. #9 Dream - 00:04:48 11. Stand By Me - 00:03:28 12. (Just Like) Starting Over - 00:03:57 13. Woman - 00:03:28 14. Beautiful Boy (Darling Boy) - 00:04:01 15. Watching The Wheels - 00:03:32 16. Nobody Told Me ...

05
дек
2013

Led Zeppelin - Throwing The Wild Seeds (Nassau Coliseum 1975 Complete Tapes, 6CD Box Set) [2013, Hard Rock, Heavy Metal, Blues Rock, Folk Rock, MP3]

Формат: MP3, tracks, 320kbps
Год выпуска: 2013
Страна: UK
Жанр: Hard Rock, Heavy Metal, Blues Rock, Folk Rock
Продолжительность: 06:33:17
Описание: Throwing The Wild Seeds CD1 01:16:06 320kbps 01. Band Announcements (01:43) 02. Rock And Roll (03:50) 03. Sick Again (06:22) 04. Over The Hills And Far Away (08:35) 05. In My Time Of Dying (11:39) 06. The Song Remains The Same (05:33) 07. The Rain Song (09:06) 08. Kashmir (09:58) 09. No Quarter (19:17) CD2 01:17:11 320kbps 01. Trampled Underfoot (09:10) 02. Moby Dick (26:36) 03. Dazed And Confused (41:28) CD3 00:38:10 320kbps 01. Stairway To Hea ...

03
дек
2015

The Velvet Underground - The Complete Matrix Tapes Recorded November 26 27, 1969 (4CD Box Set) [2015, Rock, Psychedelic Rock, Progressive Rock, FLAC]

Формат: FLAC, (image + .cue), lossless
Год выпуска: 2015
Страна: USA
Жанр: Rock, Psychedelic Rock, Progressive Rock
Продолжительность: 04:34:41
Описание: CD 1 0101. I’m Waiting For The Man (Version 1) 13:07 02. What Goes On (Version 1) 08:52 03. Some Kinda Love (Version 1) 04:57 04. Heroin (Version 1) 08:07 05. The Black Angel’s Death Song 06:19 06. Venus In Furs (Version 1) 04:37 07. There She Goes Again (Version 1) 03:12 08. We’re Gonna Have A Real Good Time Together (Version 1) 03:19 09. Over You (Version 1) 02:23 10. Sweet Jane (Version 1) 05:11 11. Pale Blue Eyes 06:05 12. After Hours (Ve ...

06
янв
2009

Jonh Lennon - Lennon Legend [1998, Rock, Rock'n'Roll]

Jonh Lennon - Lennon Legend
Формат: MP3, tracks, 320kbps
Год выпуска: 1998
Страна: UK
Жанр: Rock, Rock'n'Roll
Продолжительность: 72:34
Описание: 01. Imagine 02. Instant Karma! 03. Mother Love 04.Jealous Guy 05.Power To The People 06.Cold Turkey 07.Love 08.Mind Games 09.Whatever Gets You Thru The Nigh 10.Stand By Me 11.Starting Over 12.Woman 13.Beautiful Boy 14. Watching The Wheels 15.Nobody Told Me 16.Borrowed Time 17.Working Class hero 18. Happy Xmas 19. Give Peace A Chance

29
фев
2008

John Lennon (клипы)[2003, RockMusic, DVD5]

Страна: Англия
Год выпуска: 2003
Продолжительность: 100 мин.
Жанр: RockMusic
Язык: Английский
Описание: Imagine, Instant Karma (We All Shine On), Mother, Jealous Guy, Power to the People, Cold Turkey, Love, Mind Games, Whatever Gets You Through the Night, #9 Dream, Stand by Me, (Just Like) Starting Over, Woman, Beautiful Boy (Darling Boy), Watching the Wheels, Nobody Told Me, Borrowed Time, Working Class Hero, Happy Xmas (War Is Over), Give Peace a Chance
Доп. информация: Звук 5.1, стерео+6 бонусов
Скриншот:Раскрыть
Качество: DVD5
Формат: DVD Video
Видео кодек: MPEG2
Аудио кодек: AC3
Видео: Vi ...

01
июн
2015

John Lennon - Icon [2015, Classic Rock, MP3]

Формат: MP3, tracks, 320kbps
Год выпуска: 2015
Страна: UK
Жанр: Classic Rock
Продолжительность: 00:42:04
Описание: 01. Imagine 02. (Just Like) Starting Over 03. Instant Karma! (We All Shine On) (with The Plastic Ono Band and Yoko Ono) 04. Stand By Me 05. Watching The Wheels 06. Mind Games 07. Jealous Guy (with The Plastic Ono Band and The Flux Fiddlers) 08. Beautiful Boy (Darling Boy) 09. Love 10. Happy Xmas (War Is Over) (with The Harlem Community Choir, The Plastic Ono Band and Yoko Ono) 11. Give Peace A Chance (The Plastic Ono Band)
Доп. информация: Джон Леннон достиг мировой славы прежде ...

21
мая
2011

John Lennon - Imagine [1986, Classic Rock, DVDRip]

Формат: DVDRip, AVI, XviD, MP3
Песня: Imagine
Жанр: Classic Rock
Продолжительность: 00:55:25
Год выпуска: 1986
Видео: 640x476 (1.34:1),29.970 fps,XviD MPEG-4~2086 kbps avg,0.23 bit/pixel
Аудио: 48 kHz,MPEG Layer 3,2 ch,~320.00 kbps avg
Доп. информация:
Перевод: русские cубтитры (отдельным файлом (.srt) , при необходимости можно посмотреть без них) Трэклист 1. Imagine 2. Crippled Inside 3. Jealous Guy 4. Don't Count The Waves 5. It's So Hard 6. Mrs.Lennon 7. I Don't Wanna to Be A Soldier 8. Power To The People 9. Give Me Some Truth 10. Oh My Love 11. How Do You Sleep? 12. How? 13. Oh Yoko!